  0
SECTION
  2
HEADER
  9
$ACADVER
  1
AC1021
  9
$ACADMAINTVER
 70
    50
  9
$DWGCODEPAGE
  3
ANSI_1252
  9
$LASTSAVEDBY
  1
itanang
  9
$INSBASE
 10
0.0
 20
0.0
 30
0.0
  9
$EXTMIN
 10
1.56066175795158
 20
2.226293354296719
 30
0.0
  9
$EXTMAX
 10
4.113942066342875
 20
7.211316189397012
 30
0.0
  9
$LIMMIN
 10
0.0
 20
0.0
  9
$LIMMAX
 10
12.0
 20
9.0
  9
$ORTHOMODE
 70
     0
  9
$REGENMODE
 70
     1
  9
$FILLMODE
 70
     1
  9
$QTEXTMODE
 70
     0
  9
$MIRRTEXT
 70
     1
  9
$LTSCALE
 40
1.0
  9
$ATTMODE
 70
     2
  9
$TEXTSIZE
 40
0.0649676644074742
  9
$TRACEWID
 40
0.05
  9
$TEXTSTYLE
  7
ZERO
  9
$CLAYER
  8
A-DETL-DRSW
  9
$CELTYPE
  6
ByLayer
  9
$CECOLOR
 62
   256
  9
$CELTSCALE
 40
1.0
  9
$DISPSILH
 70
     0
  9
$DIMSCALE
 40
1.0
  9
$DIMASZ
 40
0.075
  9
$DIMEXO
 40
0.06
  9
$DIMDLI
 40
0.38
  9
$DIMRND
 40
0.0
  9
$DIMDLE
 40
0.0
  9
$DIMEXE
 40
0.06
  9
$DIMTP
 40
0.0
  9
$DIMTM
 40
0.0
  9
$DIMTXT
 40
0.085
  9
$DIMCEN
 40
0.025
  9
$DIMTSZ
 40
0.0
  9
$DIMTOL
 70
     0
  9
$DIMLIM
 70
     0
  9
$DIMTIH
 70
     1
  9
$DIMTOH
 70
     1
  9
$DIMSE1
 70
     0
  9
$DIMSE2
 70
     0
  9
$DIMTAD
 70
     0
  9
$DIMZIN
 70
     4
  9
$DIMBLK
  1

  9
$DIMASO
 70
     1
  9
$DIMSHO
 70
     1
  9
$DIMPOST
  1
\X
  9
$DIMAPOST
  1

  9
$DIMALT
 70
     1
  9
$DIMALTD
 70
     1
  9
$DIMALTF
 40
25.4
  9
$DIMLFAC
 40
1.0
  9
$DIMTOFL
 70
     0
  9
$DIMTVP
 40
0.0
  9
$DIMTIX
 70
     0
  9
$DIMSOXD
 70
     0
  9
$DIMSAH
 70
     0
  9
$DIMBLK1
  1

  9
$DIMBLK2
  1

  9
$DIMSTYLE
  2
dim24
  9
$DIMCLRD
 70
     5
  9
$DIMCLRE
 70
     5
  9
$DIMCLRT
 70
     5
  9
$DIMTFAC
 40
1.0
  9
$DIMGAP
 40
0.03125
  9
$DIMJUST
 70
     0
  9
$DIMSD1
 70
     0
  9
$DIMSD2
 70
     0
  9
$DIMTOLJ
 70
     1
  9
$DIMTZIN
 70
     0
  9
$DIMALTZ
 70
     0
  9
$DIMALTTZ
 70
     0
  9
$DIMUPT
 70
     0
  9
$DIMDEC
 70
     3
  9
$DIMTDEC
 70
     3
  9
$DIMALTU
 70
     2
  9
$DIMALTTD
 70
     1
  9
$DIMTXSTY
  7
ZERO
  9
$DIMAUNIT
 70
     0
  9
$DIMADEC
 70
     0
  9
$DIMALTRND
 40
0.0
  9
$DIMAZIN
 70
     0
  9
$DIMDSEP
 70
    46
  9
$DIMATFIT
 70
     1
  9
$DIMFRAC
 70
     0
  9
$DIMLDRBLK
  1

  9
$DIMLUNIT
 70
     3
  9
$DIMLWD
 70
     0
  9
$DIMLWE
 70
     0
  9
$DIMTMOVE
 70
     0
  9
$DIMFXL
 40
1.0
  9
$DIMFXLON
 70
     0
  9
$DIMJOGANG
 40
0.7853981633974483
  9
$DIMTFILL
 70
     0
  9
$DIMTFILLCLR
 70
     0
  9
$DIMARCSYM
 70
     0
  9
$DIMLTYPE
  6

  9
$DIMLTEX1
  6

  9
$DIMLTEX2
  6

  9
$LUNITS
 70
     3
  9
$LUPREC
 70
     3
  9
$SKETCHINC
 40
0.1
  9
$FILLETRAD
 40
0.0
  9
$AUNITS
 70
     0
  9
$AUPREC
 70
     0
  9
$MENU
  1
.
  9
$ELEVATION
 40
0.0
  9
$PELEVATION
 40
0.0
  9
$THICKNESS
 40
0.0
  9
$LIMCHECK
 70
     0
  9
$CHAMFERA
 40
0.5
  9
$CHAMFERB
 40
0.5
  9
$CHAMFERC
 40
1.0
  9
$CHAMFERD
 40
0.0
  9
$SKPOLY
 70
     0
  9
$TDCREATE
 40
2452325.545459838
  9
$TDUCREATE
 40
2452325.712126505
  9
$TDUPDATE
 40
2458414.016967419
  9
$TDUUPDATE
 40
2458414.183634086
  9
$TDINDWG
 40
3.3887910995
  9
$TDUSRTIMER
 40
3.3887898264
  9
$USRTIMER
 70
     1
  9
$ANGBASE
 50
0.0
  9
$ANGDIR
 70
     0
  9
$PDMODE
 70
     0
  9
$PDSIZE
 40
0.0
  9
$PLINEWID
 40
0.0
  9
$SPLFRAME
 70
     0
  9
$SPLINETYPE
 70
     6
  9
$SPLINESEGS
 70
     8
  9
$HANDSEED
  5
7B39
  9
$SURFTAB1
 70
     6
  9
$SURFTAB2
 70
     6
  9
$SURFTYPE
 70
     6
  9
$SURFU
 70
     6
  9
$SURFV
 70
     6
  9
$UCSBASE
  2

  9
$UCSNAME
  2

  9
$UCSORG
 10
0.0
 20
0.0
 30
0.0
  9
$UCSXDIR
 10
1.0
 20
0.0
 30
0.0
  9
$UCSYDIR
 10
0.0
 20
1.0
 30
0.0
  9
$UCSORTHOREF
  2

  9
$UCSORTHOVIEW
 70
     0
  9
$UCSORGTOP
 10
0.0
 20
0.0
 30
0.0
  9
$UCSORGBOTTOM
 10
0.0
 20
0.0
 30
0.0
  9
$UCSORGLEFT
 10
0.0
 20
0.0
 30
0.0
  9
$UCSORGRIGHT
 10
0.0
 20
0.0
 30
0.0
  9
$UCSORGFRONT
 10
0.0
 20
0.0
 30
0.0
  9
$UCSORGBACK
 10
0.0
 20
0.0
 30
0.0
  9
$PUCSBASE
  2

  9
$PUCSNAME
  2

  9
$PUCSORG
 10
0.0
 20
0.0
 30
0.0
  9
$PUCSXDIR
 10
1.0
 20
0.0
 30
0.0
  9
$PUCSYDIR
 10
0.0
 20
1.0
 30
0.0
  9
$PUCSORTHOREF
  2

  9
$PUCSORTHOVIEW
 70
     0
  9
$PUCSORGTOP
 10
0.0
 20
0.0
 30
0.0
  9
$PUCSORGBOTTOM
 10
0.0
 20
0.0
 30
0.0
  9
$PUCSORGLEFT
 10
0.0
 20
0.0
 30
0.0
  9
$PUCSORGRIGHT
 10
0.0
 20
0.0
 30
0.0
  9
$PUCSORGFRONT
 10
0.0
 20
0.0
 30
0.0
  9
$PUCSORGBACK
 10
0.0
 20
0.0
 30
0.0
  9
$USERI1
 70
     0
  9
$USERI2
 70
     0
  9
$USERI3
 70
     0
  9
$USERI4
 70
     0
  9
$USERI5
 70
     0
  9
$USERR1
 40
0.0
  9
$USERR2
 40
0.0
  9
$USERR3
 40
0.0
  9
$USERR4
 40
0.0
  9
$USERR5
 40
0.0
  9
$WORLDVIEW
 70
     1
  9
$SHADEDGE
 70
     3
  9
$SHADEDIF
 70
    70
  9
$TILEMODE
 70
     1
  9
$MAXACTVP
 70
    64
  9
$PINSBASE
 10
0.0
 20
0.0
 30
0.0
  9
$PLIMCHECK
 70
     0
  9
$PEXTMIN
 10
0.6223608640189156
 20
0.7752666362099987
 30
-0.0015258207003583
  9
$PEXTMAX
 10
15.63380452912571
 20
20.79433968291374
 30
0.0000000349246037
  9
$PLIMMIN
 10
-0.4224999870840959
 20
-0.4241657632542407
  9
$PLIMMAX
 10
16.57749953232412
 20
21.57583375615398
  9
$UNITMODE
 70
     0
  9
$VISRETAIN
 70
     1
  9
$PLINEGEN
 70
     0
  9
$PSLTSCALE
 70
     1
  9
$TREEDEPTH
 70
  3020
  9
$CMLSTYLE
  2
Standard
  9
$CMLJUST
 70
     0
  9
$CMLSCALE
 40
1.0
  9
$PROXYGRAPHICS
 70
     1
  9
$MEASUREMENT
 70
     0
  9
$CELWEIGHT
370
    -1
  9
$ENDCAPS
280
     0
  9
$JOINSTYLE
280
     0
  9
$LWDISPLAY
290
     0
  9
$INSUNITS
 70
     1
  9
$HYPERLINKBASE
  1

  9
$STYLESHEET
  1
Zero.ctb
  9
$XEDIT
290
     1
  9
$CEPSNTYPE
380
     0
  9
$PSTYLEMODE
290
     1
  9
$FINGERPRINTGUID
  2
{C83B5C41-633D-4981-A8D7-D6883C970831}
  9
$VERSIONGUID
  2
{8F0D7F4F-7AA9-496B-ACC7-B2CEB5DA7EF9}
  9
$EXTNAMES
290
     1
  9
$PSVPSCALE
 40
1.0
  9
$OLESTARTUP
290
     0
  9
$SORTENTS
280
   127
  9
$INDEXCTL
280
     0
  9
$HIDETEXT
280
     0
  9
$XCLIPFRAME
290
     0
  9
$HALOGAP
280
     0
  9
$OBSCOLOR
 70
   257
  9
$OBSLTYPE
280
     0
  9
$INTERSECTIONDISPLAY
280
     0
  9
$INTERSECTIONCOLOR
 70
   257
  9
$DIMASSOC
280
     1
  9
$PROJECTNAME
  1

  9
$CAMERADISPLAY
290
     0
  9
$LENSLENGTH
 40
50.0
  9
$CAMERAHEIGHT
 40
0.0
  9
$STEPSPERSEC
 40
2.0
  9
$STEPSIZE
 40
6.0
  9
$3DDWFPREC
 40
2.0
  9
$PSOLWIDTH
 40
0.25
  9
$PSOLHEIGHT
 40
4.0
  9
$LOFTANG1
 40
1.570796326794896
  9
$LOFTANG2
 40
1.570796326794896
  9
$LOFTMAG1
 40
0.0
  9
$LOFTMAG2
 40
0.0
  9
$LOFTPARAM
 70
     7
  9
$LOFTNORMALS
280
     1
  9
$LATITUDE
 40
37.795
  9
$LONGITUDE
 40
-122.394
  9
$NORTHDIRECTION
 40
0.0
  9
$TIMEZONE
 70
 -8000
  9
$LIGHTGLYPHDISPLAY
280
     1
  9
$TILEMODELIGHTSYNCH
280
     1
  9
$CMATERIAL
347
3AE8
  9
$SOLIDHIST
280
     0
  9
$SHOWHIST
280
     1
  9
$DWFFRAME
280
     2
  9
$DGNFRAME
280
     0
  9
$REALWORLDSCALE
290
     1
  9
$INTERFERECOLOR
 62
     1
  9
$INTERFEREOBJVS
345
3B0A
  9
$INTERFEREVPVS
346
3B07
  9
$CSHADOW
280
     0
  9
$SHADOWPLANELOCATION
 40
0.0
  0
ENDSEC
  0
SECTION
  2
CLASSES
  0
CLASS
  1
ACDBDICTIONARYWDFLT
  2
AcDbDictionaryWithDefault
  3
ObjectDBX Classes
 90
        0
 91
        1
280
     0
281
     0
  0
CLASS
  1
DICTIONARYVAR
  2
AcDbDictionaryVar
  3
ObjectDBX Classes
 90
        0
 91
       14
280
     0
281
     0
  0
CLASS
  1
RASTERVARIABLES
  2
AcDbRasterVariables
  3
ISM
 90
        0
 91
        1
280
     0
281
     0
  0
CLASS
  1
IMAGE
  2
AcDbRasterImage
  3
ISM
 90
     2175
 91
        0
280
     0
281
     1
  0
CLASS
  1
SORTENTSTABLE
  2
AcDbSortentsTable
  3
ObjectDBX Classes
 90
        0
 91
        4
280
     0
281
     0
  0
CLASS
  1
MATERIAL
  2
AcDbMaterial
  3
ObjectDBX Classes
 90
     1153
 91
        3
280
     0
281
     0
  0
CLASS
  1
VISUALSTYLE
  2
AcDbVisualStyle
  3
ObjectDBX Classes
 90
     4095
 91
       24
280
     0
281
     0
  0
CLASS
  1
TABLESTYLE
  2
AcDbTableStyle
  3
ObjectDBX Classes
 90
     4095
 91
        1
280
     0
281
     0
  0
CLASS
  1
SCALE
  2
AcDbScale
  3
ObjectDBX Classes
 90
     1153
 91
       17
280
     0
281
     0
  0
CLASS
  1
MLEADERSTYLE
  2
AcDbMLeaderStyle
  3
ACDB_MLEADERSTYLE_CLASS
 90
     4095
 91
        1
280
     0
281
     0
  0
CLASS
  1
ACDBSECTIONVIEWSTYLE
  2
AcDbSectionViewStyle
  3
ObjectDBX Classes
 90
     1025
 91
        1
280
     0
281
     0
  0
CLASS
  1
ACDBDETAILVIEWSTYLE
  2
AcDbDetailViewStyle
  3
ObjectDBX Classes
 90
     1025
 91
        1
280
     0
281
     0
  0
CLASS
  1
CELLSTYLEMAP
  2
AcDbCellStyleMap
  3
ObjectDBX Classes
 90
     1152
 91
        2
280
     0
281
     0
  0
CLASS
  1
SOLID_BACKGROUND
  2
AcDbSolidBackground
  3
SCENEOE
 90
     4095
 91
        0
280
     0
281
     0
  0
CLASS
  1
NPOCOLLECTION
  2
AcDbImpNonPersistentObjectsCollection
  3
ObjectDBX Classes
 90
     1153
 91
        0
280
     0
281
     0
  0
ENDSEC
  0
SECTION
  2
TABLES
  0
TABLE
  2
VPORT
  5
8
102
{ACAD_XDICTIONARY
360
3DAD
102
}
330
0
100
AcDbSymbolTable
 70
     1
  0
VPORT
  5
3AE5
330
8
100
AcDbSymbolTableRecord
100
AcDbViewportTableRecord
  2
*Active
 70
     0
 10
0.0
 20
0.0
 11
1.0
 21
1.0
 12
6.80816867677232
 22
6.087918114813897
 13
0.0
 23
0.0
 14
0.5
 24
0.5
 15
0.5
 25
0.5
 16
0.0
 26
0.0
 36
1.0
 17
0.0
 27
0.0
 37
0.0
 40
8.346220942536586
 41
2.873475609756097
 42
50.0
 43
0.0
 44
0.0
 50
0.0
 51
0.0
 71
     0
 72
   100
 73
     1
 74
     3
 75
     0
 76
     0
 77
     0
 78
     0
281
     0
 65
     1
110
0.0
120
0.0
130
0.0
111
1.0
121
0.0
131
0.0
112
0.0
122
1.0
132
0.0
 79
     0
146
0.0
348
3B06
 60
     3
 61
     5
292
     1
282
     1
141
0.0
142
0.0
 63
   250
421
  3355443
1001
ACAD_NAV_VCDISPLAY
1070
     3
  0
ENDTAB
  0
TABLE
  2
LTYPE
  5
5
330
0
100
AcDbSymbolTable
 70
     2
  0
LTYPE
  5
14
330
5
100
AcDbSymbolTableRecord
100
AcDbLinetypeTableRecord
  2
ByBlock
 70
     0
  3

 72
    65
 73
     0
 40
0.0
  0
LTYPE
  5
15
330
5
100
AcDbSymbolTableRecord
100
AcDbLinetypeTableRecord
  2
ByLayer
 70
     0
  3

 72
    65
 73
     0
 40
0.0
  0
LTYPE
  5
16
330
5
100
AcDbSymbolTableRecord
100
AcDbLinetypeTableRecord
  2
Continuous
 70
     0
  3
Solid line
 72
    65
 73
     0
 40
0.0
  0
LTYPE
  5
7A3B
330
5
100
AcDbSymbolTableRecord
100
AcDbLinetypeTableRecord
  2
SLD-Solid
 70
     0
  3
SolidWorks Line Style
 72
    65
 73
     0
 40
0.0
  0
ENDTAB
  0
TABLE
  2
LAYER
  5
2
102
{ACAD_XDICTIONARY
360
3C6C
102
}
330
0
100
AcDbSymbolTable
 70
    10
  0
LAYER
  5
10
102
{ACAD_XDICTIONARY
360
3D7F
102
}
330
2
100
AcDbSymbolTableRecord
100
AcDbLayerTableRecord
  2
0
 70
     0
 62
    11
  6
Continuous
370
    -3
390
F
347
3AF8
  0
LAYER
  5
36
330
2
100
AcDbSymbolTableRecord
100
AcDbLayerTableRecord
  2
Defpoints
 70
     0
 62
     2
  6
Continuous
290
     0
370
    -3
390
F
347
3AF8
  0
LAYER
  5
1C4
102
{ACAD_XDICTIONARY
360
3D81
102
}
330
2
100
AcDbSymbolTableRecord
100
AcDbLayerTableRecord
  2
A-ANNO-DIMS
 70
     0
 62
     5
  6
Continuous
370
    -3
390
F
347
3AF8
  0
LAYER
  5
1C8
102
{ACAD_XDICTIONARY
360
3D83
102
}
330
2
100
AcDbSymbolTableRecord
100
AcDbLayerTableRecord
  2
A-DETL-DRSW
 70
     0
 62
     1
  6
Continuous
370
    -3
390
F
347
3AF8
  0
LAYER
  5
382
102
{ACAD_XDICTIONARY
360
3D85
102
}
330
2
100
AcDbSymbolTableRecord
100
AcDbLayerTableRecord
  2
A-DETL-PAT1
 70
     0
 62
   254
  6
Continuous
370
    -3
390
F
347
3AF8
  0
LAYER
  5
6C4
102
{ACAD_XDICTIONARY
360
3D87
102
}
330
2
100
AcDbSymbolTableRecord
100
AcDbLayerTableRecord
  2
A-ANNO-TEXT
 70
     0
 62
     6
  6
Continuous
370
     5
390
F
347
3AF8
  0
LAYER
  5
72C1
330
2
100
AcDbSymbolTableRecord
100
AcDbLayerTableRecord
  2
A-DETL-PAT2
 70
     0
 62
    75
  6
Continuous
370
    -3
390
F
347
3AF8
  0
LAYER
  5
742D
102
{ACAD_XDICTIONARY
360
742E
102
}
330
2
100
AcDbSymbolTableRecord
100
AcDbLayerTableRecord
  2
A-DETL-SCRW
 70
     0
 62
     4
  6
Continuous
370
    -3
390
F
347
3AF8
  0
LAYER
  5
7685
330
2
100
AcDbSymbolTableRecord
100
AcDbLayerTableRecord
  2
A-DETL-RUBR
 70
     0
 62
    75
  6
Continuous
370
    -3
390
F
347
3AF8
1001
AcAecLayerStandard
1000

1000

1001
AcCmTransparency
1071
        0
  0
LAYER
  5
791F
102
{ACAD_XDICTIONARY
360
7920
102
}
330
2
100
AcDbSymbolTableRecord
100
AcDbLayerTableRecord
  2
A-ANNO-LOGO
 70
     0
 62
     8
  6
Continuous
370
    -3
390
F
347
3AF8
  0
ENDTAB
  0
TABLE
  2
STYLE
  5
3
330
0
100
AcDbSymbolTable
 70
     3
  0
STYLE
  5
11
330
3
100
AcDbSymbolTableRecord
100
AcDbTextStyleTableRecord
  2
Standard
 70
     0
 40
0.0
 41
1.0
 50
0.0
 71
     0
 42
0.0649676644074742
  3
cityb___.ttf
  4

1001
ACAD
1000
CityBlueprint
1071
      514
  0
STYLE
  5
A04
330
3
100
AcDbSymbolTableRecord
100
AcDbTextStyleTableRecord
  2
STYLE1
 70
     0
 40
0.0
 41
1.0
 50
0.0
 71
     0
 42
0.0649676644074742
  3
cityb___.ttf
  4

1001
ACAD
1000
CityBlueprint
1071
      514
  0
STYLE
  5
FE1
330
3
100
AcDbSymbolTableRecord
100
AcDbTextStyleTableRecord
  2
ZERO
 70
     0
 40
0.0
 41
1.0
 50
0.0
 71
     0
 42
0.0649676644074742
  3
arial.ttf
  4

1001
ACAD
1000
Arial
1071
       34
  0
ENDTAB
  0
TABLE
  2
VIEW
  5
6
330
0
100
AcDbSymbolTable
 70
     0
  0
ENDTAB
  0
TABLE
  2
UCS
  5
7
330
0
100
AcDbSymbolTable
 70
     0
  0
ENDTAB
  0
TABLE
  2
APPID
  5
9
330
0
100
AcDbSymbolTable
 70
    13
  0
APPID
  5
12
330
9
100
AcDbSymbolTableRecord
100
AcDbRegAppTableRecord
  2
ACAD
 70
     0
  0
APPID
  5
3B3A
330
9
100
AcDbSymbolTableRecord
100
AcDbRegAppTableRecord
  2
ACAD_DSTYLE_DIMJAG
 70
     0
  0
APPID
  5
3B3B
330
9
100
AcDbSymbolTableRecord
100
AcDbRegAppTableRecord
  2
ACAD_DSTYLE_DIMTALN
 70
     0
  0
APPID
  5
3B81
330
9
100
AcDbSymbolTableRecord
100
AcDbRegAppTableRecord
  2
AcadAnnoMonitorAlertIconDisabled
 70
     0
  0
APPID
  5
3B82
330
9
100
AcDbSymbolTableRecord
100
AcDbRegAppTableRecord
  2
ACAD_EXEMPT_FROM_CAD_STANDARDS
 70
     0
  0
APPID
  5
3C6A
330
9
100
AcDbSymbolTableRecord
100
AcDbRegAppTableRecord
  2
ACAD_NAV_VCDISPLAY
 70
     0
  0
APPID
  5
3C6B
330
9
100
AcDbSymbolTableRecord
100
AcDbRegAppTableRecord
  2
ACAD_PSEXT
 70
     0
  0
APPID
  5
3DF1
330
9
100
AcDbSymbolTableRecord
100
AcDbRegAppTableRecord
  2
ACAD_MLEADERVER
 70
     0
  0
APPID
  5
460C
330
9
100
AcDbSymbolTableRecord
100
AcDbRegAppTableRecord
  2
GradientColor1ACI
 70
     0
  0
APPID
  5
460D
330
9
100
AcDbSymbolTableRecord
100
AcDbRegAppTableRecord
  2
GradientColor2ACI
 70
     0
  0
APPID
  5
4C1B
330
9
100
AcDbSymbolTableRecord
100
AcDbRegAppTableRecord
  2
ACAD_DSTYLE_DIMRADIAL_EXTENSION
 70
     0
  0
APPID
  5
54E1
330
9
100
AcDbSymbolTableRecord
100
AcDbRegAppTableRecord
  2
AcAecLayerStandard
 70
     0
  0
APPID
  5
54E2
330
9
100
AcDbSymbolTableRecord
100
AcDbRegAppTableRecord
  2
AcCmTransparency
 70
     0
  0
ENDTAB
  0
TABLE
  2
DIMSTYLE
  5
A
330
0
100
AcDbSymbolTable
 70
     2
100
AcDbDimStyleTable
 71
     2
340
34
340
27
  0
DIMSTYLE
105
27
330
A
100
AcDbSymbolTableRecord
100
AcDbDimStyleTableRecord
  2
Standard
 70
     0
340
11
  0
DIMSTYLE
105
34
102
{ACAD_REACTORS
330
7489
330
74C2
330
74D1
330
74E9
102
}
330
A
100
AcDbSymbolTableRecord
100
AcDbDimStyleTableRecord
  2
dim24
 70
     0
  3
\X
 41
0.075
 42
0.06
 44
0.06
 78
     4
140
0.085
141
0.025
147
0.03125
170
     1
171
     1
176
     5
177
     5
178
     5
271
     3
272
     3
274
     1
277
     3
289
     1
340
FE1
371
     0
372
     0
1001
ACAD_DSTYLE_DIMJAG
1070
   388
1040
1.5
1001
ACAD_DSTYLE_DIMTALN
1070
   392
1070
     0
  0
ENDTAB
  0
TABLE
  2
BLOCK_RECORD
  5
1
330
0
100
AcDbSymbolTable
 70
     8
  0
BLOCK_RECORD
  5
1F
102
{ACAD_XDICTIONARY
360
38DC
102
}
330
1
100
AcDbSymbolTableRecord
100
AcDbBlockTableRecord
  2
*Model_Space
340
22
 70
     0
280
     1
281
     0
  0
BLOCK_RECORD
  5
1B
330
1
100
AcDbSymbolTableRecord
100
AcDbBlockTableRecord
  2
*Paper_Space
340
1E
 70
     0
280
     1
281
     0
  0
BLOCK_RECORD
  5
23
330
1
100
AcDbSymbolTableRecord
100
AcDbBlockTableRecord
  2
*Paper_Space0
340
26
 70
     0
280
     1
281
     0
  0
BLOCK_RECORD
  5
748A
330
1
100
AcDbSymbolTableRecord
100
AcDbBlockTableRecord
  2
*D1
340
0
 70
     0
280
     1
281
     0
  0
BLOCK_RECORD
  5
74C3
330
1
100
AcDbSymbolTableRecord
100
AcDbBlockTableRecord
  2
*D2
340
0
 70
     0
280
     1
281
     0
  0
BLOCK_RECORD
  5
74D2
330
1
100
AcDbSymbolTableRecord
100
AcDbBlockTableRecord
  2
*D3
340
0
 70
     0
280
     1
281
     0
  0
BLOCK_RECORD
  5
74EA
330
1
100
AcDbSymbolTableRecord
100
AcDbBlockTableRecord
  2
*D4
340
0
 70
     0
280
     1
281
     0
  0
BLOCK_RECORD
  5
78D4
102
{ACAD_XDICTIONARY
360
78D5
102
}
330
1
100
AcDbSymbolTableRecord
100
AcDbBlockTableRecord
  2
A$C4B96101F
340
0
102
{BLKREFS
331
791D
102
}
 70
     1
280
     1
281
     0
  0
BLOCK_RECORD
  5
7919
102
{ACAD_XDICTIONARY
360
791A
102
}
330
1
100
AcDbSymbolTableRecord
100
AcDbBlockTableRecord
  2
A$C4B751D3B
340
0
102
{BLKREFS
331
792A
102
}
 70
     1
280
     1
281
     0
  0
BLOCK_RECORD
  5
7959
102
{ACAD_XDICTIONARY
360
795A
102
}
330
1
100
AcDbSymbolTableRecord
100
AcDbBlockTableRecord
  2
A$C03546389
340
0
102
{BLKREFS
331
7A45
102
}
 70
     1
280
     1
281
     0
  0
ENDTAB
  0
ENDSEC
  0
SECTION
  2
BLOCKS
  0
BLOCK
  5
20
330
1F
100
AcDbEntity
  8
0
100
AcDbBlockBegin
  2
*Model_Space
 70
     0
 10
0.0
 20
0.0
 30
0.0
  3
*Model_Space
  1

  0
ENDBLK
  5
21
330
1F
100
AcDbEntity
  8
0
100
AcDbBlockEnd
  0
BLOCK
  5
1C
330
1B
100
AcDbEntity
 67
     1
  8
0
100
AcDbBlockBegin
  2
*Paper_Space
 70
     0
 10
0.0
 20
0.0
 30
0.0
  3
*Paper_Space
  1

  0
ENDBLK
  5
1D
330
1B
100
AcDbEntity
 67
     1
  8
0
100
AcDbBlockEnd
  0
BLOCK
  5
24
330
23
100
AcDbEntity
 67
     1
  8
0
100
AcDbBlockBegin
  2
*Paper_Space0
 70
     0
 10
0.0
 20
0.0
 30
0.0
  3
*Paper_Space0
  1

  0
VIEWPORT
  5
6B4
330
23
100
AcDbEntity
 67
     1
  8
0
100
AcDbViewport
 10
6.261562742830193
 20
4.438983064915013
 30
0.0
 40
17.40266977019127
 41
10.10651940070114
 68
     0
 69
     0
 12
6.261562742830193
 22
4.438983064915013
 13
0.0
 23
0.0
 14
0.5
 24
0.5
 15
0.5
 25
0.5
 16
0.0
 26
0.0
 36
1.0
 17
0.0
 27
0.0
 37
0.0
 42
50.0
 43
0.0
 44
0.0
 45
10.10651940070114
 50
0.0
 51
0.0
 72
   100
 90
    32800
  1

281
     0
 71
     1
 74
     0
110
0.0
120
0.0
130
0.0
111
1.0
121
0.0
131
0.0
112
0.0
122
1.0
132
0.0
 79
     0
146
0.0
170
     0
 61
     5
348
3B06
292
     1
282
     1
141
0.0
142
0.0
 63
   250
421
  3355443
  0
VIEWPORT
  5
6B6
330
23
100
AcDbEntity
 67
     1
  8
A-DETL-DRSW
100
AcDbViewport
 10
5.275208368076113
 20
4.060416700333121
 30
0.0
 40
8.44033338892178
 41
6.496666720532994
 68
     0
 69
     0
 12
0.136986925803912
 22
0.5415224884602364
 13
0.0
 23
0.0
 14
0.5
 24
0.5
 15
0.5
 25
0.5
 16
0.0
 26
0.0
 36
1.0
 17
0.0
 27
0.0
 37
0.0
 42
50.0
 43
0.0
 44
0.0
 45
1.685355686444485
 50
0.0
 51
0.0
 72
   100
 90
    32864
  1

281
     0
 71
     1
 74
     0
110
0.0
120
0.0
130
0.0
111
1.0
121
0.0
131
0.0
112
0.0
122
1.0
132
0.0
 79
     0
146
0.0
170
     0
 61
     5
348
3B06
292
     1
282
     1
141
0.0
142
0.0
 63
   250
421
  3355443
  0
ENDBLK
  5
25
330
23
100
AcDbEntity
 67
     1
  8
0
100
AcDbBlockEnd
  0
BLOCK
  5
748B
330
748A
100
AcDbEntity
  8
0
100
AcDbBlockBegin
  2
*D1
 70
     1
 10
0.0
 20
0.0
 30
0.0
  3
*D1
  1

  0
LINE
  5
792D
330
748A
100
AcDbEntity
  8
A-ANNO-DIMS
 62
     5
440
 16777216
370
     0
100
AcDbLine
 10
3.031359169062639
 20
6.725920611154228
 30
0.0
 11
3.031359169062639
 21
7.001385887674378
 31
0.0
  0
LINE
  5
792E
330
748A
100
AcDbEntity
  8
A-ANNO-DIMS
 62
     5
440
 16777216
370
     0
100
AcDbLine
 10
2.812359169062638
 20
6.719920611154229
 30
0.0
 11
2.812359169062638
 21
7.001385887674378
 31
0.0
  0
LINE
  5
792F
330
748A
100
AcDbEntity
  8
A-ANNO-DIMS
 62
     5
440
 16777216
370
     0
100
AcDbLine
 10
3.106359169062639
 20
6.941385887674378
 30
0.0
 11
3.181359169062639
 21
6.941385887674378
 31
0.0
  0
LINE
  5
7930
330
748A
100
AcDbEntity
  8
A-ANNO-DIMS
 62
     5
440
 16777216
370
     0
100
AcDbLine
 10
2.737359169062638
 20
6.941385887674378
 30
0.0
 11
2.662359169062638
 21
6.941385887674378
 31
0.0
  0
SOLID
  5
7931
330
748A
100
AcDbEntity
  8
A-ANNO-DIMS
 62
     5
440
 16777216
100
AcDbTrace
 10
3.106359169062639
 20
6.953885887674378
 30
0.0
 11
3.106359169062639
 21
6.928885887674378
 31
0.0
 12
3.031359169062639
 22
6.941385887674378
 32
0.0
 13
3.031359169062639
 23
6.941385887674378
 33
0.0
  0
SOLID
  5
7932
330
748A
100
AcDbEntity
  8
A-ANNO-DIMS
 62
     5
440
 16777216
100
AcDbTrace
 10
2.737359169062638
 20
6.953885887674378
 30
0.0
 11
2.737359169062638
 21
6.928885887674378
 31
0.0
 12
2.812359169062638
 22
6.941385887674378
 32
0.0
 13
2.812359169062638
 23
6.941385887674378
 33
0.0
  0
MTEXT
  5
7933
330
748A
100
AcDbEntity
  8
A-ANNO-DIMS
 62
     5
440
 16777216
100
AcDbMText
 10
2.502652484205885
 20
7.016034591630722
 30
0.0
 40
0.085
 41
0.0
 46
0.0
 71
     5
 72
     1
  1
\A1;.219"
  7
ZERO
 73
     1
 44
1.0
  0
MTEXT
  5
7934
330
748A
100
AcDbEntity
  8
A-ANNO-DIMS
 62
     5
440
 16777216
100
AcDbMText
 10
2.502652484205885
 20
6.855662831739863
 30
0.0
 40
0.085
 41
0.0
 46
0.0
 71
     5
 72
     1
  1
\A1;[5.6]
  7
ZERO
 73
     1
 44
1.0
  0
POINT
  5
7935
330
748A
100
AcDbEntity
  8
Defpoints
 62
     0
440
 16777216
100
AcDbPoint
 10
3.031359169062639
 20
6.665920611154229
 30
0.0
  0
POINT
  5
7936
330
748A
100
AcDbEntity
  8
Defpoints
 62
     0
440
 16777216
100
AcDbPoint
 10
2.812359169062638
 20
6.659920611154229
 30
0.0
  0
POINT
  5
7937
330
748A
100
AcDbEntity
  8
Defpoints
 62
     0
440
 16777216
100
AcDbPoint
 10
2.812359169062638
 20
6.941385887674378
 30
0.0
  0
ENDBLK
  5
748C
330
748A
100
AcDbEntity
  8
0
100
AcDbBlockEnd
  0
BLOCK
  5
74C4
330
74C3
100
AcDbEntity
  8
0
100
AcDbBlockBegin
  2
*D2
 70
     1
 10
0.0
 20
0.0
 30
0.0
  3
*D2
  1

  0
LINE
  5
7938
330
74C3
100
AcDbEntity
  8
A-ANNO-DIMS
 62
     5
440
 16777216
370
     0
100
AcDbLine
 10
3.029359169062638
 20
6.727920611154227
 30
0.0
 11
3.767730280610618
 21
6.727920611154227
 31
0.0
  0
LINE
  5
7939
330
74C3
100
AcDbEntity
  8
A-ANNO-DIMS
 62
     5
440
 16777216
370
     0
100
AcDbLine
 10
3.044359169062637
 20
5.72792061115423
 30
0.0
 11
3.767730280610618
 21
5.72792061115423
 31
0.0
  0
LINE
  5
793A
330
74C3
100
AcDbEntity
  8
A-ANNO-DIMS
 62
     5
440
 16777216
370
     0
100
AcDbLine
 10
3.707730280610618
 20
6.652920611154227
 30
0.0
 11
3.707730280610618
 21
6.388292371045088
 31
0.0
  0
LINE
  5
793B
330
74C3
100
AcDbEntity
  8
A-ANNO-DIMS
 62
     5
440
 16777216
370
     0
100
AcDbLine
 10
3.707730280610618
 20
5.80292061115423
 30
0.0
 11
3.707730280610618
 21
6.06754885126337
 31
0.0
  0
SOLID
  5
793C
330
74C3
100
AcDbEntity
  8
A-ANNO-DIMS
 62
     5
440
 16777216
100
AcDbTrace
 10
3.695230280610618
 20
6.652920611154227
 30
0.0
 11
3.720230280610619
 21
6.652920611154227
 31
0.0
 12
3.707730280610618
 22
6.727920611154227
 32
0.0
 13
3.707730280610618
 23
6.727920611154227
 33
0.0
  0
SOLID
  5
793D
330
74C3
100
AcDbEntity
  8
A-ANNO-DIMS
 62
     5
440
 16777216
100
AcDbTrace
 10
3.695230280610618
 20
5.80292061115423
 30
0.0
 11
3.720230280610619
 21
5.80292061115423
 31
0.0
 12
3.707730280610618
 22
5.72792061115423
 32
0.0
 13
3.707730280610618
 23
5.72792061115423
 33
0.0
  0
MTEXT
  5
793E
330
74C3
100
AcDbEntity
  8
A-ANNO-DIMS
 62
     5
440
 16777216
100
AcDbMText
 10
3.707730280610618
 20
6.302569315110574
 30
0.0
 40
0.085
 41
0.0
 46
0.0
 71
     5
 72
     1
  1
\A1;1.000"
  7
ZERO
 73
     1
 44
1.0
  0
MTEXT
  5
793F
330
74C3
100
AcDbEntity
  8
A-ANNO-DIMS
 62
     5
440
 16777216
100
AcDbMText
 10
3.707730280610618
 20
6.142197555219714
 30
0.0
 40
0.085
 41
0.0
 46
0.0
 71
     5
 72
     1
  1
\A1;[25.4]
  7
ZERO
 73
     1
 44
1.0
  0
POINT
  5
7940
330
74C3
100
AcDbEntity
  8
Defpoints
 62
     0
440
 16777216
100
AcDbPoint
 10
2.969359169062638
 20
6.727920611154227
 30
0.0
  0
POINT
  5
7941
330
74C3
100
AcDbEntity
  8
Defpoints
 62
     0
440
 16777216
100
AcDbPoint
 10
2.984359169062637
 20
5.72792061115423
 30
0.0
  0
POINT
  5
7942
330
74C3
100
AcDbEntity
  8
Defpoints
 62
     0
440
 16777216
100
AcDbPoint
 10
3.707730280610618
 20
5.72792061115423
 30
0.0
  0
ENDBLK
  5
74C5
330
74C3
100
AcDbEntity
  8
0
100
AcDbBlockEnd
  0
BLOCK
  5
74D3
330
74D2
100
AcDbEntity
  8
0
100
AcDbBlockBegin
  2
*D3
 70
     1
 10
0.0
 20
0.0
 30
0.0
  3
*D3
  1

  0
LINE
  5
7943
330
74D2
100
AcDbEntity
  8
A-ANNO-DIMS
 62
     5
440
 16777216
370
     0
100
AcDbLine
 10
2.937359169062639
 20
6.227920611154229
 30
0.0
 11
2.937359169062639
 21
6.029322032265358
 31
0.0
  0
LINE
  5
7944
330
74D2
100
AcDbEntity
  8
A-ANNO-DIMS
 62
     5
440
 16777216
370
     0
100
AcDbLine
 10
3.031359169062638
 20
6.227920611154229
 30
0.0
 11
3.031359169062638
 21
6.029322032265358
 31
0.0
  0
LINE
  5
7945
330
74D2
100
AcDbEntity
  8
A-ANNO-DIMS
 62
     5
440
 16777216
370
     0
100
AcDbLine
 10
2.862359169062639
 20
6.089322032265357
 30
0.0
 11
2.787359169062639
 21
6.089322032265357
 31
0.0
  0
LINE
  5
7946
330
74D2
100
AcDbEntity
  8
A-ANNO-DIMS
 62
     5
440
 16777216
370
     0
100
AcDbLine
 10
3.106359169062638
 20
6.089322032265357
 30
0.0
 11
3.181359169062638
 21
6.089322032265357
 31
0.0
  0
SOLID
  5
7947
330
74D2
100
AcDbEntity
  8
A-ANNO-DIMS
 62
     5
440
 16777216
100
AcDbTrace
 10
2.862359169062639
 20
6.101822032265357
 30
0.0
 11
2.862359169062639
 21
6.076822032265357
 31
0.0
 12
2.937359169062639
 22
6.089322032265357
 32
0.0
 13
2.937359169062639
 23
6.089322032265357
 33
0.0
  0
SOLID
  5
7948
330
74D2
100
AcDbEntity
  8
A-ANNO-DIMS
 62
     5
440
 16777216
100
AcDbTrace
 10
3.106359169062638
 20
6.101822032265357
 30
0.0
 11
3.106359169062638
 21
6.076822032265357
 31
0.0
 12
3.031359169062638
 22
6.089322032265357
 32
0.0
 13
3.031359169062638
 23
6.089322032265357
 33
0.0
  0
MTEXT
  5
7949
330
74D2
100
AcDbEntity
  8
A-ANNO-DIMS
 62
     5
440
 16777216
100
AcDbMText
 10
3.341065853919391
 20
6.163970736221701
 30
0.0
 40
0.085
 41
0.0
 46
0.0
 71
     5
 72
     1
  1
\A1;.094"
  7
ZERO
 73
     1
 44
1.0
  0
MTEXT
  5
794A
330
74D2
100
AcDbEntity
  8
A-ANNO-DIMS
 62
     5
440
 16777216
100
AcDbMText
 10
3.341065853919391
 20
6.003598976330842
 30
0.0
 40
0.085
 41
0.0
 46
0.0
 71
     5
 72
     1
  1
\A1;[2.4]
  7
ZERO
 73
     1
 44
1.0
  0
POINT
  5
794B
330
74D2
100
AcDbEntity
  8
Defpoints
 62
     0
440
 16777216
100
AcDbPoint
 10
2.937359169062639
 20
6.287920611154229
 30
0.0
  0
POINT
  5
794C
330
74D2
100
AcDbEntity
  8
Defpoints
 62
     0
440
 16777216
100
AcDbPoint
 10
3.031359169062638
 20
6.287920611154229
 30
0.0
  0
POINT
  5
794D
330
74D2
100
AcDbEntity
  8
Defpoints
 62
     0
440
 16777216
100
AcDbPoint
 10
3.031359169062638
 20
6.089322032265357
 30
0.0
  0
ENDBLK
  5
74D4
330
74D2
100
AcDbEntity
  8
0
100
AcDbBlockEnd
  0
BLOCK
  5
74EB
330
74EA
100
AcDbEntity
  8
0
100
AcDbBlockBegin
  2
*D4
 70
     1
 10
0.0
 20
0.0
 30
0.0
  3
*D4
  1

  0
LINE
  5
794E
330
74EA
100
AcDbEntity
  8
A-ANNO-DIMS
 62
     5
440
 16777216
370
     0
100
AcDbLine
 10
3.045359169062639
 20
5.727920611154228
 30
0.0
 11
3.767730280610618
 21
5.727920611154228
 31
0.0
  0
LINE
  5
794F
330
74EA
100
AcDbEntity
  8
A-ANNO-DIMS
 62
     5
440
 16777216
370
     0
100
AcDbLine
 10
2.903359169062638
 20
5.287920611154229
 30
0.0
 11
3.767730280610618
 21
5.287920611154229
 31
0.0
  0
LINE
  5
7950
330
74EA
100
AcDbEntity
  8
A-ANNO-DIMS
 62
     5
440
 16777216
370
     0
100
AcDbLine
 10
3.707730280610618
 20
5.802920611154228
 30
0.0
 11
3.707730280610618
 21
5.877920611154229
 31
0.0
  0
LINE
  5
7951
330
74EA
100
AcDbEntity
  8
A-ANNO-DIMS
 62
     5
440
 16777216
370
     0
100
AcDbLine
 10
3.707730280610618
 20
5.212920611154229
 30
0.0
 11
3.707730280610618
 21
5.137920611154228
 31
0.0
  0
SOLID
  5
7952
330
74EA
100
AcDbEntity
  8
A-ANNO-DIMS
 62
     5
440
 16777216
100
AcDbTrace
 10
3.695230280610617
 20
5.802920611154228
 30
0.0
 11
3.720230280610618
 21
5.802920611154228
 31
0.0
 12
3.707730280610618
 22
5.727920611154228
 32
0.0
 13
3.707730280610618
 23
5.727920611154228
 33
0.0
  0
SOLID
  5
7953
330
74EA
100
AcDbEntity
  8
A-ANNO-DIMS
 62
     5
440
 16777216
100
AcDbTrace
 10
3.695230280610617
 20
5.212920611154229
 30
0.0
 11
3.720230280610618
 21
5.212920611154229
 31
0.0
 12
3.707730280610618
 22
5.287920611154229
 32
0.0
 13
3.707730280610618
 23
5.287920611154229
 33
0.0
  0
MTEXT
  5
7954
330
74EA
100
AcDbEntity
  8
A-ANNO-DIMS
 62
     5
440
 16777216
100
AcDbMText
 10
3.707730280610617
 20
5.582569315110573
 30
0.0
 40
0.085
 41
0.0
 46
0.0
 71
     5
 72
     1
  1
\A1;.440"
  7
ZERO
 73
     1
 44
1.0
  0
MTEXT
  5
7955
330
74EA
100
AcDbEntity
  8
A-ANNO-DIMS
 62
     5
440
 16777216
100
AcDbMText
 10
3.707730280610617
 20
5.422197555219714
 30
0.0
 40
0.085
 41
0.0
 46
0.0
 71
     5
 72
     1
  1
\A1;[11.2]
  7
ZERO
 73
     1
 44
1.0
  0
POINT
  5
7956
330
74EA
100
AcDbEntity
  8
Defpoints
 62
     0
440
 16777216
100
AcDbPoint
 10
2.985359169062639
 20
5.727920611154228
 30
0.0
  0
POINT
  5
7957
330
74EA
100
AcDbEntity
  8
Defpoints
 62
     0
440
 16777216
100
AcDbPoint
 10
2.843359169062638
 20
5.287920611154229
 30
0.0
  0
POINT
  5
7958
330
74EA
100
AcDbEntity
  8
Defpoints
 62
     0
440
 16777216
100
AcDbPoint
 10
3.707730280610618
 20
5.287920611154229
 30
0.0
  0
ENDBLK
  5
74EC
330
74EA
100
AcDbEntity
  8
0
100
AcDbBlockEnd
  0
BLOCK
  5
78D7
330
78D4
100
AcDbEntity
  8
0
100
AcDbBlockBegin
  2
A$C4B96101F
 70
     0
 10
0.0
 20
0.0
 30
0.0
  3
A$C4B96101F
  1

  0
HATCH
  5
78D8
330
78D4
100
AcDbEntity
  8
A-ANNO-LOGO
100
AcDbHatch
 10
0.0
 20
0.0
 30
0.0
210
0.0
220
0.0
230
1.0
  2
SOLID
 70
     1
 71
     1
 91
        2
 92
        7
 72
     1
 73
     1
 93
        2
 10
0.5166708586199597
 20
-2.157011628285421
 42
1.0
 10
0.60979662334909
 20
-2.157011628285421
 42
1.0
 97
        1
330
78DA
 92
       22
 72
     1
 73
     1
 93
        2
 10
0.58879662334909
 20
-2.157011628285421
 42
-1.0
 10
0.5376708586199597
 20
-2.157011628285421
 42
-1.0
 97
        1
330
78EF
 75
     1
 76
     1
 47
0.0008634572683766
 98
        2
 10
0.5776793396032672
 20
-2.119797506363615
 10
0.5776793396032672
 20
-2.119797506363615
450
        0
451
        0
460
0.0
461
0.0
452
        0
462
0.0
453
        0
470

1001
GradientColor1ACI
1070
     5
1001
GradientColor2ACI
1070
     2
1001
ACAD
1010
0.0
1020
0.0
1030
0.0
  0
HATCH
  5
78D9
330
78D4
100
AcDbEntity
  8
A-ANNO-LOGO
100
AcDbHatch
 10
0.0
 20
0.0
 30
0.0
210
0.0
220
0.0
230
1.0
  2
SOLID
 70
     1
 71
     1
 91
        1
 92
        7
 72
     0
 73
     1
 93
       10
 10
-0.0574546916874503
 20
-2.203574510649986
 10
-0.0364546916874504
 20
-2.203574510649986
 10
-0.0364546916874504
 20
-2.110448745920856
 10
-0.0574546916874503
 20
-2.110448745920856
 10
-0.0574546916874503
 20
-2.163914166483698
 10
-0.0908028357964916
 20
-2.110448745920856
 10
-0.1131957910509529
 20
-2.110448745920856
 10
-0.1131957910509529
 20
-2.203574510649986
 10
-0.092195791050953
 20
-2.203574510649986
 10
-0.0921957910509526
 20
-2.147875834219548
 97
        1
330
78DB
 75
     1
 76
     1
 47
0.0008634572683766
 98
        1
 10
-0.0594836718751966
 20
-2.169014542970541
450
        0
451
        0
460
0.0
461
0.0
452
        0
462
0.0
453
        0
470

1001
GradientColor1ACI
1070
     5
1001
GradientColor2ACI
1070
     2
1001
ACAD
1010
0.0
1020
0.0
1030
0.0
  0
CIRCLE
  5
78DA
102
{ACAD_REACTORS
330
78D8
102
}
330
78D4
100
AcDbEntity
  8
A-ANNO-LOGO
100
AcDbCircle
 10
0.5632337409845248
 20
-2.157011628285421
 30
0.0
 40
0.0465628823645652
  0
LWPOLYLINE
  5
78DB
102
{ACAD_REACTORS
330
78D9
102
}
330
78D4
100
AcDbEntity
  8
A-ANNO-LOGO
100
AcDbPolyline
 90
       10
 70
     1
 43
0.0
 10
-0.0574546916874503
 20
-2.203574510649986
 10
-0.0364546916874504
 20
-2.203574510649986
 10
-0.0364546916874504
 20
-2.110448745920856
 10
-0.0574546916874503
 20
-2.110448745920856
 10
-0.0574546916874503
 20
-2.163914166483698
 10
-0.0908028357964916
 20
-2.110448745920856
 10
-0.1131957910509529
 20
-2.110448745920856
 10
-0.1131957910509529
 20
-2.203574510649986
 10
-0.092195791050953
 20
-2.203574510649986
 10
-0.0921957910509526
 20
-2.147875834219548
  0
LWPOLYLINE
  5
78DC
102
{ACAD_REACTORS
330
78DD
102
}
330
78D4
100
AcDbEntity
  8
A-ANNO-LOGO
100
AcDbPolyline
 90
        9
 70
     0
 43
0.0
 10
0.0231075124763676
 20
-2.131448745920855
 10
0.0514362523679806
 20
-2.131448745920855
 10
0.0514362523679806
 20
-2.110448745920856
 10
-0.0258767194879273
 20
-2.110448745920856
 10
-0.0258767194879273
 20
-2.131448745920855
 10
0.0024520204036858
 20
-2.131448745920855
 10
0.0024520204036858
 20
-2.203574510649986
 10
0.0231075124763676
 20
-2.203574510649986
 10
0.0231075124763676
 20
-2.131448745920855
  0
HATCH
  5
78DD
330
78D4
100
AcDbEntity
  8
A-ANNO-LOGO
100
AcDbHatch
 10
0.0
 20
0.0
 30
0.0
210
0.0
220
0.0
230
1.0
  2
SOLID
 70
     1
 71
     1
 91
        1
 92
        7
 72
     0
 73
     1
 93
        8
 10
-0.0258767194879273
 20
-2.110448745920856
 10
-0.0258767194879273
 20
-2.131448745920855
 10
0.0024520204036858
 20
-2.131448745920855
 10
0.0024520204036858
 20
-2.203574510649986
 10
0.0231075124763676
 20
-2.203574510649986
 10
0.0231075124763676
 20
-2.131448745920855
 10
0.0514362523679806
 20
-2.131448745920855
 10
0.0514362523679806
 20
-2.110448745920856
 97
        1
330
78DC
 75
     1
 76
     1
 47
0.0008634572683766
 98
        1
 10
0.0018984357547565
 20
-2.118070591994684
450
        0
451
        0
460
0.0
461
0.0
452
        0
462
0.0
453
        0
470

1001
GradientColor1ACI
1070
     5
1001
GradientColor2ACI
1070
     2
1001
ACAD
1010
0.0
1020
0.0
1030
0.0
  0
HATCH
  5
78DE
330
78D4
100
AcDbEntity
  8
A-ANNO-LOGO
100
AcDbHatch
 10
0.0
 20
0.0
 30
0.0
210
0.0
220
0.0
230
1.0
  2
SOLID
 70
     1
 71
     1
 91
        1
 92
        7
 72
     0
 73
     1
 93
       12
 10
0.0615810165903126
 20
-2.110448745920856
 10
0.0615810165903126
 20
-2.203574510649986
 10
0.1283163801865115
 20
-2.203574510649986
 10
0.1283163801865115
 20
-2.182574510649986
 10
0.0822365086629944
 20
-2.182574510649986
 10
0.0822365086629944
 20
-2.165985517277426
 10
0.1283163801865115
 20
-2.165985517277426
 10
0.1283163801865115
 20
-2.145330025204745
 10
0.0822365086629944
 20
-2.145330025204745
 10
0.0822365086629944
 20
-2.131104237993537
 10
0.1283163801865115
 20
-2.131104237993537
 10
0.1283163801865115
 20
-2.110448745920856
 97
        2
330
78E1
330
7917
 75
     1
 76
     1
 47
0.0008634572683766
 98
        1
 10
0.08662290956332
 20
-2.118934026271522
450
        0
451
        0
460
0.0
461
0.0
452
        0
462
0.0
453
        0
470

1001
GradientColor1ACI
1070
     5
1001
GradientColor2ACI
1070
     2
1001
ACAD
1010
0.0
1020
0.0
1030
0.0
  0
HATCH
  5
78DF
330
78D4
100
AcDbEntity
  8
A-ANNO-LOGO
100
AcDbHatch
 10
0.0
 20
0.0
 30
0.0
210
0.0
220
0.0
230
1.0
  2
SOLID
 70
     1
 71
     1
 91
        1
 92
        7
 72
     0
 73
     1
 93
        4
 10
0.4837963981920367
 20
-2.110448745920856
 10
0.4837963981920367
 20
-2.203574510649986
 10
0.5047963981920365
 20
-2.203574510649986
 10
0.5047963981920365
 20
-2.110448745920856
 97
        1
330
78E0
 75
     1
 76
     1
 47
0.0008634572683766
 98
        1
 10
0.4929547221281636
 20
-2.118070591994684
450
        0
451
        0
460
0.0
461
0.0
452
        0
462
0.0
453
        0
470

1001
GradientColor1ACI
1070
     5
1001
GradientColor2ACI
1070
     2
1001
ACAD
1010
0.0
1020
0.0
1030
0.0
  0
LWPOLYLINE
  5
78E0
102
{ACAD_REACTORS
330
78DF
102
}
330
78D4
100
AcDbEntity
  8
A-ANNO-LOGO
100
AcDbPolyline
 90
        4
 70
     1
 43
0.0
 10
0.4837963981920367
 20
-2.203574510649986
 10
0.4837963981920367
 20
-2.110448745920856
 10
0.5047963981920365
 20
-2.110448745920856
 10
0.5047963981920365
 20
-2.203574510649986
  0
LWPOLYLINE
  5
78E1
102
{ACAD_REACTORS
330
78DE
102
}
330
78D4
100
AcDbEntity
  8
A-ANNO-LOGO
100
AcDbPolyline
 90
        6
 70
     0
 43
0.0
 10
0.0822365086629944
 20
-2.131104237993537
 10
0.1283163801865115
 20
-2.131104237993537
 10
0.1283163801865115
 20
-2.110448745920856
 10
0.0615810165903126
 20
-2.110448745920856
 10
0.0615810165903126
 20
-2.203574510649986
 10
0.1283163801865115
 20
-2.203574510649986
  0
HATCH
  5
78E2
330
78D4
100
AcDbEntity
  8
A-ANNO-LOGO
100
AcDbHatch
 10
0.0
 20
0.0
 30
0.0
210
0.0
220
0.0
230
1.0
  2
SOLID
 70
     1
 71
     1
 91
        2
 92
        7
 72
     1
 73
     1
 93
       11
 10
0.1426836483469769
 20
-2.110448745920856
 42
0.0
 10
0.1426836483469769
 20
-2.203574510649986
 42
0.0
 10
0.1636836483469768
 20
-2.203574510649986
 42
0.0
 10
0.1636836483469772
 20
-2.168854511171726
 42
0.0
 10
0.1876549189685801
 20
-2.168854511171726
 42
-0.2118304314644434
 10
0.1976456629316239
 20
-2.190522363046302
 42
0.0
 10
0.1976456629316239
 20
-2.203574510649986
 42
0.0
 10
0.2186456629316238
 20
-2.203574510649986
 42
0.0
 10
0.2186456629316238
 20
-2.190522363046302
 42
0.183992667234255
 10
0.2074481865178486
 20
-2.161123352123079
 42
0.6829802986775917
 10
0.1876549189685798
 20
-2.110448745920856
 42
0.0
 97
        1
330
78E5
 92
       22
 72
     1
 73
     1
 93
        4
 10
0.1636836483469763
 20
-2.131104237993537
 42
0.0
 10
0.1850606842194516
 20
-2.131104237993539
 42
-1.0
 10
0.1876549189685797
 20
-2.150104237993538
 42
0.0
 10
0.1636836483469768
 20
-2.150104237993538
 42
0.0
 97
        1
330
7913
 75
     1
 76
     1
 47
0.0008634572683766
 98
        2
 10
0.1644311320473575
 20
-2.118934026271522
 10
0.1644311320473575
 20
-2.118934026271522
450
        0
451
        0
460
0.0
461
0.0
452
        0
462
0.0
453
        0
470

1001
GradientColor1ACI
1070
     5
1001
GradientColor2ACI
1070
     2
1001
ACAD
1010
0.0
1020
0.0
1030
0.0
  0
LWPOLYLINE
  5
78E3
102
{ACAD_REACTORS
330
78E4
102
}
330
78D4
100
AcDbEntity
  8
A-ANNO-LOGO
100
AcDbPolyline
 90
        6
 70
     1
 43
0.0
 10
0.8242753451653204
 20
-2.182574510649986
 10
0.8242753451653204
 20
-2.110448745920856
 10
0.8032753451653205
 20
-2.110448745920856
 10
0.8032753451653205
 20
-2.203574510649986
 10
0.8669032243553287
 20
-2.203574510649986
 10
0.8669032243553287
 20
-2.182574510649986
  0
HATCH
  5
78E4
330
78D4
100
AcDbEntity
  8
A-ANNO-LOGO
100
AcDbHatch
 10
0.0
 20
0.0
 30
0.0
210
0.0
220
0.0
230
1.0
  2
SOLID
 70
     1
 71
     1
 91
        1
 92
        7
 72
     0
 73
     1
 93
        6
 10
0.8032753451653205
 20
-2.203574510649986
 10
0.8669032243553287
 20
-2.203574510649986
 10
0.8669032243553287
 20
-2.182574510649986
 10
0.8242753451653204
 20
-2.182574510649986
 10
0.8242753451653204
 20
-2.110448745920856
 10
0.8032753451653205
 20
-2.110448745920856
 97
        1
330
78E3
 75
     1
 76
     1
 47
0.0008634572683766
 98
        1
 10
0.8136976192604119
 20
-2.126705163839344
450
        0
451
        0
460
0.0
461
0.0
452
        0
462
0.0
453
        0
470

1001
GradientColor1ACI
1070
     5
1001
GradientColor2ACI
1070
     2
1001
ACAD
1010
0.0
1020
0.0
1030
0.0
  0
LWPOLYLINE
  5
78E5
102
{ACAD_REACTORS
330
78E2
102
}
330
78D4
100
AcDbEntity
  8
A-ANNO-LOGO
100
AcDbPolyline
 90
       11
 70
     1
 43
0.0
 10
0.1876549189685792
 20
-2.110448745920856
 42
-0.6829802986775995
 10
0.2074481865178486
 20
-2.161123352123079
 42
-0.1839926672342562
 10
0.2186456629316238
 20
-2.190522363046302
 10
0.2186456629316238
 20
-2.203574510649986
 10
0.1976456629316239
 20
-2.203574510649986
 10
0.1976456629316239
 20
-2.190522363046302
 42
0.2118304314644454
 10
0.1876549189685801
 20
-2.168854511171726
 10
0.1636836483469772
 20
-2.168854511171726
 10
0.1636836483469768
 20
-2.203574510649986
 10
0.1426836483469769
 20
-2.203574510649986
 10
0.1426836483469769
 20
-2.110448745920856
  0
HATCH
  5
78E6
330
78D4
100
AcDbEntity
  8
A-ANNO-LOGO
100
AcDbHatch
 10
0.0
 20
0.0
 30
0.0
210
0.0
220
0.0
230
1.0
  2
SOLID
 70
     1
 71
     1
 91
        1
 92
        7
 72
     0
 73
     1
 93
        4
 10
-0.1275686307964938
 20
-2.110448745920856
 10
-0.1485686307964942
 20
-2.110448745920856
 10
-0.1485686307964942
 20
-2.203574510649986
 10
-0.1275686307964938
 20
-2.203574510649986
 97
        1
330
78EA
 75
     1
 76
     1
 47
0.0022136608298671
 98
        1
 10
-0.1357668739440188
 20
-2.139138553284464
450
        0
451
        0
460
0.0
461
0.0
452
        0
462
0.0
453
        0
470

1001
GradientColor1ACI
1070
     5
1001
GradientColor2ACI
1070
     2
1001
ACAD
1010
0.0
1020
0.0
1030
0.0
  0
LINE
  5
78E7
330
78D4
100
AcDbEntity
  8
A-ANNO-LOGO
100
AcDbLine
 10
0.3106777210013289
 20
-1.975676822882286
 30
0.0
 11
0.3106777210013289
 21
-1.910753149460654
 31
0.0
  0
HATCH
  5
78E8
330
78D4
100
AcDbEntity
  8
A-ANNO-LOGO
100
AcDbHatch
 10
0.0
 20
0.0
 30
0.0
210
0.0
220
0.0
230
1.0
  2
SOLID
 70
     1
 71
     1
 91
        2
 92
        5
 93
        1
 72
     3
 10
0.7206920257911973
 20
-1.94321498617147
 11
-0.1414815393865219
 21
0.0
 40
0.9614367438642062
 50
0.0
 51
360.0
 73
     1
 97
        1
330
78F2
 92
       22
 72
     1
 73
     1
 93
        2
 10
0.7727838746890284
 20
-1.94321498617147
 42
-1.0
 10
0.6686001768933663
 20
-1.94321498617147
 42
-1.0
 97
        1
330
78E9
 75
     1
 76
     1
 47
0.0021181088382083
 98
        2
 10
0.6887104514913487
 20
-1.849542073745245
 10
0.6887104514913487
 20
-1.849542073745245
450
        0
451
        0
460
0.0
461
0.0
452
        0
462
0.0
453
        0
470

1001
GradientColor1ACI
1070
     5
1001
GradientColor2ACI
1070
     2
1001
ACAD
1010
0.0
1020
0.0
1030
0.0
  0
CIRCLE
  5
78E9
102
{ACAD_REACTORS
330
78E8
102
}
330
78D4
100
AcDbEntity
  8
A-ANNO-LOGO
100
AcDbCircle
 10
0.7206920257911973
 20
-1.94321498617147
 30
0.0
 40
0.052091848897831
  0
LWPOLYLINE
  5
78EA
102
{ACAD_REACTORS
330
78E6
102
}
330
78D4
100
AcDbEntity
  8
A-ANNO-LOGO
100
AcDbPolyline
 90
        4
 70
     1
 43
0.0
 10
-0.1275686307964938
 20
-2.110448745920856
 10
-0.1485686307964942
 20
-2.110448745920856
 10
-0.1485686307964942
 20
-2.203574510649986
 10
-0.1275686307964938
 20
-2.203574510649986
  0
HATCH
  5
78EB
330
78D4
100
AcDbEntity
  8
A-ANNO-LOGO
100
AcDbHatch
 10
0.0
 20
0.0
 30
0.0
210
0.0
220
0.0
230
1.0
  2
SOLID
 70
     1
 71
     1
 91
        1
 92
        7
 72
     0
 73
     1
 93
        8
 10
0.3948533180579763
 20
-2.110448745920856
 10
0.3948533180579763
 20
-2.131448745920855
 10
0.4231820579495893
 20
-2.131448745920855
 10
0.4231820579495893
 20
-2.203574510649986
 10
0.4438375500222711
 20
-2.203574510649986
 10
0.4438375500222711
 20
-2.131448745920855
 10
0.4721662899138841
 20
-2.131448745920855
 10
0.4721662899138841
 20
-2.110448745920856
 97
        1
330
78EC
 75
     1
 76
     1
 47
0.0008634572683766
 98
        1
 10
0.4393535947798199
 20
-2.119797506363615
450
        0
451
        0
460
0.0
461
0.0
452
        0
462
0.0
453
        0
470

1001
GradientColor1ACI
1070
     5
1001
GradientColor2ACI
1070
     2
1001
ACAD
1010
0.0
1020
0.0
1030
0.0
  0
LWPOLYLINE
  5
78EC
102
{ACAD_REACTORS
330
78EB
102
}
330
78D4
100
AcDbEntity
  8
A-ANNO-LOGO
100
AcDbPolyline
 90
        9
 70
     0
 43
0.0
 10
0.4438375500222711
 20
-2.131448745920855
 10
0.4721662899138841
 20
-2.131448745920855
 10
0.4721662899138841
 20
-2.110448745920856
 10
0.3948533180579763
 20
-2.110448745920856
 10
0.3948533180579763
 20
-2.131448745920855
 10
0.4231820579495893
 20
-2.131448745920855
 10
0.4231820579495893
 20
-2.203574510649986
 10
0.4438375500222711
 20
-2.203574510649986
 10
0.4438375500222711
 20
-2.131448745920855
  0
HATCH
  5
78ED
330
78D4
100
AcDbEntity
  8
A-ANNO-LOGO
100
AcDbHatch
 10
0.0
 20
0.0
 30
0.0
210
0.0
220
0.0
230
1.0
  2
SOLID
 70
     1
 71
     1
 91
        1
 92
        7
 72
     0
 73
     1
 93
       10
 10
0.2515263538011276
 20
-2.147875834219548
 10
0.2862674531646299
 20
-2.203574510649986
 10
0.3072674531646298
 20
-2.203574510649986
 10
0.3072674531646298
 20
-2.110448745920856
 10
0.2862674531646299
 20
-2.110448745920856
 10
0.2862674531646299
 20
-2.163914166483698
 10
0.2529193090555886
 20
-2.110448745920856
 10
0.2305263538011273
 20
-2.110448745920856
 10
0.2305263538011273
 20
-2.203574510649986
 10
0.2515263538011272
 20
-2.203574510649986
 97
        1
330
78EE
 75
     1
 76
     1
 47
0.0008634572683766
 98
        1
 10
0.2491556058559494
 20
-2.135339735684004
450
        0
451
        0
460
0.0
461
0.0
452
        0
462
0.0
453
        0
470

1001
GradientColor1ACI
1070
     5
1001
GradientColor2ACI
1070
     2
1001
ACAD
1010
0.0
1020
0.0
1030
0.0
  0
LWPOLYLINE
  5
78EE
102
{ACAD_REACTORS
330
78ED
102
}
330
78D4
100
AcDbEntity
  8
A-ANNO-LOGO
100
AcDbPolyline
 90
       10
 70
     1
 43
0.0
 10
0.2862674531646299
 20
-2.203574510649986
 10
0.3072674531646298
 20
-2.203574510649986
 10
0.3072674531646298
 20
-2.110448745920856
 10
0.2862674531646299
 20
-2.110448745920856
 10
0.2862674531646299
 20
-2.163914166483698
 10
0.2529193090555886
 20
-2.110448745920856
 10
0.2305263538011273
 20
-2.110448745920856
 10
0.2305263538011273
 20
-2.203574510649986
 10
0.2515263538011272
 20
-2.203574510649986
 10
0.2515263538011276
 20
-2.147875834219548
  0
CIRCLE
  5
78EF
102
{ACAD_REACTORS
330
78D8
102
}
330
78D4
100
AcDbEntity
  8
A-ANNO-LOGO
100
AcDbCircle
 10
0.5632337409845248
 20
-2.157011628285421
 30
0.0
 40
0.0255628823645652
  0
HATCH
  5
78F0
330
78D4
100
AcDbEntity
  8
A-ANNO-LOGO
100
AcDbHatch
 10
0.0
 20
0.0
 30
0.0
210
0.0
220
0.0
230
1.0
  2
SOLID
 70
     1
 71
     1
 91
        1
 92
        7
 72
     0
 73
     1
 93
       10
 10
0.619545684268469
 20
-2.203574510649986
 10
0.640545684268469
 20
-2.203574510649986
 10
0.6405456842684694
 20
-2.147875834219548
 10
0.6752867836319716
 20
-2.203574510649986
 10
0.6962867836319715
 20
-2.203574510649986
 10
0.6962867836319715
 20
-2.110448745920856
 10
0.6752867836319716
 20
-2.110448745920856
 10
0.6752867836319716
 20
-2.163914166483698
 10
0.6419386395229303
 20
-2.110448745920856
 10
0.619545684268469
 20
-2.110448745920856
 97
        1
330
78F1
 75
     1
 76
     1
 47
0.0008634572683766
 98
        1
 10
0.6269578278320891
 20
-2.128432078208274
450
        0
451
        0
460
0.0
461
0.0
452
        0
462
0.0
453
        0
470

1001
GradientColor1ACI
1070
     5
1001
GradientColor2ACI
1070
     2
1001
ACAD
1010
0.0
1020
0.0
1030
0.0
  0
LWPOLYLINE
  5
78F1
102
{ACAD_REACTORS
330
78F0
102
}
330
78D4
100
AcDbEntity
  8
A-ANNO-LOGO
100
AcDbPolyline
 90
       10
 70
     1
 43
0.0
 10
0.640545684268469
 20
-2.203574510649986
 10
0.6405456842684694
 20
-2.147875834219548
 10
0.6752867836319716
 20
-2.203574510649986
 10
0.6962867836319715
 20
-2.203574510649986
 10
0.6962867836319715
 20
-2.110448745920856
 10
0.6752867836319716
 20
-2.110448745920856
 10
0.6752867836319716
 20
-2.163914166483698
 10
0.6419386395229303
 20
-2.110448745920856
 10
0.619545684268469
 20
-2.110448745920856
 10
0.619545684268469
 20
-2.203574510649986
  0
ELLIPSE
  5
78F2
102
{ACAD_REACTORS
330
78E8
102
}
330
78D4
100
AcDbEntity
  8
A-ANNO-LOGO
100
AcDbEllipse
 10
0.7206920257911973
 20
-1.94321498617147
 30
0.0
 11
-0.1414815393865219
 21
0.0
 31
0.0
210
0.0
220
0.0
230
1.0
 40
0.9614367438642062
 41
0.0
 42
6.283185307179585
  0
HATCH
  5
78F3
330
78D4
100
AcDbEntity
  8
A-ANNO-LOGO
100
AcDbHatch
 10
0.0
 20
0.0
 30
0.0
210
0.0
220
0.0
230
1.0
  2
SOLID
 70
     1
 71
     0
 91
        7
 92
        7
 72
     1
 73
     1
 93
       26
 10
-0.0714174291592453
 20
-1.768459266301243
 42
0.0
 10
-0.0577735622328719
 20
-1.768459266301243
 42
-0.0895717096735409
 10
0.0520200545389926
 20
-1.633019047972954
 42
0.0
 10
0.1360290566603552
 20
-1.633019047972954
 42
0.0819330152891599
 10
0.035731123069263
 20
-1.768459266301244
 42
0.0
 10
0.049259827150165
 20
-1.768459266301244
 42
-0.0851019684147975
 10
0.1534925664962512
 20
-1.633019047972954
 42
0.0
 10
0.2365277072049801
 20
-1.633019047972955
 42
0.0637112230171931
 10
0.1587437249633741
 20
-1.768459266301244
 42
0.0
 10
0.1717621987794171
 20
-1.768459266301244
 42
-0.0654378434854366
 10
0.2516720753386727
 20
-1.633019047972954
 42
0.0
 10
0.3661120947463021
 20
-1.633019047972955
 42
0.0
 10
0.3661120947463021
 20
-1.768459266301243
 42
0.0
 10
0.3781120947463017
 20
-1.768459266301243
 42
0.0
 10
0.3781120947463017
 20
-1.633019047972955
 42
0.0
 10
0.4925521141539293
 20
-1.633019047972954
 42
-0.0654378434854368
 10
0.5724619907131867
 20
-1.768459266301243
 42
0.0
 10
0.5854804645292281
 20
-1.768459266301243
 42
0.0637112230171933
 10
0.5076964822876234
 20
-1.633019047972954
 42
0.0
 10
0.5907316229963519
 20
-1.633019047972954
 42
-0.0851019684147977
 10
0.6949643623424389
 20
-1.768459266301243
 42
0.0
 10
0.7084930664233422
 20
-1.768459266301244
 42
0.0819330152891599
 10
0.6081951328322499
 20
-1.633019047972954
 42
0.0
 10
0.6922041349536108
 20
-1.633019047972954
 42
-0.0895717096735411
 10
0.8019977517254757
 20
-1.768459266301243
 42
0.0
 10
0.8156416186518487
 20
-1.768459266301244
 42
0.6003429994360621
 97
        0
 92
       22
 72
     1
 73
     1
 93
        3
 10
0.3661120947463026
 20
-1.521145668494741
 42
0.0
 10
0.3661120947463012
 20
-1.621019047972954
 42
0.0
 10
0.2613062947073104
 20
-1.621019047972954
 42
-0.0602033015766125
 97
        0
 92
       22
 72
     1
 73
     1
 93
        3
 10
0.3781120947463017
 20
-1.521145668494741
 42
-0.0602033015766119
 10
0.4829178947852923
 20
-1.621019047972954
 42
0.0
 10
0.3781120947463017
 20
-1.621019047972954
 42
0.0
 97
        0
 92
       22
 72
     1
 73
     1
 93
        3
 10
0.3450572339208557
 20
-1.522194264624965
 42
0.0570724262882732
 10
0.2458585471053274
 20
-1.621019047972954
 42
0.0
 10
0.166976451599786
 20
-1.621019047972954
 42
-0.1017271122417996
 97
        0
 92
       22
 72
     1
 73
     1
 93
        3
 10
0.3991669555717498
 20
-1.522194264624965
 42
-0.1017271122417986
 10
0.5772477378928187
 20
-1.621019047972954
 42
0.0
 10
0.4983656423872751
 20
-1.621019047972954
 42
0.0570724262882723
 97
        0
 92
       22
 72
     1
 73
     1
 93
        3
 10
0.3240386952253575
 20
-1.516550765143905
 42
0.0994813346018977
 10
0.1488347219033872
 20
-1.621019047972954
 42
0.0
 10
0.066507669487093
 20
-1.621019047972954
 42
-0.1446004228248279
 97
        0
 92
       22
 72
     1
 73
     1
 93
        3
 10
0.4162338096299277
 20
-1.515173691467643
 42
-0.1473645445980726
 10
0.679319074017553
 20
-1.621019047972954
 42
0.0
 10
0.5953894675892181
 20
-1.621019047972954
 42
0.1015226081398143
 97
        0
 75
     1
 76
     1
 47
0.0021181088382083
 98
        7
 10
0.3621726204477254
 20
-1.514123055583032
 10
0.3621726204477254
 20
-1.514123055583032
 10
0.3621726204477254
 20
-1.514123055583032
 10
0.3621726204477254
 20
-1.514123055583032
 10
0.3621726204477254
 20
-1.514123055583032
 10
0.3621726204477254
 20
-1.514123055583032
 10
0.3621726204477254
 20
-1.514123055583032
450
        0
451
        0
460
0.0
461
0.0
452
        0
462
0.0
453
        0
470

1001
GradientColor1ACI
1070
     5
1001
GradientColor2ACI
1070
     2
1001
ACAD
1010
0.0
1020
0.0
1030
0.0
  0
LWPOLYLINE
  5
78F4
330
78D4
100
AcDbEntity
  8
A-ANNO-LOGO
100
AcDbPolyline
 90
       10
 70
     0
 43
0.0
 10
0.0357311230692625
 20
-1.768459266301244
 10
0.049259827150165
 20
-1.768459266301244
 42
-0.0851019684147975
 10
0.1534925664962512
 20
-1.633019047972954
 10
0.2365277072049801
 20
-1.633019047972955
 42
0.0637112230171932
 10
0.1587437249633741
 20
-1.768459266301244
 10
0.1717621987794171
 20
-1.768459266301244
 42
-0.0654378434854365
 10
0.2516720753386727
 20
-1.633019047972954
 10
0.3661120947463021
 20
-1.633019047972955
 10
0.3661120947463021
 20
-1.768459266301243
 10
0.3781120947463017
 20
-1.768459266301243
  0
LWPOLYLINE
  5
78F5
330
78D4
100
AcDbEntity
  8
A-ANNO-LOGO
100
AcDbPolyline
 90
        6
 70
     0
 43
0.0
 10
0.8156416186518487
 20
-1.768459266301244
 42
0.6003429994360621
 10
-0.0714174291592453
 20
-1.768459266301243
 10
-0.0577735622328719
 20
-1.768459266301243
 42
-0.0895717096735409
 10
0.0520200545389926
 20
-1.633019047972954
 10
0.1360290566603552
 20
-1.633019047972954
 42
0.0819330152891599
 10
0.035731123069263
 20
-1.768459266301244
  0
LWPOLYLINE
  5
78F6
330
78D4
100
AcDbEntity
  8
A-ANNO-LOGO
100
AcDbPolyline
 90
        3
 70
     1
 43
0.0
 10
0.066507669487093
 20
-1.621019047972954
 10
0.1488347219033872
 20
-1.621019047972954
 42
-0.0994813346018974
 10
0.3240386952253571
 20
-1.516550765143905
 42
0.1446004228248277
  0
LWPOLYLINE
  5
78F7
330
78D4
100
AcDbEntity
  8
A-ANNO-LOGO
100
AcDbPolyline
 90
        3
 70
     1
 43
0.0
 10
0.3450572339208553
 20
-1.522194264624965
 42
0.1017271122417993
 10
0.166976451599786
 20
-1.621019047972954
 10
0.2458585471053274
 20
-1.621019047972954
 42
-0.057072426288273
  0
LWPOLYLINE
  5
78F8
330
78D4
100
AcDbEntity
  8
A-ANNO-LOGO
100
AcDbPolyline
 90
        3
 70
     1
 43
0.0
 10
0.3661120947463026
 20
-1.521145668494741
 42
0.0602033015766125
 10
0.2613062947073104
 20
-1.621019047972954
 10
0.3661120947463012
 20
-1.621019047972954
  0
LWPOLYLINE
  5
78F9
330
78D4
100
AcDbEntity
  8
A-ANNO-LOGO
100
AcDbPolyline
 90
        7
 70
     0
 43
0.0
 10
0.3781120947463017
 20
-1.768459266301243
 10
0.3781120947463017
 20
-1.633019047972955
 10
0.4925521141539293
 20
-1.633019047972954
 42
-0.0654378434854368
 10
0.5724619907131867
 20
-1.768459266301243
 10
0.5854804645292281
 20
-1.768459266301243
 42
0.0637112230171933
 10
0.5076964822876234
 20
-1.633019047972954
 10
0.5911221907122198
 20
-1.633019047972954
  0
LWPOLYLINE
  5
78FA
330
78D4
100
AcDbEntity
  8
A-ANNO-LOGO
100
AcDbPolyline
 90
        3
 70
     1
 43
0.0
 10
0.5772477378928187
 20
-1.621019047972954
 10
0.4983656423872751
 20
-1.621019047972954
 42
0.0570724262882728
 10
0.3991669555717485
 20
-1.522194264624965
 42
-0.1017271122417995
  0
LWPOLYLINE
  5
78FB
330
78D4
100
AcDbEntity
  8
A-ANNO-LOGO
100
AcDbPolyline
 90
        3
 70
     1
 43
0.0
 10
0.4829178947852923
 20
-1.621019047972954
 42
0.0602033015766117
 10
0.3781120947463021
 20
-1.521145668494741
 10
0.3781120947463017
 20
-1.621019047972954
  0
LWPOLYLINE
  5
78FC
330
78D4
100
AcDbEntity
  8
A-ANNO-LOGO
100
AcDbPolyline
 90
        7
 70
     0
 43
0.0
 10
0.5904447248810092
 20
-1.632754602218092
 42
-0.085296262402735
 10
0.6949643623424389
 20
-1.768459266301243
 10
0.7084930664233422
 20
-1.768459266301244
 42
0.0819330152891599
 10
0.6081951328322499
 20
-1.633019047972954
 10
0.6922041349536108
 20
-1.633019047972954
 42
-0.0895717096735411
 10
0.8019977517254757
 20
-1.768459266301243
 10
0.8156416186518491
 20
-1.768459266301244
  0
LWPOLYLINE
  5
78FD
330
78D4
100
AcDbEntity
  8
A-ANNO-LOGO
100
AcDbPolyline
 90
        3
 70
     1
 43
0.0
 10
0.41623380962993
 20
-1.515173691467643
 42
-0.1015226081398132
 10
0.5953894675892181
 20
-1.621019047972954
 10
0.679319074017553
 20
-1.621019047972954
 42
0.1473645445980714
  0
HATCH
  5
78FE
330
78D4
100
AcDbEntity
  8
A-ANNO-LOGO
100
AcDbHatch
 10
0.0
 20
0.0
 30
0.0
210
0.0
220
0.0
230
1.0
  2
SOLID
 70
     1
 71
     0
 91
        7
 92
        7
 72
     1
 73
     1
 93
       26
 10
0.3781120947463017
 20
-2.249982951816855
 42
0.0
 10
0.3661120947463021
 20
-2.249982951816855
 42
0.0
 10
0.3661120947463021
 20
-2.385423170145143
 42
0.0
 10
0.2516720753386727
 20
-2.385423170145144
 42
-0.0654378434854364
 10
0.1717621987794167
 20
-2.249982951816853
 42
0.0
 10
0.1587437249633741
 20
-2.249982951816853
 42
0.0637112230171933
 10
0.2365277072049801
 20
-2.385423170145143
 42
0.0
 10
0.1534925664962512
 20
-2.385423170145144
 42
-0.0851019684147975
 10
0.049259827150165
 20
-2.249982951816853
 42
0.0
 10
0.0357311230692625
 20
-2.249982951816853
 42
0.0819330152891599
 10
0.1360290566603552
 20
-2.385423170145144
 42
0.0
 10
0.0520200545389926
 20
-2.385423170145144
 42
-0.089571709673541
 10
-0.0577735622328719
 20
-2.249982951816853
 42
0.0
 10
-0.0714174291592453
 20
-2.249982951816855
 42
0.6003429994360622
 10
0.8156416186518487
 20
-2.249982951816853
 42
0.0
 10
0.8019977517254757
 20
-2.249982951816853
 42
-0.089571709673541
 10
0.6922041349536108
 20
-2.385423170145144
 42
0.0
 10
0.6081951328322499
 20
-2.385423170145144
 42
0.0819330152891597
 10
0.7084930664233422
 20
-2.249982951816853
 42
0.0
 10
0.6949643623424389
 20
-2.249982951816855
 42
-0.085101968414798
 10
0.5907316229963509
 20
-2.385423170145144
 42
0.0
 10
0.5076964822876234
 20
-2.385423170145143
 42
0.0637112230171933
 10
0.5854804645292281
 20
-2.249982951816855
 42
0.0
 10
0.5724619907131867
 20
-2.249982951816855
 42
-0.0654378434854369
 10
0.4925521141539293
 20
-2.385423170145144
 42
0.0
 10
0.3781120947463017
 20
-2.385423170145143
 42
0.0
 97
        0
 92
       22
 72
     1
 73
     1
 93
        3
 10
0.3781120947463017
 20
-2.397423170145144
 42
0.0
 10
0.4829178947852923
 20
-2.397423170145144
 42
-0.0602033015766116
 10
0.3781120947463021
 20
-2.497296549623354
 42
0.0
 97
        0
 92
       22
 72
     1
 73
     1
 93
        3
 10
0.3661120947463012
 20
-2.397423170145143
 42
0.0
 10
0.3661120947463021
 20
-2.497296549623354
 42
-0.0602033015766124
 10
0.2613062947073104
 20
-2.397423170145143
 42
0.0
 97
        0
 92
       22
 72
     1
 73
     1
 93
        3
 10
0.4983656423872751
 20
-2.397423170145143
 42
0.0
 10
0.5772477378928193
 20
-2.397423170145143
 42
-0.1017271122417997
 10
0.3991669555717481
 20
-2.496247953493131
 42
0.0570724262882729
 97
        0
 92
       22
 72
     1
 73
     1
 93
        3
 10
0.3450572339208557
 20
-2.496247953493131
 42
-0.1017271122417996
 10
0.166976451599786
 20
-2.397423170145143
 42
0.0
 10
0.2458585471053274
 20
-2.397423170145143
 42
0.0570724262882732
 97
        0
 92
       22
 72
     1
 73
     1
 93
        3
 10
0.4162338096299294
 20
-2.503268526650453
 42
0.1015226081398132
 10
0.5953894675892181
 20
-2.397423170145144
 42
0.0
 10
0.679319074017553
 20
-2.397423170145143
 42
-0.1473645445980713
 97
        0
 92
       22
 72
     1
 73
     1
 93
        3
 10
0.3240386952253571
 20
-2.501891452974192
 42
-0.1446004228248276
 10
0.066507669487093
 20
-2.397423170145144
 42
0.0
 10
0.1488347219033872
 20
-2.397423170145143
 42
0.0994813346018974
 97
        0
 75
     1
 76
     1
 47
0.0021181088382083
 98
        7
 10
0.3727181761273952
 20
-2.385423628272304
 10
0.3727181761273952
 20
-2.385423628272304
 10
0.3727181761273952
 20
-2.385423628272304
 10
0.3727181761273952
 20
-2.385423628272304
 10
0.3727181761273952
 20
-2.385423628272304
 10
0.3727181761273952
 20
-2.385423628272304
 10
0.3727181761273952
 20
-2.385423628272304
450
        0
451
        0
460
0.0
461
0.0
452
        0
462
0.0
453
        0
470

1001
GradientColor1ACI
1070
     5
1001
GradientColor2ACI
1070
     2
1001
ACAD
1010
0.0
1020
0.0
1030
0.0
  0
LWPOLYLINE
  5
78FF
330
78D4
100
AcDbEntity
  8
A-ANNO-LOGO
100
AcDbPolyline
 90
        3
 70
     1
 43
0.0
 10
0.066507669487093
 20
-2.397423170145144
 10
0.1488347219033872
 20
-2.397423170145143
 42
0.0994813346018974
 10
0.3240386952253571
 20
-2.501891452974192
 42
-0.1446004228248277
  0
LWPOLYLINE
  5
7900
330
78D4
100
AcDbEntity
  8
A-ANNO-LOGO
100
AcDbPolyline
 90
        3
 70
     1
 43
0.0
 10
0.3450572339208557
 20
-2.496247953493131
 42
-0.1017271122417995
 10
0.166976451599786
 20
-2.397423170145143
 10
0.2458585471053274
 20
-2.397423170145143
 42
0.0570724262882731
  0
LWPOLYLINE
  5
7901
330
78D4
100
AcDbEntity
  8
A-ANNO-LOGO
100
AcDbPolyline
 90
        3
 70
     1
 43
0.0
 10
0.3661120947463021
 20
-2.497296549623354
 42
-0.0602033015766124
 10
0.2613062947073104
 20
-2.397423170145143
 10
0.3661120947463012
 20
-2.397423170145143
  0
LWPOLYLINE
  5
7902
330
78D4
100
AcDbEntity
  8
A-ANNO-LOGO
100
AcDbPolyline
 90
        3
 70
     1
 43
0.0
 10
0.3991669555717485
 20
-2.496247953493131
 42
0.0570724262882728
 10
0.4983656423872751
 20
-2.397423170145143
 10
0.5772477378928187
 20
-2.397423170145143
 42
-0.1017271122417995
  0
LWPOLYLINE
  5
7903
330
78D4
100
AcDbEntity
  8
A-ANNO-LOGO
100
AcDbPolyline
 90
        3
 70
     1
 43
0.0
 10
0.3781120947463017
 20
-2.397423170145144
 10
0.3781120947463021
 20
-2.497296549623354
 42
0.0602033015766117
 10
0.4829178947852923
 20
-2.397423170145144
  0
LWPOLYLINE
  5
7904
330
78D4
100
AcDbEntity
  8
A-ANNO-LOGO
100
AcDbPolyline
 90
       27
 70
     0
 43
0.0
 10
0.5904447248810089
 20
-2.385687615900004
 42
0.0852962624027352
 10
0.6949643623424389
 20
-2.249982951816855
 10
0.7084930664233422
 20
-2.249982951816853
 42
-0.0819330152891598
 10
0.6081951328322499
 20
-2.385423170145144
 10
0.6922041349536108
 20
-2.385423170145144
 42
0.089571709673541
 10
0.8019977517254757
 20
-2.249982951816853
 10
0.8156416186518487
 20
-2.249982951816853
 42
-0.6003429994360621
 10
-0.0714174291592453
 20
-2.249982951816855
 10
-0.0577735622328719
 20
-2.249982951816853
 42
0.089571709673541
 10
0.0520200545389926
 20
-2.385423170145144
 10
0.1360290566603552
 20
-2.385423170145144
 42
-0.0819330152891599
 10
0.0357311230692625
 20
-2.249982951816853
 10
0.049259827150165
 20
-2.249982951816853
 42
0.0851019684147975
 10
0.1534925664962512
 20
-2.385423170145144
 10
0.2365277072049801
 20
-2.385423170145143
 42
-0.0637112230171933
 10
0.1587437249633741
 20
-2.249982951816853
 10
0.1717621987794167
 20
-2.249982951816853
 42
0.0654378434854364
 10
0.2516720753386727
 20
-2.385423170145144
 10
0.3661120947463021
 20
-2.385423170145143
 10
0.3661120947463021
 20
-2.249982951816855
 10
0.3781120947463017
 20
-2.249982951816855
 10
0.3781120947463017
 20
-2.385423170145143
 10
0.4925521141539293
 20
-2.385423170145144
 42
0.0654378434854369
 10
0.5724619907131867
 20
-2.249982951816855
 10
0.5854804645292281
 20
-2.249982951816855
 42
-0.0637112230171933
 10
0.5076964822876234
 20
-2.385423170145143
 10
0.5911221907122198
 20
-2.385423170145144
  0
LWPOLYLINE
  5
7905
330
78D4
100
AcDbEntity
  8
A-ANNO-LOGO
100
AcDbPolyline
 90
        3
 70
     1
 43
0.0
 10
0.4162338096299294
 20
-2.503268526650453
 42
0.1015226081398132
 10
0.5953894675892181
 20
-2.397423170145144
 10
0.679319074017553
 20
-2.397423170145143
 42
-0.1473645445980714
  0
HATCH
  5
7906
330
78D4
100
AcDbEntity
  8
A-ANNO-LOGO
100
AcDbHatch
 10
0.0
 20
0.0
 30
0.0
210
0.0
220
0.0
230
1.0
  2
SOLID
 70
     1
 71
     1
 91
        1
 92
        7
 72
     0
 73
     1
 93
       12
 10
0.2325800557498021
 20
-1.876584177689036
 10
0.3152202890712301
 20
-1.876584177689035
 10
0.3152202890712301
 20
-1.807189435626796
 10
0.1360310504063689
 20
-1.807189435626796
 10
0.1360310504063689
 20
-2.079240536716143
 10
0.3152202890712301
 20
-2.079240536716143
 10
0.3152202890712301
 20
-2.009845794653904
 10
0.2325800557498026
 20
-2.009845794653904
 10
0.2325800557498021
 20
-1.978412357202589
 10
0.3106777210013289
 20
-1.978412357202589
 10
0.3106777210013294
 20
-1.90801761514035
 10
0.2325800557498026
 20
-1.90801761514035
 97
        2
330
7908
330
7907
 75
     1
 76
     1
 47
0.0021181088382083
 98
        1
 10
0.2009369457574364
 20
-1.862250767051639
450
        0
451
        0
460
0.0
461
0.0
452
        0
462
0.0
453
        0
470

1001
GradientColor1ACI
1070
     5
1001
GradientColor2ACI
1070
     2
1001
ACAD
1010
0.0
1020
0.0
1030
0.0
  0
LWPOLYLINE
  5
7907
102
{ACAD_REACTORS
330
7906
102
}
330
78D4
100
AcDbEntity
  8
A-ANNO-LOGO
100
AcDbPolyline
 90
        7
 70
     0
 43
0.0
 10
0.2325800557498021
 20
-1.978412357202589
 10
0.3106777210013289
 20
-1.978412357202589
 10
0.3106777210013294
 20
-1.90801761514035
 10
0.2325800557498026
 20
-1.90801761514035
 10
0.2325800557498021
 20
-1.876584177689036
 10
0.3152202890712301
 20
-1.876584177689035
 10
0.3152202890712301
 20
-1.807189435626796
  0
LWPOLYLINE
  5
7908
102
{ACAD_REACTORS
330
7906
102
}
330
78D4
100
AcDbEntity
  8
A-ANNO-LOGO
100
AcDbPolyline
 90
        7
 70
     0
 43
0.0
 10
0.3152202890712301
 20
-1.807189435626796
 10
0.1360310504063689
 20
-1.807189435626796
 10
0.1360310504063689
 20
-2.079240536716143
 10
0.3152202890712301
 20
-2.079240536716143
 10
0.3152202890712301
 20
-2.009845794653904
 10
0.2325800557498026
 20
-2.009845794653904
 10
0.2325800557498021
 20
-1.978412357202589
  0
HATCH
  5
7909
330
78D4
100
AcDbEntity
  8
A-ANNO-LOGO
100
AcDbHatch
 10
0.0
 20
0.0
 30
0.0
210
0.0
220
0.0
230
1.0
  2
SOLID
 70
     1
 71
     1
 91
        1
 92
        7
 72
     0
 73
     1
 93
        8
 10
0.1209910798968132
 20
-1.807189435626796
 10
-0.1278178412869879
 20
-1.807189435626796
 10
-0.1278178412869879
 20
-1.891328970533813
 10
-0.032383150408724
 20
-1.891328970533813
 10
-0.1530799484922881
 20
-2.079240536716143
 10
0.1079620169371891
 20
-2.079240536716143
 10
0.1079620169371891
 20
-1.997905695240941
 10
-0.0015071906756647
 20
-1.997905695240941
 97
        1
330
790A
 75
     1
 76
     1
 47
0.0021181088382083
 98
        1
 10
0.0397595996859392
 20
-1.860132636228824
450
        0
451
        0
460
0.0
461
0.0
452
        0
462
0.0
453
        0
470

1001
GradientColor1ACI
1070
     5
1001
GradientColor2ACI
1070
     2
1001
ACAD
1010
0.0
1020
0.0
1030
0.0
  0
LWPOLYLINE
  5
790A
102
{ACAD_REACTORS
330
7909
102
}
330
78D4
100
AcDbEntity
  8
A-ANNO-LOGO
100
AcDbPolyline
 90
        8
 70
     1
 43
0.0
 10
-0.1278178412869879
 20
-1.807189435626796
 10
-0.1278178412869879
 20
-1.891328970533813
 10
-0.032383150408724
 20
-1.891328970533813
 10
-0.1530799484922882
 20
-2.079240536716143
 10
0.1079620169371891
 20
-2.079240536716143
 10
0.1079620169371891
 20
-1.997905695240941
 10
-0.0015071906756647
 20
-1.997905695240941
 10
0.1209910798968132
 20
-1.807189435626796
  0
HATCH
  5
790B
330
78D4
100
AcDbEntity
  8
A-ANNO-LOGO
100
AcDbHatch
 10
0.0
 20
0.0
 30
0.0
210
0.0
220
0.0
230
1.0
  2
SOLID
 70
     1
 71
     1
 91
        2
 92
        7
 72
     1
 73
     1
 93
        8
 10
0.3391543585814203
 20
-1.807189435626796
 42
0.0
 10
0.3391543585814203
 20
-2.079240536716143
 42
0.0
 10
0.4250355427444134
 20
-2.079240536716143
 42
0.0
 10
0.4250355427444134
 20
-1.988681645858792
 42
0.0
 10
0.4822401744963658
 20
-2.079240536716143
 42
0.0
 10
0.5799032434378142
 20
-2.079240536716143
 42
0.0
 10
0.5148774158326286
 20
-1.976300151564446
 42
0.782139668254454
 10
0.4729037677033889
 20
-1.807189435626791
 42
0.0
 97
        3
330
790D
330
790C
330
790E
 92
       22
 72
     1
 73
     1
 93
        4
 10
0.4250355427444134
 20
-1.878280241719897
 42
0.0
 10
0.444042008023323
 20
-1.878280241719897
 42
-1.0
 10
0.444042008023323
 20
-1.929408989155545
 42
0.0
 10
0.4250355427444134
 20
-1.929408989155545
 42
0.0
 97
        1
330
790F
 75
     1
 76
     1
 47
0.0021181088382083
 98
        2
 10
0.3727181761273952
 20
-1.830479125416158
 10
0.3727181761273952
 20
-1.830479125416158
450
        0
451
        0
460
0.0
461
0.0
452
        0
462
0.0
453
        0
470

1001
GradientColor1ACI
1070
     5
1001
GradientColor2ACI
1070
     2
1001
ACAD
1010
0.0
1020
0.0
1030
0.0
  0
LWPOLYLINE
  5
790C
102
{ACAD_REACTORS
330
790B
102
}
330
78D4
100
AcDbEntity
  8
A-ANNO-LOGO
100
AcDbPolyline
 90
        6
 70
     0
 43
0.0
 10
0.4822401744963658
 20
-2.079240536716143
 10
0.4250355427444134
 20
-1.988681645858792
 10
0.4250355427444134
 20
-2.079240536716143
 10
0.3391543585814203
 20
-2.079240536716143
 10
0.3391543585814203
 20
-1.807189435626796
 10
0.4799431982271997
 20
-1.807189435626796
  0
LWPOLYLINE
  5
790D
102
{ACAD_REACTORS
330
790B
102
}
330
78D4
100
AcDbEntity
  8
A-ANNO-LOGO
100
AcDbPolyline
 90
        3
 70
     0
 43
0.0
 10
0.5149200047384546
 20
-1.97627760771669
 42
0.7819233858869678
 10
0.4729037677033913
 20
-1.807189435626791
 10
0.3391543585814203
 20
-1.807189435626796
  0
LWPOLYLINE
  5
790E
102
{ACAD_REACTORS
330
790B
102
}
330
78D4
100
AcDbEntity
  8
A-ANNO-LOGO
100
AcDbPolyline
 90
        3
 70
     0
 43
0.0
 10
0.4822401744963658
 20
-2.079240536716143
 10
0.5799032434378142
 20
-2.079240536716143
 10
0.5149568562634337
 20
-1.976425911264012
  0
LWPOLYLINE
  5
790F
102
{ACAD_REACTORS
330
790B
102
}
330
78D4
100
AcDbEntity
  8
A-ANNO-LOGO
100
AcDbPolyline
 90
        4
 70
     1
 43
0.0
 10
0.4250355427444134
 20
-1.929408989155545
 10
0.444042008023323
 20
-1.929408989155545
 42
0.9999999999999998
 10
0.444042008023323
 20
-1.878280241719897
 10
0.4250355427444134
 20
-1.878280241719897
  0
HATCH
  5
7910
330
78D4
100
AcDbEntity
  8
A-ANNO-LOGO
100
AcDbHatch
 10
0.0
 20
0.0
 30
0.0
210
0.0
220
0.0
230
1.0
  2
SOLID
 70
     1
 71
     1
 91
        2
 92
        7
 72
     0
 73
     1
 93
        8
 10
0.7378172777351311
 20
-2.110448745920856
 10
0.7027859642686707
 20
-2.203574510649986
 10
0.7252226284438521
 20
-2.203574510649986
 10
0.7318687177819019
 20
-2.185906827345545
 10
0.768339327023083
 20
-2.185906827345545
 10
0.7749854163611328
 20
-2.203574510649986
 10
0.7974220805363143
 20
-2.203574510649986
 10
0.7623907670698538
 20
-2.110448745920856
 97
        1
330
7911
 92
       22
 72
     0
 73
     1
 93
        3
 10
0.7501040224024922
 20
-2.1374308634201
 10
0.7604397131521479
 20
-2.164906827345546
 10
0.7397683316528371
 20
-2.164906827345546
 97
        1
330
7912
 75
     1
 76
     1
 47
0.0008634572683766
 98
        2
 10
0.7497218994254551
 20
-2.126705163839344
 10
0.7497218994254551
 20
-2.126705163839344
450
        0
451
        0
460
0.0
461
0.0
452
        0
462
0.0
453
        0
470

1001
GradientColor1ACI
1070
     5
1001
GradientColor2ACI
1070
     2
1001
ACAD
1010
0.0
1020
0.0
1030
0.0
  0
LWPOLYLINE
  5
7911
102
{ACAD_REACTORS
330
7910
102
}
330
78D4
100
AcDbEntity
  8
A-ANNO-LOGO
100
AcDbPolyline
 90
        8
 70
     1
 43
0.0
 10
0.7318687177819019
 20
-2.185906827345545
 10
0.7252226284438521
 20
-2.203574510649986
 10
0.7027859642686707
 20
-2.203574510649986
 10
0.7378172777351311
 20
-2.110448745920856
 10
0.7623907670698538
 20
-2.110448745920856
 10
0.7974220805363143
 20
-2.203574510649986
 10
0.7749854163611328
 20
-2.203574510649986
 10
0.768339327023083
 20
-2.185906827345545
  0
LWPOLYLINE
  5
7912
102
{ACAD_REACTORS
330
7910
102
}
330
78D4
100
AcDbEntity
  8
A-ANNO-LOGO
100
AcDbPolyline
 90
        3
 70
     1
 43
0.0
 10
0.7604397131521479
 20
-2.164906827345546
 10
0.7501040224024922
 20
-2.1374308634201
 10
0.7397683316528371
 20
-2.164906827345546
  0
LWPOLYLINE
  5
7913
102
{ACAD_REACTORS
330
78E2
102
}
330
78D4
100
AcDbEntity
  8
A-ANNO-LOGO
100
AcDbPolyline
 90
        4
 70
     1
 43
0.0
 10
0.1876549189685788
 20
-2.13110423799354
 42
-0.8727396893478717
 10
0.1876549189685797
 20
-2.150104237993538
 10
0.1636836483469768
 20
-2.150104237993538
 10
0.1636836483469763
 20
-2.131104237993537
  0
HATCH
  5
7914
330
78D4
100
AcDbEntity
  8
A-ANNO-LOGO
100
AcDbHatch
 10
0.0
 20
0.0
 30
0.0
210
0.0
220
0.0
230
1.0
  2
SOLID
 70
     1
 71
     1
 91
        1
 92
        7
 72
     0
 73
     1
 93
        8
 10
0.3781674517909836
 20
-2.110448745920856
 10
0.353593962456261
 20
-2.110448745920856
 10
0.3185626489898006
 20
-2.203574510649986
 10
0.340999313164982
 20
-2.203574510649986
 10
0.3476454025030318
 20
-2.185906827345545
 10
0.3841160117442128
 20
-2.185906827345545
 10
0.3907621010822626
 20
-2.203574510649986
 10
0.4131987652574442
 20
-2.203574510649986
 97
        1
330
7915
 75
     1
 76
     1
 47
0.0008634572683766
 98
        1
 10
0.3693262089108229
 20
-2.131885906946136
450
        0
451
        0
460
0.0
461
0.0
452
        0
462
0.0
453
        0
470

1001
GradientColor1ACI
1070
     5
1001
GradientColor2ACI
1070
     2
1001
ACAD
1010
0.0
1020
0.0
1030
0.0
  0
LWPOLYLINE
  5
7915
102
{ACAD_REACTORS
330
7914
102
}
330
78D4
100
AcDbEntity
  8
A-ANNO-LOGO
100
AcDbPolyline
 90
        8
 70
     1
 43
0.0
 10
0.3476454025030318
 20
-2.185906827345545
 10
0.340999313164982
 20
-2.203574510649986
 10
0.3185626489898006
 20
-2.203574510649986
 10
0.353593962456261
 20
-2.110448745920856
 10
0.3781674517909836
 20
-2.110448745920856
 10
0.4131987652574442
 20
-2.203574510649986
 10
0.3907621010822626
 20
-2.203574510649986
 10
0.3841160117442128
 20
-2.185906827345545
  0
LWPOLYLINE
  5
7916
330
78D4
100
AcDbEntity
  8
A-ANNO-LOGO
100
AcDbPolyline
 90
        3
 70
     1
 43
0.0
 10
0.3762163978732778
 20
-2.164906827345546
 10
0.3658807071236221
 20
-2.1374308634201
 10
0.3555450163739668
 20
-2.164906827345546
  0
LWPOLYLINE
  5
7917
102
{ACAD_REACTORS
330
78DE
102
}
330
78D4
100
AcDbEntity
  8
A-ANNO-LOGO
100
AcDbPolyline
 90
        8
 70
     0
 43
0.0
 10
0.0822365086629944
 20
-2.131104237993537
 10
0.0822365086629944
 20
-2.145330025204745
 10
0.1283163801865115
 20
-2.145330025204745
 10
0.1283163801865115
 20
-2.165985517277426
 10
0.0822365086629944
 20
-2.165985517277426
 10
0.0822365086629944
 20
-2.182574510649986
 10
0.1283163801865115
 20
-2.182574510649986
 10
0.1283163801865115
 20
-2.203574510649986
  0
ENDBLK
  5
7918
330
78D4
100
AcDbEntity
  8
0
100
AcDbBlockEnd
  0
BLOCK
  5
791C
330
7919
100
AcDbEntity
  8
0
100
AcDbBlockBegin
  2
A$C4B751D3B
 70
     0
 10
0.0
 20
0.0
 30
0.0
  3
A$C4B751D3B
  1

  0
INSERT
  5
791D
330
7919
100
AcDbEntity
  8
A-ANNO-LOGO
100
AcDbBlockReference
  2
A$C4B96101F
 10
1.713741706443869
 20
5.819428362862194
 30
0.0
  0
ENDBLK
  5
791E
330
7919
100
AcDbEntity
  8
0
100
AcDbBlockEnd
  0
BLOCK
  5
795C
330
7959
100
AcDbEntity
  8
0
100
AcDbBlockBegin
  2
A$C03546389
 70
     0
 10
0.0
 20
0.0
 30
0.0
  3
A$C03546389
  1

  0
LINE
  5
795D
330
7959
100
AcDbEntity
  8
A-DETL-SCRW
100
AcDbLine
 10
0.0718358142641904
 20
1.138812529120206
 30
0.0
 11
0.3158358142641937
 21
1.138812529120206
 31
0.0
  0
LINE
  5
795E
330
7959
100
AcDbEntity
  8
A-DETL-SCRW
100
AcDbLine
 10
0.2438358142642194
 20
0.9110517694299833
 30
0.0
 11
0.2438358142642194
 21
0.8799934840176817
 31
0.0
  0
LINE
  5
795F
330
7959
100
AcDbEntity
  8
A-DETL-SCRW
100
AcDbLine
 10
0.1438358142642215
 20
0.8014347557540659
 30
0.0
 11
0.1438358142642215
 21
0.8324930411663711
 31
0.0
  0
LINE
  5
7960
330
7959
100
AcDbEntity
  8
A-DETL-SCRW
100
AcDbLine
 10
0.1438358142642215
 20
0.8531985647745692
 30
0.0
 11
0.1438358142642215
 21
0.8842568501868743
 31
0.0
  0
LINE
  5
7961
330
7959
100
AcDbEntity
  8
A-DETL-SCRW
100
AcDbLine
 10
0.143835814264218
 20
0.8324930411663693
 30
0.0
 11
0.143835814264218
 21
0.8014347557540641
 31
0.0
  0
LINE
  5
7962
330
7959
100
AcDbEntity
  8
A-DETL-SCRW
100
AcDbLine
 10
0.1438358142642144
 20
0.8842568501868743
 30
0.0
 11
0.143835814264218
 21
0.8531985647745692
 31
0.0
  0
LINE
  5
7963
330
7959
100
AcDbEntity
  8
A-DETL-SCRW
100
AcDbLine
 10
0.2438358142642194
 20
0.85928796040948
 30
0.0
 11
0.2438358142642194
 21
0.8282296749971784
 31
0.0
  0
LINE
  5
7964
330
7959
100
AcDbEntity
  8
A-DETL-SCRW
100
AcDbLine
 10
0.2438358142642194
 20
1.118107005511999
 30
0.0
 11
0.2438358142642194
 21
1.0870487200997
 31
0.0
  0
LINE
  5
7965
330
7959
100
AcDbEntity
  8
A-DETL-SCRW
100
AcDbLine
 10
0.2438358142642194
 20
1.035284911079193
 30
0.0
 11
0.1438358142642215
 21
1.00848999183608
 31
0.0
  0
LINE
  5
7966
330
7959
100
AcDbEntity
  8
A-DETL-SCRW
100
AcDbLine
 10
0.2438358142642194
 20
1.014579387470993
 30
0.0
 11
0.1438358142642215
 21
0.9877844682278826
 31
0.0
  0
LINE
  5
7967
330
7959
100
AcDbEntity
  8
A-DETL-SCRW
100
AcDbLine
 10
0.1438358142642215
 20
0.9049623737950724
 30
0.0
 11
0.1438358142642215
 21
0.9360206592073776
 31
0.0
  0
LINE
  5
7968
330
7959
100
AcDbEntity
  8
A-DETL-SCRW
100
AcDbLine
 10
0.1438358142642215
 20
1.039548277248387
 30
0.0
 11
0.143835814264218
 21
1.00848999183608
 31
0.0
  0
LINE
  5
7969
330
7959
100
AcDbEntity
  8
A-DETL-SCRW
100
AcDbLine
 10
0.143835814264218
 20
0.9877844682278809
 30
0.0
 11
0.143835814264218
 21
0.9567261828155793
 31
0.0
  0
LINE
  5
796A
330
7959
100
AcDbEntity
  8
A-DETL-SCRW
100
AcDbLine
 10
0.1438358142642215
 20
1.008489991836082
 30
0.0
 11
0.1438358142642215
 21
1.039548277248385
 31
0.0
  0
LINE
  5
796B
330
7959
100
AcDbEntity
  8
A-DETL-SCRW
100
AcDbLine
 10
0.143835814264218
 20
0.9360206592073776
 30
0.0
 11
0.143835814264218
 21
0.9049623737950707
 31
0.0
  0
LINE
  5
796C
330
7959
100
AcDbEntity
  8
A-DETL-SCRW
100
AcDbLine
 10
0.1438358142642215
 20
0.9567261828155793
 30
0.0
 11
0.1438358142642215
 21
0.9877844682278809
 31
0.0
  0
LINE
  5
796D
330
7959
100
AcDbEntity
  8
A-DETL-SCRW
100
AcDbLine
 10
0.2438358142642194
 20
0.9628155784504901
 30
0.0
 11
0.243835814264223
 21
0.9317572930381849
 31
0.0
  0
LINE
  5
796E
330
7959
100
AcDbEntity
  8
A-DETL-SCRW
100
AcDbLine
 10
0.2438358142642194
 20
1.014579387470993
 30
0.0
 11
0.2438358142642194
 21
0.98352110205869
 31
0.0
  0
LINE
  5
796F
330
7959
100
AcDbEntity
  8
A-DETL-SCRW
100
AcDbLine
 10
0.2438358142642194
 20
1.066333386149763
 30
0.0
 11
0.2438358142642194
 21
1.035284911079193
 31
0.0
  0
LINE
  5
7970
330
7959
100
AcDbEntity
  8
A-DETL-SCRW
100
AcDbLine
 10
0.1438358142642215
 20
1.136448155561316
 30
0.0
 11
0.1438358142642215
 21
1.11201760987709
 31
0.0
  0
LINE
  5
7971
330
7959
100
AcDbEntity
  8
A-DETL-SCRW
100
AcDbLine
 10
0.1438358142642215
 20
1.111981520384015
 30
0.0
 11
0.1438358142642215
 21
1.138812529120206
 31
0.0
  0
LINE
  5
7972
330
7959
100
AcDbEntity
  8
A-DETL-SCRW
100
AcDbLine
 10
0.123835814264222
 20
0.9957485866199302
 30
0.0
 11
0.123835814264222
 21
0.9946485866199292
 31
0.0
  0
LINE
  5
7973
330
7959
100
AcDbEntity
  8
A-DETL-SCRW
100
AcDbLine
 10
0.123835814264222
 20
0.9946485866199292
 30
0.0
 11
0.143835814264218
 21
0.9877844682278809
 31
0.0
  0
LINE
  5
7974
330
7959
100
AcDbEntity
  8
A-DETL-SCRW
100
AcDbLine
 10
0.1438358142642251
 20
1.008489991836082
 30
0.0
 11
0.123835814264222
 21
0.9957485866199302
 31
0.0
  0
LINE
  5
7975
330
7959
100
AcDbEntity
  8
A-DETL-SCRW
100
AcDbLine
 10
0.2438358142642158
 20
1.014579387470993
 30
0.0
 11
0.2638358142642225
 21
1.027320792687147
 31
0.0
  0
LINE
  5
7976
330
7959
100
AcDbEntity
  8
A-DETL-SCRW
100
AcDbLine
 10
0.2638358142642225
 20
1.028420792687148
 30
0.0
 11
0.2438358142642265
 21
1.035284911079196
 31
0.0
  0
LINE
  5
7977
330
7959
100
AcDbEntity
  8
A-DETL-SCRW
100
AcDbLine
 10
0.2638358142642225
 20
1.027320792687147
 30
0.0
 11
0.2638358142642225
 21
1.028420792687148
 31
0.0
  0
LINE
  5
7978
330
7959
100
AcDbEntity
  8
A-DETL-SCRW
100
AcDbLine
 10
0.2638358142642225
 20
1.027320792687147
 30
0.0
 11
0.123835814264222
 21
0.9946485866199292
 31
0.0
  0
LINE
  5
7979
330
7959
100
AcDbEntity
  8
A-DETL-SCRW
100
AcDbLine
 10
0.2638358142642225
 20
1.028420792687148
 30
0.0
 11
0.123835814264222
 21
0.9957485866199302
 31
0.0
  0
LINE
  5
797A
330
7959
100
AcDbEntity
  8
A-DETL-SCRW
100
AcDbLine
 10
0.2438358142642158
 20
0.9628155784504865
 30
0.0
 11
0.2638358142642225
 21
0.9755569836666406
 31
0.0
  0
LINE
  5
797B
330
7959
100
AcDbEntity
  8
A-DETL-SCRW
100
AcDbLine
 10
0.2638358142642225
 20
0.9766569836666398
 30
0.0
 11
0.2438358142642265
 21
0.9835211020586882
 31
0.0
  0
LINE
  5
797C
330
7959
100
AcDbEntity
  8
A-DETL-SCRW
100
AcDbLine
 10
0.2638358142642225
 20
0.9755569836666406
 30
0.0
 11
0.2638358142642225
 21
0.9766569836666398
 31
0.0
  0
LINE
  5
797D
330
7959
100
AcDbEntity
  8
A-DETL-SCRW
100
AcDbLine
 10
0.1438358142642251
 20
0.9567261828155739
 30
0.0
 11
0.123835814264222
 21
0.9439847775994216
 31
0.0
  0
LINE
  5
797E
330
7959
100
AcDbEntity
  8
A-DETL-SCRW
100
AcDbLine
 10
0.123835814264222
 20
0.9428847775994224
 30
0.0
 11
0.143835814264218
 21
0.936020659207374
 31
0.0
  0
LINE
  5
797F
330
7959
100
AcDbEntity
  8
A-DETL-SCRW
100
AcDbLine
 10
0.123835814264222
 20
0.9439847775994216
 30
0.0
 11
0.123835814264222
 21
0.9428847775994224
 31
0.0
  0
LINE
  5
7980
330
7959
100
AcDbEntity
  8
A-DETL-SCRW
100
AcDbLine
 10
0.2438358142642194
 20
0.9628155784504865
 30
0.0
 11
0.1438358142642215
 21
0.936020659207374
 31
0.0
  0
LINE
  5
7981
330
7959
100
AcDbEntity
  8
A-DETL-SCRW
100
AcDbLine
 10
0.2438358142642194
 20
0.9835211020586864
 30
0.0
 11
0.1438358142642215
 21
0.9567261828155739
 31
0.0
  0
LINE
  5
7982
330
7959
100
AcDbEntity
  8
A-DETL-SCRW
100
AcDbLine
 10
0.2638358142642225
 20
0.9766569836666398
 30
0.0
 11
0.123835814264222
 21
0.9439847775994216
 31
0.0
  0
LINE
  5
7983
330
7959
100
AcDbEntity
  8
A-DETL-SCRW
100
AcDbLine
 10
0.2638358142642225
 20
0.9755569836666406
 30
0.0
 11
0.123835814264222
 21
0.9428847775994224
 31
0.0
  0
LINE
  5
7984
330
7959
100
AcDbEntity
  8
A-DETL-SCRW
100
AcDbLine
 10
0.2438358142642194
 20
0.9110517694299815
 30
0.0
 11
0.2638358142642225
 21
0.9237931746461338
 31
0.0
  0
LINE
  5
7985
330
7959
100
AcDbEntity
  8
A-DETL-SCRW
100
AcDbLine
 10
0.2638358142642225
 20
0.9248931746461348
 30
0.0
 11
0.2438358142642265
 21
0.9317572930381832
 31
0.0
  0
LINE
  5
7986
330
7959
100
AcDbEntity
  8
A-DETL-SCRW
100
AcDbLine
 10
0.2638358142642225
 20
0.9237931746461338
 30
0.0
 11
0.2638358142642225
 21
0.9248931746461348
 31
0.0
  0
LINE
  5
7987
330
7959
100
AcDbEntity
  8
A-DETL-SCRW
100
AcDbLine
 10
0.1438358142642286
 20
0.9049623737950707
 30
0.0
 11
0.123835814264222
 21
0.8922209685789166
 31
0.0
  0
LINE
  5
7988
330
7959
100
AcDbEntity
  8
A-DETL-SCRW
100
AcDbLine
 10
0.123835814264222
 20
0.8911209685789156
 30
0.0
 11
0.143835814264218
 21
0.8842568501868672
 31
0.0
  0
LINE
  5
7989
330
7959
100
AcDbEntity
  8
A-DETL-SCRW
100
AcDbLine
 10
0.123835814264222
 20
0.8922209685789166
 30
0.0
 11
0.123835814264222
 21
0.8911209685789156
 31
0.0
  0
LINE
  5
798A
330
7959
100
AcDbEntity
  8
A-DETL-SCRW
100
AcDbLine
 10
0.243835814264223
 20
0.9110517694299797
 30
0.0
 11
0.1438358142642251
 21
0.8842568501868708
 31
0.0
  0
LINE
  5
798B
330
7959
100
AcDbEntity
  8
A-DETL-SCRW
100
AcDbLine
 10
0.243835814264223
 20
0.9317572930381814
 30
0.0
 11
0.1438358142642215
 21
0.9049623737950689
 31
0.0
  0
LINE
  5
798C
330
7959
100
AcDbEntity
  8
A-DETL-SCRW
100
AcDbLine
 10
0.2638358142642225
 20
0.9248931746461348
 30
0.0
 11
0.123835814264222
 21
0.8922209685789166
 31
0.0
  0
LINE
  5
798D
330
7959
100
AcDbEntity
  8
A-DETL-SCRW
100
AcDbLine
 10
0.2638358142642225
 20
0.9237931746461338
 30
0.0
 11
0.123835814264222
 21
0.8911209685789156
 31
0.0
  0
LINE
  5
798E
330
7959
100
AcDbEntity
  8
A-DETL-SCRW
100
AcDbLine
 10
0.2638358142642154
 20
0.8720293656256341
 30
0.0
 11
0.2638358142642154
 21
0.8731293656256333
 31
0.0
  0
LINE
  5
798F
330
7959
100
AcDbEntity
  8
A-DETL-SCRW
100
AcDbLine
 10
0.2638358142642154
 20
0.8731293656256333
 30
0.0
 11
0.2438358142642194
 21
0.8799934840176817
 31
0.0
  0
LINE
  5
7990
330
7959
100
AcDbEntity
  8
A-DETL-SCRW
100
AcDbLine
 10
0.2438358142642087
 20
0.85928796040948
 30
0.0
 11
0.2638358142642154
 21
0.8720293656256341
 31
0.0
  0
LINE
  5
7991
330
7959
100
AcDbEntity
  8
A-DETL-SCRW
100
AcDbLine
 10
0.143835814264218
 20
0.8531985647745674
 30
0.0
 11
0.1238358142642149
 21
0.8404571595584151
 31
0.0
  0
LINE
  5
7992
330
7959
100
AcDbEntity
  8
A-DETL-SCRW
100
AcDbLine
 10
0.1238358142642149
 20
0.8404571595584151
 30
0.0
 11
0.1238358142642149
 21
0.8393571595584159
 31
0.0
  0
LINE
  5
7993
330
7959
100
AcDbEntity
  8
A-DETL-SCRW
100
AcDbLine
 10
0.1238358142642149
 20
0.8393571595584159
 30
0.0
 11
0.1438358142642109
 21
0.8324930411663675
 31
0.0
  0
LINE
  5
7994
330
7959
100
AcDbEntity
  8
A-DETL-SCRW
100
AcDbLine
 10
0.2438358142642123
 20
0.85928796040948
 30
0.0
 11
0.1438358142642144
 21
0.8324930411663675
 31
0.0
  0
LINE
  5
7995
330
7959
100
AcDbEntity
  8
A-DETL-SCRW
100
AcDbLine
 10
0.2438358142642123
 20
0.8799934840176799
 30
0.0
 11
0.1438358142642144
 21
0.8531985647745674
 31
0.0
  0
LINE
  5
7996
330
7959
100
AcDbEntity
  8
A-DETL-SCRW
100
AcDbLine
 10
0.2638358142642154
 20
0.8720293656256341
 30
0.0
 11
0.1238358142642149
 21
0.8393571595584159
 31
0.0
  0
LINE
  5
7997
330
7959
100
AcDbEntity
  8
A-DETL-SCRW
100
AcDbLine
 10
0.2638358142642154
 20
0.8202655566051308
 30
0.0
 11
0.2638358142642154
 21
0.8213655566051301
 31
0.0
  0
LINE
  5
7998
330
7959
100
AcDbEntity
  8
A-DETL-SCRW
100
AcDbLine
 10
0.2638358142642154
 20
0.8213655566051301
 30
0.0
 11
0.2438358142642194
 21
0.8282296749971784
 31
0.0
  0
LINE
  5
7999
330
7959
100
AcDbEntity
  8
A-DETL-SCRW
100
AcDbLine
 10
0.2438358142642123
 20
0.8075241513889768
 30
0.0
 11
0.2638358142642154
 21
0.8202655566051308
 31
0.0
  0
LINE
  5
799A
330
7959
100
AcDbEntity
  8
A-DETL-SCRW
100
AcDbLine
 10
0.1438358142642215
 20
0.8014347557540641
 30
0.0
 11
0.1238358142642149
 21
0.7886933505379119
 31
0.0
  0
LINE
  5
799B
330
7959
100
AcDbEntity
  8
A-DETL-SCRW
100
AcDbLine
 10
0.1238358142642149
 20
0.7886933505379119
 30
0.0
 11
0.1238358142642149
 21
0.7875933505379127
 31
0.0
  0
LINE
  5
799C
330
7959
100
AcDbEntity
  8
A-DETL-SCRW
100
AcDbLine
 10
0.1238358142642149
 20
0.7875933505379127
 30
0.0
 11
0.1438358142642109
 21
0.7807292321458635
 31
0.0
  0
LINE
  5
799D
330
7959
100
AcDbEntity
  8
A-DETL-SCRW
100
AcDbLine
 10
0.2438358142642158
 20
0.8075241513889768
 30
0.0
 11
0.143835814264218
 21
0.7807292321458652
 31
0.0
  0
LINE
  5
799E
330
7959
100
AcDbEntity
  8
A-DETL-SCRW
100
AcDbLine
 10
0.2438358142642158
 20
0.8282296749971767
 30
0.0
 11
0.1438358142642144
 21
0.8014347557540641
 31
0.0
  0
LINE
  5
799F
330
7959
100
AcDbEntity
  8
A-DETL-SCRW
100
AcDbLine
 10
0.2638358142642154
 20
0.8202655566051308
 30
0.0
 11
0.1238358142642149
 21
0.7875933505379127
 31
0.0
  0
LINE
  5
79A0
330
7959
100
AcDbEntity
  8
A-DETL-SCRW
100
AcDbLine
 10
0.2638358142642154
 20
0.8731293656256333
 30
0.0
 11
0.1238358142642149
 21
0.8404571595584151
 31
0.0
  0
LINE
  5
79A1
330
7959
100
AcDbEntity
  8
A-DETL-SCRW
100
AcDbLine
 10
0.2638358142642154
 20
0.8213655566051318
 30
0.0
 11
0.1238358142642149
 21
0.7886933505379119
 31
0.0
  0
LINE
  5
79A2
330
7959
100
AcDbEntity
  8
A-DETL-SCRW
100
AcDbLine
 10
0.2438358142642158
 20
1.066333386149764
 30
0.0
 11
0.263835814264219
 21
1.079074791365917
 31
0.0
  0
LINE
  5
79A3
330
7959
100
AcDbEntity
  8
A-DETL-SCRW
100
AcDbLine
 10
0.263835814264219
 20
1.080174791365918
 30
0.0
 11
0.243835814264223
 21
1.087038909757966
 31
0.0
  0
LINE
  5
79A4
330
7959
100
AcDbEntity
  8
A-DETL-SCRW
100
AcDbLine
 10
0.263835814264219
 20
1.079074791365917
 30
0.0
 11
0.263835814264219
 21
1.080174791365918
 31
0.0
  0
LINE
  5
79A5
330
7959
100
AcDbEntity
  8
A-DETL-SCRW
100
AcDbLine
 10
0.2438358142642194
 20
1.087038909757964
 30
0.0
 11
0.143835814264218
 21
1.060243990514852
 31
0.0
  0
LINE
  5
79A6
330
7959
100
AcDbEntity
  8
A-DETL-SCRW
100
AcDbLine
 10
0.263835814264219
 20
1.080174791365918
 30
0.0
 11
0.1238358142642184
 21
1.047502585298699
 31
0.0
  0
LINE
  5
79A7
330
7959
100
AcDbEntity
  8
A-DETL-SCRW
100
AcDbLine
 10
0.263835814264219
 20
1.079074791365917
 30
0.0
 11
0.1238358142642184
 21
1.046402585298698
 31
0.0
  0
LINE
  5
79A8
330
7959
100
AcDbEntity
  8
A-DETL-SCRW
100
AcDbLine
 10
0.2438358142642194
 20
1.066333386149763
 30
0.0
 11
0.1438358142642215
 21
1.039538466906654
 31
0.0
  0
LINE
  5
79A9
330
7959
100
AcDbEntity
  8
A-DETL-SCRW
100
AcDbLine
 10
0.1438358142642251
 20
1.060243990514853
 30
0.0
 11
0.1238358142642184
 21
1.047502585298699
 31
0.0
  0
LINE
  5
79AA
330
7959
100
AcDbEntity
  8
A-DETL-SCRW
100
AcDbLine
 10
0.1238358142642184
 20
1.046402585298698
 30
0.0
 11
0.1438358142642144
 21
1.03953846690665
 31
0.0
  0
LINE
  5
79AB
330
7959
100
AcDbEntity
  8
A-DETL-SCRW
100
AcDbLine
 10
0.1238358142642184
 20
1.047502585298699
 30
0.0
 11
0.1238358142642184
 21
1.046402585298698
 31
0.0
  0
LINE
  5
79AC
330
7959
100
AcDbEntity
  8
A-DETL-SCRW
100
AcDbLine
 10
0.2438358142642265
 20
1.118107005512001
 30
0.0
 11
0.1438358142642286
 21
1.09131208626889
 31
0.0
  0
LINE
  5
79AD
330
7959
100
AcDbEntity
  8
A-DETL-SCRW
100
AcDbLine
 10
0.2638358142642296
 20
1.130848410728155
 30
0.0
 11
0.1238358142642291
 21
1.098176204660937
 31
0.0
  0
LINE
  5
79AE
330
7959
100
AcDbEntity
  8
A-DETL-SCRW
100
AcDbLine
 10
0.2638358142642296
 20
1.131948410728154
 30
0.0
 11
0.1238358142642291
 21
1.099276204660936
 31
0.0
  0
LINE
  5
79AF
330
7959
100
AcDbEntity
  8
A-DETL-SCRW
100
AcDbLine
 10
0.2438358142642265
 20
1.138812529120203
 30
0.0
 11
0.1438358142642286
 21
1.11201760987709
 31
0.0
  0
LINE
  5
79B0
330
7959
100
AcDbEntity
  8
A-DETL-SCRW
100
AcDbLine
 10
0.2638358142642296
 20
1.130848410728155
 30
0.0
 11
0.2638358142642296
 21
1.131948410728154
 31
0.0
  0
LINE
  5
79B1
330
7959
100
AcDbEntity
  8
A-DETL-SCRW
100
AcDbLine
 10
0.2638358142642296
 20
1.131948410728154
 30
0.0
 11
0.2438358142642336
 21
1.138812529120203
 31
0.0
  0
LINE
  5
79B2
330
7959
100
AcDbEntity
  8
A-DETL-SCRW
100
AcDbLine
 10
0.243835814264223
 20
1.118107005512003
 30
0.0
 11
0.2638358142642296
 21
1.130848410728155
 31
0.0
  0
LINE
  5
79B3
330
7959
100
AcDbEntity
  8
A-DETL-SCRW
100
AcDbLine
 10
0.1238358142642291
 20
1.099276204660936
 30
0.0
 11
0.1238358142642291
 21
1.098176204660937
 31
0.0
  0
LINE
  5
79B4
330
7959
100
AcDbEntity
  8
A-DETL-SCRW
100
AcDbLine
 10
0.1238358142642291
 20
1.098176204660937
 30
0.0
 11
0.1438358142642251
 21
1.091312086268889
 31
0.0
  0
LINE
  5
79B5
330
7959
100
AcDbEntity
  8
A-DETL-SCRW
100
AcDbLine
 10
0.1438358142642322
 20
1.11201760987709
 30
0.0
 11
0.1238358142642291
 21
1.099276204660936
 31
0.0
  0
LINE
  5
79B6
330
7959
100
AcDbEntity
  8
A-DETL-SCRW
100
AcDbLine
 10
0.1438358142642286
 20
1.060263611198321
 30
0.0
 11
0.1438358142642286
 21
1.091321896610624
 31
0.0
  0
LINE
  5
79B7
330
7959
100
AcDbEntity
  8
A-DETL-SCRW
100
AcDbLine
 10
0.2438358142642194
 20
0.7557603423684656
 30
0.0
 11
0.1438358142642215
 21
0.7289654231253549
 31
0.0
  0
LINE
  5
79B8
330
7959
100
AcDbEntity
  8
A-DETL-SCRW
100
AcDbLine
 10
0.263835814264219
 20
0.7685017475846197
 30
0.0
 11
0.1238358142642184
 21
0.7358295415174015
 31
0.0
  0
LINE
  5
79B9
330
7959
100
AcDbEntity
  8
A-DETL-SCRW
100
AcDbLine
 10
0.2438358142642194
 20
0.7039965333479623
 30
0.0
 11
0.1438358142642215
 21
0.6772016141048516
 31
0.0
  0
LINE
  5
79BA
330
7959
100
AcDbEntity
  8
A-DETL-SCRW
100
AcDbLine
 10
0.2438358142642194
 20
0.7247020569561631
 30
0.0
 11
0.1438358142642215
 21
0.6979071377130506
 31
0.0
  0
LINE
  5
79BB
330
7959
100
AcDbEntity
  8
A-DETL-SCRW
100
AcDbLine
 10
0.2638358142642225
 20
0.7167379385641164
 30
0.0
 11
0.123835814264222
 21
0.6840657324968982
 31
0.0
  0
LINE
  5
79BC
330
7959
100
AcDbEntity
  8
A-DETL-SCRW
100
AcDbLine
 10
0.263835814264219
 20
0.7696017475846198
 30
0.0
 11
0.1238358142642184
 21
0.7369295415174016
 31
0.0
  0
LINE
  5
79BD
330
7959
100
AcDbEntity
  8
A-DETL-SCRW
100
AcDbLine
 10
0.263835814264219
 20
0.7178379385641174
 30
0.0
 11
0.1238358142642184
 21
0.6851657324968983
 31
0.0
  0
LINE
  5
79BE
330
7959
100
AcDbEntity
  8
A-DETL-SCRW
100
AcDbLine
 10
0.1438358142642251
 20
0.6979071377130524
 30
0.0
 11
0.1438358142642251
 21
0.7289654231253567
 31
0.0
  0
LINE
  5
79BF
330
7959
100
AcDbEntity
  8
A-DETL-SCRW
100
AcDbLine
 10
0.1438358142642215
 20
0.7289654231253558
 30
0.0
 11
0.1438358142642215
 21
0.6979071377130515
 31
0.0
  0
LINE
  5
79C0
330
7959
100
AcDbEntity
  8
A-DETL-SCRW
100
AcDbLine
 10
0.1438358142642251
 20
0.7496709467335548
 30
0.0
 11
0.1238358142642184
 21
0.7369295415174016
 31
0.0
  0
LINE
  5
79C1
330
7959
100
AcDbEntity
  8
A-DETL-SCRW
100
AcDbLine
 10
0.1238358142642184
 20
0.7369295415174016
 30
0.0
 11
0.1238358142642184
 21
0.7358295415174015
 31
0.0
  0
LINE
  5
79C2
330
7959
100
AcDbEntity
  8
A-DETL-SCRW
100
AcDbLine
 10
0.1238358142642184
 20
0.7358295415174015
 30
0.0
 11
0.1438358142642144
 21
0.7289654231253531
 31
0.0
  0
LINE
  5
79C3
330
7959
100
AcDbEntity
  8
A-DETL-SCRW
100
AcDbLine
 10
0.1438358142642251
 20
0.6979071377130515
 30
0.0
 11
0.123835814264222
 21
0.6851657324968983
 31
0.0
  0
LINE
  5
79C4
330
7959
100
AcDbEntity
  8
A-DETL-SCRW
100
AcDbLine
 10
0.123835814264222
 20
0.6851657324968983
 30
0.0
 11
0.123835814264222
 21
0.6840657324968982
 31
0.0
  0
LINE
  5
79C5
330
7959
100
AcDbEntity
  8
A-DETL-SCRW
100
AcDbLine
 10
0.123835814264222
 20
0.6840657324968982
 30
0.0
 11
0.143835814264218
 21
0.6772016141048498
 31
0.0
  0
LINE
  5
79C6
330
7959
100
AcDbEntity
  8
A-DETL-SCRW
100
AcDbLine
 10
0.2438358142642265
 20
0.7557603423684674
 30
0.0
 11
0.2438358142642265
 21
0.7247020569561649
 31
0.0
  0
LINE
  5
79C7
330
7959
100
AcDbEntity
  8
A-DETL-SCRW
100
AcDbLine
 10
0.263835814264219
 20
0.7685017475846197
 30
0.0
 11
0.263835814264219
 21
0.7696017475846198
 31
0.0
  0
LINE
  5
79C8
330
7959
100
AcDbEntity
  8
A-DETL-SCRW
100
AcDbLine
 10
0.2438358142642158
 20
0.7557603423684665
 30
0.0
 11
0.263835814264219
 21
0.7685017475846197
 31
0.0
  0
LINE
  5
79C9
330
7959
100
AcDbEntity
  8
A-DETL-SCRW
100
AcDbLine
 10
0.2638358142642225
 20
0.7167379385641164
 30
0.0
 11
0.2638358142642225
 21
0.7178379385641165
 31
0.0
  0
LINE
  5
79CA
330
7959
100
AcDbEntity
  8
A-DETL-SCRW
100
AcDbLine
 10
0.2638358142642225
 20
0.7178379385641165
 30
0.0
 11
0.2438358142642265
 21
0.7247020569561649
 31
0.0
  0
LINE
  5
79CB
330
7959
100
AcDbEntity
  8
A-DETL-SCRW
100
AcDbLine
 10
0.2438358142642158
 20
0.7039965333479632
 30
0.0
 11
0.2638358142642225
 21
0.7167379385641164
 31
0.0
  0
LINE
  5
79CC
330
7959
100
AcDbEntity
  8
A-DETL-SCRW
100
AcDbLine
 10
0.2438358142642194
 20
0.7764658659766664
 30
0.0
 11
0.143835814264218
 21
0.7496709467335539
 31
0.0
  0
LINE
  5
79CD
330
7959
100
AcDbEntity
  8
A-DETL-SCRW
100
AcDbLine
 10
0.263835814264219
 20
0.7696017475846198
 30
0.0
 11
0.243835814264223
 21
0.7764658659766682
 31
0.0
  0
LINE
  5
79CE
330
7959
100
AcDbEntity
  8
A-DETL-SCRW
100
AcDbLine
 10
0.1438358142642251
 20
0.7496709467335556
 30
0.0
 11
0.1438358142642251
 21
0.7807292321458608
 31
0.0
  0
LINE
  5
79CF
330
7959
100
AcDbEntity
  8
A-DETL-SCRW
100
AcDbLine
 10
0.2438358142642265
 20
0.8075241513889697
 30
0.0
 11
0.243835814264223
 21
0.7764658659766682
 31
0.0
  0
LINE
  5
79D0
330
7959
100
AcDbEntity
  8
A-DETL-SCRW
100
AcDbLine
 10
0.2438358142642158
 20
0.6522327243274546
 30
0.0
 11
0.143835814264218
 21
0.6254378050843439
 31
0.0
  0
LINE
  5
79D1
330
7959
100
AcDbEntity
  8
A-DETL-SCRW
100
AcDbLine
 10
0.2638358142642154
 20
0.6649741295436096
 30
0.0
 11
0.1238358142642149
 21
0.6323019234763905
 31
0.0
  0
LINE
  5
79D2
330
7959
100
AcDbEntity
  8
A-DETL-SCRW
100
AcDbLine
 10
0.2638358142642154
 20
0.6660741295436097
 30
0.0
 11
0.1238358142642149
 21
0.6334019234763906
 31
0.0
  0
LINE
  5
79D3
330
7959
100
AcDbEntity
  8
A-DETL-SCRW
100
AcDbLine
 10
0.1438358142642215
 20
0.6461433286925438
 30
0.0
 11
0.1238358142642149
 21
0.6334019234763906
 31
0.0
  0
LINE
  5
79D4
330
7959
100
AcDbEntity
  8
A-DETL-SCRW
100
AcDbLine
 10
0.1238358142642149
 20
0.6334019234763906
 30
0.0
 11
0.1238358142642149
 21
0.6323019234763905
 31
0.0
  0
LINE
  5
79D5
330
7959
100
AcDbEntity
  8
A-DETL-SCRW
100
AcDbLine
 10
0.1238358142642149
 20
0.6323019234763905
 30
0.0
 11
0.1438358142642109
 21
0.625437805084343
 31
0.0
  0
LINE
  5
79D6
330
7959
100
AcDbEntity
  8
A-DETL-SCRW
100
AcDbLine
 10
0.243835814264223
 20
0.6522327243274564
 30
0.0
 11
0.243835814264223
 21
0.6211744389151539
 31
0.0
  0
LINE
  5
79D7
330
7959
100
AcDbEntity
  8
A-DETL-SCRW
100
AcDbLine
 10
0.2638358142642154
 20
0.6649741295436096
 30
0.0
 11
0.2638358142642154
 21
0.6660741295436097
 31
0.0
  0
LINE
  5
79D8
330
7959
100
AcDbEntity
  8
A-DETL-SCRW
100
AcDbLine
 10
0.2438358142642123
 20
0.6522327243274564
 30
0.0
 11
0.2638358142642154
 21
0.6649741295436096
 31
0.0
  0
LINE
  5
79D9
330
7959
100
AcDbEntity
  8
A-DETL-SCRW
100
AcDbLine
 10
0.2438358142642158
 20
0.6729382479356554
 30
0.0
 11
0.1438358142642144
 21
0.6461433286925429
 31
0.0
  0
LINE
  5
79DA
330
7959
100
AcDbEntity
  8
A-DETL-SCRW
100
AcDbLine
 10
0.2638358142642154
 20
0.6660741295436097
 30
0.0
 11
0.2438358142642194
 21
0.6729382479356572
 31
0.0
  0
LINE
  5
79DB
330
7959
100
AcDbEntity
  8
A-DETL-SCRW
100
AcDbLine
 10
0.1438358142642215
 20
0.6461433286925447
 30
0.0
 11
0.1438358142642215
 21
0.6772016141048498
 31
0.0
  0
LINE
  5
79DC
330
7959
100
AcDbEntity
  8
A-DETL-SCRW
100
AcDbLine
 10
0.243835814264223
 20
0.7039965333479597
 30
0.0
 11
0.2438358142642194
 21
0.6729382479356572
 31
0.0
  0
ARC
  5
79DD
330
7959
100
AcDbEntity
  8
A-DETL-SCRW
  6
SLD-Solid
370
    15
100
AcDbCircle
 10
0.0718358142641904
 20
1.146812529120206
 30
0.0
 40
0.0080000000000001
100
AcDbArc
 50
176.9999999999999
 51
270.0
  0
LINE
  5
79DE
330
7959
100
AcDbEntity
  8
A-DETL-SCRW
  6
SLD-Solid
370
    15
100
AcDbLine
 10
0.0664542273767452
 20
1.188812529120157
 30
0.0
 11
0.0638467779891912
 21
1.147231216770205
 31
0.0
  0
ARC
  5
79DF
330
7959
100
AcDbEntity
  8
A-DETL-SCRW
  6
SLD-Solid
370
    15
100
AcDbCircle
 10
0.3158358142641937
 20
1.146812529120214
 30
0.0
 40
0.0080000000000001
100
AcDbArc
 50
270.0000000000037
 51
3.000000000003917
  0
LINE
  5
79E0
330
7959
100
AcDbEntity
  8
A-DETL-SCRW
  6
SLD-Solid
370
    15
100
AcDbLine
 10
0.3212174011516371
 20
1.188812529120133
 30
0.0
 11
0.323824850539193
 21
1.147231216770213
 31
0.0
  0
LINE
  5
79E1
330
7959
100
AcDbEntity
  8
A-DETL-SCRW
  6
SLD-Solid
370
    15
100
AcDbLine
 10
0.2060277622391897
 20
1.225812529120207
 30
0.0
 11
0.181643866289189
 21
1.225812529120207
 31
0.0
  0
ARC
  5
79E2
330
7959
100
AcDbEntity
  8
A-DETL-SCRW
100
AcDbCircle
 10
0.1827283797877079
 20
1.041613438273648
 30
0.0
 40
0.1918714497409307
100
AcDbArc
 50
90.4766496279414
 51
125.7943486909135
  0
ARC
  5
79E3
330
7959
100
AcDbEntity
  8
A-DETL-SCRW
  6
SLD-Solid
370
    15
100
AcDbCircle
 10
0.079986071739862
 20
1.187498429366491
 30
0.0
 40
0.0135955018307604
100
AcDbArc
 50
134.2041720583442
 51
174.4533049497049
  0
LINE
  5
79E4
330
7959
100
AcDbEntity
  8
A-DETL-SCRW
100
AcDbLine
 10
0.0665372466191006
 20
1.188812529120206
 30
0.0
 11
0.32113438190928
 21
1.188812529120205
 31
0.0
  0
LINE
  5
79E5
330
7959
100
AcDbEntity
  8
A-DETL-SCRW
100
AcDbLine
 10
0.1811321993891894
 20
1.233478248570207
 30
0.0
 11
0.181643866289189
 21
1.225812529120207
 31
0.0
  0
LINE
  5
79E6
330
7959
100
AcDbEntity
  8
A-DETL-SCRW
100
AcDbLine
 10
0.2065394291391893
 20
1.233478248570207
 30
0.0
 11
0.2060277622391897
 21
1.225812529120207
 31
0.0
  0
ARC
  5
79E7
330
7959
100
AcDbEntity
  8
A-DETL-SCRW
100
AcDbCircle
 10
0.2049432487406708
 20
1.041613438273648
 30
0.0
 40
0.1918714497409307
100
AcDbArc
 50
54.20565130908645
 51
89.52335037205861
  0
ARC
  5
79E8
330
7959
100
AcDbEntity
  8
A-DETL-SCRW
  6
SLD-Solid
370
    15
100
AcDbCircle
 10
0.3076855567885186
 20
1.187498429366491
 30
0.0
 40
0.0135955018307604
100
AcDbArc
 50
5.546695050295066
 51
45.79582794165573
  0
LINE
  5
79E9
330
7959
100
AcDbEntity
  8
A-DETL-SCRW
100
AcDbLine
 10
0.1438358142642198
 20
0.1868125291201936
 30
0.0
 11
0.1438358142642055
 21
0.3666187599818134
 31
0.0
  0
LINE
  5
79EA
330
7959
100
AcDbEntity
  8
A-DETL-SCRW
100
AcDbLine
 10
0.1938358142641938
 20
0.1388125291201963
 30
0.0
 11
0.1438358142642144
 21
0.1868125291201972
 31
0.0
  0
LINE
  5
79EB
330
7959
100
AcDbEntity
  8
A-DETL-SCRW
100
AcDbLine
 10
0.2438358142641874
 20
0.3136974133333625
 30
0.0
 11
0.2438358142641608
 21
0.1868125291201972
 31
0.0
  0
LINE
  5
79EC
330
7959
100
AcDbEntity
  8
A-DETL-SCRW
100
AcDbLine
 10
0.243835814264159
 20
0.1868125291201972
 30
0.0
 11
0.1938358142641938
 21
0.1388125291201971
 31
0.0
  0
LINE
  5
79ED
330
7959
100
AcDbEntity
  8
A-DETL-SCRW
100
AcDbLine
 10
0.1938358142641832
 20
0.1388125291202069
 30
0.0
 11
0.243835814264191
 21
0.3423803937963745
 31
0.0
  0
LINE
  5
79EE
330
7959
100
AcDbEntity
  8
A-DETL-SCRW
100
AcDbLine
 10
0.1938358142641832
 20
0.1388125291202051
 30
0.0
 11
0.1778817167483986
 21
0.1868125291201972
 31
0.0
  0
ARC
  5
79EF
330
7959
100
AcDbEntity
  8
A-DETL-SCRW
100
AcDbCircle
 10
0.1608587655063047
 20
0.1787941716177208
 30
0.0
 40
0.0188168787536112
100
AcDbArc
 50
25.22194367455379
 51
154.7780563254462
  0
LINE
  5
79F0
330
7959
100
AcDbEntity
  8
A-DETL-SCRW
100
AcDbLine
 10
0.1438358142642109
 20
0.5426157106515346
 30
0.0
 11
0.1438358142642109
 21
0.5736739960638398
 31
0.0
  0
LINE
  5
79F1
330
7959
100
AcDbEntity
  8
A-DETL-SCRW
100
AcDbLine
 10
0.1438358142642109
 20
0.5943795196720379
 30
0.0
 11
0.1438358142642109
 21
0.625437805084343
 31
0.0
  0
LINE
  5
79F2
330
7959
100
AcDbEntity
  8
A-DETL-SCRW
100
AcDbLine
 10
0.1438358142642073
 20
0.573673996063838
 30
0.0
 11
0.1438358142642073
 21
0.5426157106515328
 31
0.0
  0
LINE
  5
79F3
330
7959
100
AcDbEntity
  8
A-DETL-SCRW
100
AcDbLine
 10
0.1438358142642038
 20
0.625437805084343
 30
0.0
 11
0.1438358142642073
 21
0.5943795196720379
 31
0.0
  0
LINE
  5
79F4
330
7959
100
AcDbEntity
  8
A-DETL-SCRW
100
AcDbLine
 10
0.2438358142642087
 20
0.6004689153069487
 30
0.0
 11
0.2438358142642087
 21
0.5694106298946471
 31
0.0
  0
LINE
  5
79F5
330
7959
100
AcDbEntity
  8
A-DETL-SCRW
100
AcDbLine
 10
0.2638358142642048
 20
0.6132103205231028
 30
0.0
 11
0.2638358142642048
 21
0.614310320523102
 31
0.0
  0
LINE
  5
79F6
330
7959
100
AcDbEntity
  8
A-DETL-SCRW
100
AcDbLine
 10
0.2638358142642048
 20
0.614310320523102
 30
0.0
 11
0.2438358142642087
 21
0.6211744389151504
 31
0.0
  0
LINE
  5
79F7
330
7959
100
AcDbEntity
  8
A-DETL-SCRW
100
AcDbLine
 10
0.2438358142641981
 20
0.6004689153069487
 30
0.0
 11
0.2638358142642048
 21
0.6132103205231028
 31
0.0
  0
LINE
  5
79F8
330
7959
100
AcDbEntity
  8
A-DETL-SCRW
100
AcDbLine
 10
0.1438358142642073
 20
0.5943795196720361
 30
0.0
 11
0.1238358142642042
 21
0.5816381144558838
 31
0.0
  0
LINE
  5
79F9
330
7959
100
AcDbEntity
  8
A-DETL-SCRW
100
AcDbLine
 10
0.1238358142642042
 20
0.5816381144558838
 30
0.0
 11
0.1238358142642042
 21
0.5805381144558846
 31
0.0
  0
LINE
  5
79FA
330
7959
100
AcDbEntity
  8
A-DETL-SCRW
100
AcDbLine
 10
0.1238358142642042
 20
0.5805381144558846
 30
0.0
 11
0.1438358142642002
 21
0.5736739960638362
 31
0.0
  0
LINE
  5
79FB
330
7959
100
AcDbEntity
  8
A-DETL-SCRW
100
AcDbLine
 10
0.2438358142642016
 20
0.6004689153069487
 30
0.0
 11
0.1438358142642038
 21
0.5736739960638362
 31
0.0
  0
LINE
  5
79FC
330
7959
100
AcDbEntity
  8
A-DETL-SCRW
100
AcDbLine
 10
0.2438358142642016
 20
0.6211744389151486
 30
0.0
 11
0.1438358142642038
 21
0.5943795196720361
 31
0.0
  0
LINE
  5
79FD
330
7959
100
AcDbEntity
  8
A-DETL-SCRW
100
AcDbLine
 10
0.2638358142642048
 20
0.6132103205231028
 30
0.0
 11
0.1238358142642042
 21
0.5805381144558846
 31
0.0
  0
LINE
  5
79FE
330
7959
100
AcDbEntity
  8
A-DETL-SCRW
100
AcDbLine
 10
0.2638358142642048
 20
0.5614465115025995
 30
0.0
 11
0.2638358142642048
 21
0.5625465115025988
 31
0.0
  0
LINE
  5
79FF
330
7959
100
AcDbEntity
  8
A-DETL-SCRW
100
AcDbLine
 10
0.2638358142642048
 20
0.5625465115025988
 30
0.0
 11
0.2438358142642087
 21
0.5694106298946471
 31
0.0
  0
LINE
  5
7A00
330
7959
100
AcDbEntity
  8
A-DETL-SCRW
100
AcDbLine
 10
0.2438358142642016
 20
0.5487051062864455
 30
0.0
 11
0.2638358142642048
 21
0.5614465115025995
 31
0.0
  0
LINE
  5
7A01
330
7959
100
AcDbEntity
  8
A-DETL-SCRW
100
AcDbLine
 10
0.1438358142642109
 20
0.5426157106515328
 30
0.0
 11
0.1238358142642042
 21
0.5298743054353805
 31
0.0
  0
LINE
  5
7A02
330
7959
100
AcDbEntity
  8
A-DETL-SCRW
100
AcDbLine
 10
0.1238358142642042
 20
0.5298743054353805
 30
0.0
 11
0.1238358142642042
 21
0.5287743054353813
 31
0.0
  0
LINE
  5
7A03
330
7959
100
AcDbEntity
  8
A-DETL-SCRW
100
AcDbLine
 10
0.1238358142642042
 20
0.5287743054353813
 30
0.0
 11
0.1438358142642002
 21
0.5219101870433321
 31
0.0
  0
LINE
  5
7A04
330
7959
100
AcDbEntity
  8
A-DETL-SCRW
100
AcDbLine
 10
0.2438358142642052
 20
0.5487051062864455
 30
0.0
 11
0.1438358142642073
 21
0.5219101870433338
 31
0.0
  0
LINE
  5
7A05
330
7959
100
AcDbEntity
  8
A-DETL-SCRW
100
AcDbLine
 10
0.2438358142642052
 20
0.5694106298946453
 30
0.0
 11
0.1438358142642038
 21
0.5426157106515328
 31
0.0
  0
LINE
  5
7A06
330
7959
100
AcDbEntity
  8
A-DETL-SCRW
100
AcDbLine
 10
0.2638358142642048
 20
0.5614465115025995
 30
0.0
 11
0.1238358142642042
 21
0.5287743054353813
 31
0.0
  0
LINE
  5
7A07
330
7959
100
AcDbEntity
  8
A-DETL-SCRW
100
AcDbLine
 10
0.2638358142642048
 20
0.614310320523102
 30
0.0
 11
0.1238358142642042
 21
0.5816381144558838
 31
0.0
  0
LINE
  5
7A08
330
7959
100
AcDbEntity
  8
A-DETL-SCRW
100
AcDbLine
 10
0.2638358142642048
 20
0.5625465115026005
 30
0.0
 11
0.1238358142642042
 21
0.5298743054353805
 31
0.0
  0
LINE
  5
7A09
330
7959
100
AcDbEntity
  8
A-DETL-SCRW
100
AcDbLine
 10
0.2438358142642087
 20
0.4969412972659342
 30
0.0
 11
0.1438358142642109
 21
0.4701463780228235
 31
0.0
  0
LINE
  5
7A0A
330
7959
100
AcDbEntity
  8
A-DETL-SCRW
100
AcDbLine
 10
0.2638358142642083
 20
0.5096827024820883
 30
0.0
 11
0.1238358142642077
 21
0.4770104964148701
 31
0.0
  0
LINE
  5
7A0B
330
7959
100
AcDbEntity
  8
A-DETL-SCRW
100
AcDbLine
 10
0.2438358142642087
 20
0.4451774882454309
 30
0.0
 11
0.1438358142642109
 21
0.4183825690023202
 31
0.0
  0
LINE
  5
7A0C
330
7959
100
AcDbEntity
  8
A-DETL-SCRW
100
AcDbLine
 10
0.2438358142642087
 20
0.4658830118536317
 30
0.0
 11
0.1438358142642109
 21
0.4390880926105192
 31
0.0
  0
LINE
  5
7A0D
330
7959
100
AcDbEntity
  8
A-DETL-SCRW
100
AcDbLine
 10
0.2638358142642119
 20
0.457918893461585
 30
0.0
 11
0.1238358142642113
 21
0.4252466873943668
 31
0.0
  0
LINE
  5
7A0E
330
7959
100
AcDbEntity
  8
A-DETL-SCRW
100
AcDbLine
 10
0.2638358142642083
 20
0.5107827024820884
 30
0.0
 11
0.1238358142642077
 21
0.4781104964148702
 31
0.0
  0
LINE
  5
7A0F
330
7959
100
AcDbEntity
  8
A-DETL-SCRW
100
AcDbLine
 10
0.2638358142642083
 20
0.459018893461586
 30
0.0
 11
0.1238358142642077
 21
0.4263466873943669
 31
0.0
  0
LINE
  5
7A10
330
7959
100
AcDbEntity
  8
A-DETL-SCRW
100
AcDbLine
 10
0.1438358142642144
 20
0.439088092610521
 30
0.0
 11
0.1438358142642144
 21
0.4701463780228253
 31
0.0
  0
LINE
  5
7A11
330
7959
100
AcDbEntity
  8
A-DETL-SCRW
100
AcDbLine
 10
0.1438358142642109
 20
0.4701463780228244
 30
0.0
 11
0.1438358142642109
 21
0.4390880926105201
 31
0.0
  0
LINE
  5
7A12
330
7959
100
AcDbEntity
  8
A-DETL-SCRW
100
AcDbLine
 10
0.1438358142642144
 20
0.4908519016310234
 30
0.0
 11
0.1238358142642077
 21
0.4781104964148702
 31
0.0
  0
LINE
  5
7A13
330
7959
100
AcDbEntity
  8
A-DETL-SCRW
100
AcDbLine
 10
0.1238358142642077
 20
0.4781104964148702
 30
0.0
 11
0.1238358142642077
 21
0.4770104964148701
 31
0.0
  0
LINE
  5
7A14
330
7959
100
AcDbEntity
  8
A-DETL-SCRW
100
AcDbLine
 10
0.1238358142642077
 20
0.4770104964148701
 30
0.0
 11
0.1438358142642038
 21
0.4701463780228217
 31
0.0
  0
LINE
  5
7A15
330
7959
100
AcDbEntity
  8
A-DETL-SCRW
100
AcDbLine
 10
0.1438358142642144
 20
0.4390880926105201
 30
0.0
 11
0.1238358142642113
 21
0.4263466873943669
 31
0.0
  0
LINE
  5
7A16
330
7959
100
AcDbEntity
  8
A-DETL-SCRW
100
AcDbLine
 10
0.1238358142642113
 20
0.4263466873943669
 30
0.0
 11
0.1238358142642113
 21
0.4252466873943668
 31
0.0
  0
LINE
  5
7A17
330
7959
100
AcDbEntity
  8
A-DETL-SCRW
100
AcDbLine
 10
0.1238358142642113
 20
0.4252466873943668
 30
0.0
 11
0.1438358142642073
 21
0.4183825690023184
 31
0.0
  0
LINE
  5
7A18
330
7959
100
AcDbEntity
  8
A-DETL-SCRW
100
AcDbLine
 10
0.2438358142642158
 20
0.496941297265936
 30
0.0
 11
0.2438358142642158
 21
0.4658830118536335
 31
0.0
  0
LINE
  5
7A19
330
7959
100
AcDbEntity
  8
A-DETL-SCRW
100
AcDbLine
 10
0.2638358142642083
 20
0.5096827024820883
 30
0.0
 11
0.2638358142642083
 21
0.5107827024820884
 31
0.0
  0
LINE
  5
7A1A
330
7959
100
AcDbEntity
  8
A-DETL-SCRW
100
AcDbLine
 10
0.2438358142642052
 20
0.4969412972659351
 30
0.0
 11
0.2638358142642083
 21
0.5096827024820883
 31
0.0
  0
LINE
  5
7A1B
330
7959
100
AcDbEntity
  8
A-DETL-SCRW
100
AcDbLine
 10
0.2638358142642119
 20
0.457918893461585
 30
0.0
 11
0.2638358142642119
 21
0.4590188934615851
 31
0.0
  0
LINE
  5
7A1C
330
7959
100
AcDbEntity
  8
A-DETL-SCRW
100
AcDbLine
 10
0.2638358142642119
 20
0.4590188934615851
 30
0.0
 11
0.2438358142642158
 21
0.4658830118536335
 31
0.0
  0
LINE
  5
7A1D
330
7959
100
AcDbEntity
  8
A-DETL-SCRW
100
AcDbLine
 10
0.2438358142642052
 20
0.4451774882454318
 30
0.0
 11
0.2638358142642119
 21
0.457918893461585
 31
0.0
  0
LINE
  5
7A1E
330
7959
100
AcDbEntity
  8
A-DETL-SCRW
100
AcDbLine
 10
0.2438358142642087
 20
0.517646820874135
 30
0.0
 11
0.1438358142642073
 21
0.4908519016310225
 31
0.0
  0
LINE
  5
7A1F
330
7959
100
AcDbEntity
  8
A-DETL-SCRW
100
AcDbLine
 10
0.2638358142642083
 20
0.5107827024820884
 30
0.0
 11
0.2438358142642123
 21
0.5176468208741368
 31
0.0
  0
LINE
  5
7A20
330
7959
100
AcDbEntity
  8
A-DETL-SCRW
100
AcDbLine
 10
0.1438358142642144
 20
0.4908519016310243
 30
0.0
 11
0.1438358142642144
 21
0.5219101870433294
 31
0.0
  0
LINE
  5
7A21
330
7959
100
AcDbEntity
  8
A-DETL-SCRW
100
AcDbLine
 10
0.2438358142642158
 20
0.5487051062864384
 30
0.0
 11
0.2438358142642123
 21
0.5176468208741368
 31
0.0
  0
LINE
  5
7A22
330
7959
100
AcDbEntity
  8
A-DETL-SCRW
100
AcDbLine
 10
0.2438358142642052
 20
0.3934136792249232
 30
0.0
 11
0.1438358142642073
 21
0.3666187599818125
 31
0.0
  0
LINE
  5
7A23
330
7959
100
AcDbEntity
  8
A-DETL-SCRW
100
AcDbLine
 10
0.2638358142642048
 20
0.4061550844410782
 30
0.0
 11
0.1238358142642042
 21
0.3734828783738591
 31
0.0
  0
LINE
  5
7A24
330
7959
100
AcDbEntity
  8
A-DETL-SCRW
100
AcDbLine
 10
0.2638358142642048
 20
0.4072550844410783
 30
0.0
 11
0.1238358142642042
 21
0.3745828783738592
 31
0.0
  0
LINE
  5
7A25
330
7959
100
AcDbEntity
  8
A-DETL-SCRW
100
AcDbLine
 10
0.1438358142642109
 20
0.3873242835900123
 30
0.0
 11
0.1238358142642042
 21
0.3745828783738592
 31
0.0
  0
LINE
  5
7A26
330
7959
100
AcDbEntity
  8
A-DETL-SCRW
100
AcDbLine
 10
0.1238358142642042
 20
0.3745828783738592
 30
0.0
 11
0.1238358142642042
 21
0.3734828783738591
 31
0.0
  0
LINE
  5
7A27
330
7959
100
AcDbEntity
  8
A-DETL-SCRW
100
AcDbLine
 10
0.1238358142642042
 20
0.3734828783738591
 30
0.0
 11
0.1438358142642002
 21
0.3666187599818116
 31
0.0
  0
LINE
  5
7A28
330
7959
100
AcDbEntity
  8
A-DETL-SCRW
100
AcDbLine
 10
0.2438358142642123
 20
0.393413679224925
 30
0.0
 11
0.2438358142642123
 21
0.3623553938126225
 31
0.0
  0
LINE
  5
7A29
330
7959
100
AcDbEntity
  8
A-DETL-SCRW
100
AcDbLine
 10
0.2638358142642048
 20
0.4061550844410782
 30
0.0
 11
0.2638358142642048
 21
0.4072550844410783
 31
0.0
  0
LINE
  5
7A2A
330
7959
100
AcDbEntity
  8
A-DETL-SCRW
100
AcDbLine
 10
0.2438358142642016
 20
0.393413679224925
 30
0.0
 11
0.2638358142642048
 21
0.4061550844410782
 31
0.0
  0
LINE
  5
7A2B
330
7959
100
AcDbEntity
  8
A-DETL-SCRW
100
AcDbLine
 10
0.2438358142642052
 20
0.414119202833124
 30
0.0
 11
0.1438358142642038
 21
0.3873242835900115
 31
0.0
  0
LINE
  5
7A2C
330
7959
100
AcDbEntity
  8
A-DETL-SCRW
100
AcDbLine
 10
0.2638358142642048
 20
0.4072550844410783
 30
0.0
 11
0.2438358142642087
 21
0.4141192028331258
 31
0.0
  0
LINE
  5
7A2D
330
7959
100
AcDbEntity
  8
A-DETL-SCRW
100
AcDbLine
 10
0.1438358142642109
 20
0.3873242835900132
 30
0.0
 11
0.1438358142642109
 21
0.4183825690023184
 31
0.0
  0
LINE
  5
7A2E
330
7959
100
AcDbEntity
  8
A-DETL-SCRW
100
AcDbLine
 10
0.2438358142642123
 20
0.4451774882454283
 30
0.0
 11
0.2438358142642087
 21
0.4141192028331258
 31
0.0
  0
LINE
  5
7A2F
330
7959
100
AcDbEntity
  8
A-DETL-SCRW
100
AcDbLine
 10
0.2438358142642087
 20
0.3423803938054686
 30
0.0
 11
0.2438358142642087
 21
0.3105915847921246
 31
0.0
  0
LINE
  5
7A30
330
7959
100
AcDbEntity
  8
A-DETL-SCRW
  6
SLD-Solid
370
    15
100
AcDbLine
 10
0.2438358142732824
 20
0.3423803938054677
 30
0.0
 11
0.2558020847732827
 21
0.354346664305468
 31
0.0
  0
LINE
  5
7A31
330
7959
100
AcDbEntity
  8
A-DETL-SCRW
  6
SLD-Solid
370
    15
100
AcDbLine
 10
0.1730201501638628
 20
0.3423803938054686
 30
0.0
 11
0.2438358142732824
 21
0.3423803938054677
 31
0.0
  0
LINE
  5
7A32
330
7959
100
AcDbEntity
  8
A-DETL-SCRW
  6
SLD-Solid
370
    15
100
AcDbLine
 10
0.1730201501638628
 20
0.3433803938054689
 30
0.0
 11
0.1814198516544678
 21
0.343380393805468
 31
0.0
  0
SPLINE
  5
7A33
330
7959
100
AcDbEntity
  8
A-DETL-SCRW
  6
SLD-Solid
370
    15
100
AcDbSpline
210
0.0
220
0.0
230
1.0
 70
     8
 71
     3
 72
    26
 73
    22
 74
     0
 42
0.000000001
 43
0.0000000001
 40
0.0
 40
0.0
 40
0.0
 40
0.0
 40
0.2500000000000001
 40
0.2500000000000001
 40
0.3750000000000002
 40
0.3750000000000002
 40
0.5000000000000004
 40
0.5000000000000004
 40
1.0
 40
1.0
 40
1.0
 40
1.013367913541817
 40
1.013367913541817
 40
1.013367913541817
 40
1.082348946778037
 40
1.082348946778037
 40
1.082348946778037
 40
1.154086310591988
 40
1.154086310591988
 40
1.154086310591988
 40
1.258679996816426
 40
1.258679996816426
 40
1.258679996816426
 40
1.258679996816426
 10
0.2558020847823599
 20
0.3543466642983004
 30
0.0
 10
0.2558020847823599
 20
0.3543466642983004
 30
0.0
 10
0.2542652810350674
 20
0.3540707398232401
 30
0.0
 10
0.249982299493162
 20
0.3533166305562032
 30
0.0
 10
0.248203424160085
 20
0.353005108141466
 30
0.0
 10
0.2441173330389681
 20
0.3522970956912124
 30
0.0
 10
0.2418194513262435
 20
0.3519021693063236
 30
0.0
 10
0.2290734176346483
 20
0.3497379332567769
 30
0.0
 10
0.2154598696513439
 20
0.3475239555638288
 30
0.0
 10
0.202367913082476
 20
0.3455053937947321
 30
0.0
 10
0.2020178887954653
 20
0.3454514258763162
 30
0.0
 10
0.2016682373443182
 20
0.345397597642072
 30
0.0
 10
0.201318585893171
 20
0.3453437694078278
 30
0.0
 10
0.1995143164163213
 20
0.3450660052523506
 30
0.0
 10
0.1977100469394699
 20
0.3447882410968717
 30
0.0
 10
0.1959057774626203
 20
0.3445104769413945
 30
0.0
 10
0.1940294133403846
 20
0.3442216139403476
 30
0.0
 10
0.1921530492181471
 20
0.3439327509392998
 30
0.0
 10
0.1902766850959097
 20
0.343643887938252
 30
0.0
 10
0.1875409302561728
 20
0.3432227232273242
 30
0.0
 10
0.1848051754164359
 20
0.3428015585163964
 30
0.0
 10
0.182069420576699
 20
0.3423803938054686
 30
0.0
  0
LINE
  5
7A34
330
7959
100
AcDbEntity
  8
A-DETL-SCRW
100
AcDbLine
 10
0.2558020847732827
 20
0.3543466643054591
 30
0.0
 11
0.2558020847732827
 21
0.3554466643054592
 31
0.0
  0
LINE
  5
7A35
330
7959
100
AcDbEntity
  8
A-DETL-SCRW
  6
SLD-Solid
370
    15
100
AcDbLine
 10
0.2558020847642055
 20
0.3554466643126268
 30
0.0
 11
0.2438358142642052
 21
0.3623553938126278
 31
0.0
  0
SPLINE
  5
7A36
330
7959
100
AcDbEntity
  8
A-DETL-SCRW
  6
SLD-Solid
370
    15
100
AcDbSpline
210
0.0
220
0.0
230
1.0
 70
     8
 71
     3
 72
    26
 73
    22
 74
     0
 42
0.000000001
 43
0.0000000001
 40
0.0
 40
0.0
 40
0.0
 40
0.0
 40
0.2500000000000001
 40
0.2500000000000001
 40
0.3750000000000002
 40
0.3750000000000002
 40
0.5000000000000004
 40
0.5000000000000004
 40
1.0
 40
1.0
 40
1.0
 40
1.013367913541817
 40
1.013367913541817
 40
1.013367913541817
 40
1.082348946624451
 40
1.082348946624451
 40
1.082348946624451
 40
1.154086310438465
 40
1.154086310438465
 40
1.154086310438465
 40
1.266958127358588
 40
1.266958127358588
 40
1.266958127358588
 40
1.266958127358588
 10
0.2558020847732827
 20
0.3554466643054592
 30
0.0
 10
0.2558020847732827
 20
0.3554466643054592
 30
0.0
 10
0.2542652810259902
 20
0.3551707398303989
 30
0.0
 10
0.2499822994840848
 20
0.354416630563362
 30
0.0
 10
0.2482034241510078
 20
0.3541051081486248
 30
0.0
 10
0.2441173330298909
 20
0.3533970956983712
 30
0.0
 10
0.2418194513171663
 20
0.3530021693134824
 30
0.0
 10
0.2290734176255711
 20
0.3508379332639357
 30
0.0
 10
0.2154598696422667
 20
0.3486239555709876
 30
0.0
 10
0.2023679130733988
 20
0.3466053938018909
 30
0.0
 10
0.2020178887863882
 20
0.346551425883475
 30
0.0
 10
0.201668237335241
 20
0.3464975976492308
 30
0.0
 10
0.2013185858840938
 20
0.3464437694149867
 30
0.0
 10
0.1995143164112605
 20
0.3461660052601267
 30
0.0
 10
0.1977100469384272
 20
0.3458882411052677
 30
0.0
 10
0.1959057774655939
 20
0.3456104769504078
 30
0.0
 10
0.1940294133433582
 20
0.3453216139493591
 30
0.0
 10
0.192153049221119
 20
0.3450327509483104
 30
0.0
 10
0.1902766850988833
 20
0.3447438879472617
 30
0.0
 10
0.1873244072840769
 20
0.3442893898999975
 30
0.0
 10
0.1843721294692742
 20
0.3438348918527323
 30
0.0
 10
0.1814198516544678
 20
0.3433803938054689
 30
0.0
  0
LINE
  5
7A37
330
7959
100
AcDbEntity
  8
A-DETL-SCRW
100
AcDbLine
 10
0.243835814264223
 20
0.3623553938126323
 30
0.0
 11
0.1730201501638628
 21
0.3433803938054689
 31
0.0
  0
LINE
  5
7A38
330
7959
100
AcDbEntity
  8
A-DETL-SCRW
100
AcDbLine
 10
0.1730201501638628
 20
0.343380393805468
 30
0.0
 11
0.1730201501638628
 21
0.3423803938054677
 31
0.0
  0
LINE
  5
7A39
330
7959
100
AcDbEntity
  8
A-DETL-SCRW
100
AcDbLine
 10
0.1781632323626461
 20
0.1859655523814352
 30
0.0
 11
0.2165815852946729
 21
0.3423803937963745
 31
0.0
  0
ENDBLK
  5
7A3A
330
7959
100
AcDbEntity
  8
0
100
AcDbBlockEnd
  0
ENDSEC
  0
SECTION
  2
ENTITIES
  0
MTEXT
  5
493
330
1F
100
AcDbEntity
  8
A-DETL-PAT1
100
AcDbMText
 10
-0.5393257792700794
 20
0.2330525910033749
 30
0.0
 40
0.0597022604264557
 41
0.375
 46
0.0
 71
     1
 72
     5
  1

 73
     1
 44
1.0
  0
MTEXT
  5
AAD
330
1F
100
AcDbEntity
  8
A-ANNO-DIMS
100
AcDbMText
 10
-0.3197287970646645
 20
-0.3962247248759976
 30
0.0
 40
0.0649676644074742
 41
1.853
 46
0.0
 71
     1
 72
     5
  1

  7
STYLE1
 73
     1
 44
1.0
  0
MTEXT
  5
1A55
330
1F
100
AcDbEntity
  8
A-ANNO-TEXT
100
AcDbMText
 10
4.628419389742727
 20
1.971483592590491
 30
0.0
 40
0.2
 41
2.063
 46
0.0
 71
     1
 72
     5
  1

  7
ZERO
 73
     1
 44
1.0
  0
MTEXT
  5
7309
330
1F
100
AcDbEntity
  8
A-ANNO-TEXT
100
AcDbMText
 10
2.874983149299621
 20
7.191197669615293
 30
0.0
 40
0.08125
 41
1.84981920954271
 46
0.0
 71
     1
 72
     5
  1
#6 x 1"(25.4) PPH SDS
  7
ZERO
 73
     1
 44
1.0
  0
MTEXT
  5
730A
330
1F
100
AcDbEntity
  8
A-ANNO-TEXT
100
AcDbMText
 10
1.995462216761318
 20
5.791067713336314
 30
0.0
 40
0.08125
 41
0.763208705599928
 46
0.0
 71
     1
 72
     5
  1
Extruded\PBeveled\PNeoprene\P.125"(3.2) x \P1.00"(25.4)
  7
ZERO
 73
     1
 44
1.0
  0
LINE
  5
730B
330
1F
100
AcDbEntity
  8
A-DETL-PAT2
100
AcDbLine
 10
2.985359169062639
 20
5.727920611154228
 30
0.0
 11
2.985359169062638
 21
5.727920611154228
 31
0.0
  0
DIMENSION
  5
7489
330
1F
100
AcDbEntity
  8
A-ANNO-DIMS
100
AcDbDimension
  2
*D1
 10
2.812359169062638
 20
6.941385887674378
 30
0.0
 11
2.502652484205885
 21
6.941385887674378
 31
0.0
 70
    32
 71
     5
 42
0.2190000000000012
 73
     0
 74
     0
 75
     0
  3
dim24
100
AcDbAlignedDimension
 13
3.031359169062639
 23
6.665920611154229
 33
0.0
 14
2.812359169062638
 24
6.659920611154229
 34
0.0
100
AcDbRotatedDimension
  0
DIMENSION
  5
74C2
330
1F
100
AcDbEntity
  8
A-ANNO-DIMS
100
AcDbDimension
  2
*D2
 10
3.707730280610618
 20
5.72792061115423
 30
0.0
 11
3.707730280610618
 21
6.22792061115423
 31
0.0
 70
    32
 71
     5
 42
0.9999999999999973
 73
     0
 74
     0
 75
     0
  3
dim24
100
AcDbAlignedDimension
 13
2.969359169062638
 23
6.727920611154227
 33
0.0
 14
2.984359169062637
 24
5.72792061115423
 34
0.0
 50
90.0
100
AcDbRotatedDimension
  0
DIMENSION
  5
74D1
330
1F
100
AcDbEntity
  8
A-ANNO-DIMS
100
AcDbDimension
  2
*D3
 10
3.031359169062638
 20
6.089322032265357
 30
0.0
 11
3.341065853919391
 21
6.089322032265357
 31
0.0
 70
    32
 71
     5
 42
0.093999999999999
 73
     0
 74
     0
 75
     0
  3
dim24
100
AcDbAlignedDimension
 13
2.937359169062639
 23
6.287920611154229
 33
0.0
 14
3.031359169062638
 24
6.287920611154229
 34
0.0
100
AcDbRotatedDimension
  0
DIMENSION
  5
74E9
330
1F
100
AcDbEntity
  8
A-ANNO-DIMS
100
AcDbDimension
  2
*D4
 10
3.707730280610618
 20
5.287920611154229
 30
0.0
 11
3.707730280610617
 21
5.507920611154229
 31
0.0
 70
    32
 71
     5
 42
0.4399999999999995
 73
     0
 74
     0
 75
     0
  3
dim24
100
AcDbAlignedDimension
 13
2.985359169062639
 23
5.727920611154228
 33
0.0
 14
2.843359169062638
 24
5.287920611154229
 34
0.0
 50
90.0
100
AcDbRotatedDimension
  0
LWPOLYLINE
  5
7686
102
{ACAD_REACTORS
330
7A61
102
}
330
1F
100
AcDbEntity
  8
A-DETL-DRSW
100
AcDbPolyline
 90
       16
 70
     1
 43
0.0
 10
2.937359169062636
 20
5.774920611154229
 10
2.937359169062639
 20
6.287920611154229
 10
2.837781746588726
 20
6.287920611154229
 10
2.814493168342034
 20
6.311209189400922
 42
-0.2767322742371823
 10
2.814493168342033
 20
6.326632032907538
 10
2.837781746588726
 20
6.34992061115423
 10
2.93735916906264
 20
6.34992061115423
 10
2.93735916906264
 20
6.649920611154229
 10
2.822359169062637
 20
6.64992061115423
 42
-0.7562133830713631
 10
2.817117561557426
 20
6.668436804597389
 42
-0.0906300348141775
 10
2.938125141723927
 20
6.727920611154229
 10
2.969359169062638
 20
6.727920611154228
 42
-0.414213562373099
 10
3.031359169062638
 20
6.665920611154229
 10
3.031359169062638
 20
5.774920611154229
 42
-0.4142135623730951
 10
2.984359169062638
 20
5.727920611154229
 10
2.984359169062636
 20
5.727920611154228
 42
-0.4142135623730956
  0
LEADER
  5
76A0
330
1F
100
AcDbEntity
  8
A-ANNO-TEXT
100
AcDbLeader
  3
dim24
 76
     2
 10
2.812359169062638
 20
5.689124089559715
 30
0.0
 10
2.583685402461327
 20
5.578402245082031
 30
0.0
1001
ACAD
1000
DSTYLE
1002
{
1070
   176
1070
   256
1070
   147
1040
0.03125
1070
    77
1070
     0
1002
}
  0
LEADER
  5
76A1
330
1F
100
AcDbEntity
  8
A-ANNO-TEXT
100
AcDbLeader
  3
dim24
 76
     2
 10
3.081359169062638
 20
6.627219178799319
 30
0.0
 10
3.390554858311688
 20
7.051109910585772
 30
0.0
1001
ACAD
1000
DSTYLE
1002
{
1070
   176
1070
   256
1070
   147
1040
0.03125
1070
    77
1070
     0
1002
}
  0
LWPOLYLINE
  5
76AB
102
{ACAD_REACTORS
330
7821
330
7A61
102
}
330
1F
100
AcDbEntity
  8
A-DETL-PAT2
100
AcDbPolyline
 90
        7
 70
     1
 43
0.0
 10
2.848431568502638
 20
5.287920611154229
 10
2.843359169062638
 20
5.287920611154229
 42
-0.4142135623730951
 10
2.812359169062638
 20
5.318920611154228
 10
2.812359169062639
 20
6.287920611154229
 10
2.937359169062639
 20
6.287920611154229
 10
2.937359169062639
 20
5.67792061115423
 10
2.879041002709127
 20
5.314015253108316
 42
-0.3684010392265248
  0
HATCH
  5
7821
330
1F
100
AcDbEntity
  8
A-DETL-RUBR
100
AcDbHatch
 10
0.0
 20
0.0
 30
0.0
210
0.0
220
0.0
230
1.0
  2
SOLID
 70
     1
 71
     1
 91
        1
 92
        7
 72
     1
 73
     1
 93
        6
 10
2.812359169062638
 20
5.318920611154228
 42
0.4142135623730951
 10
2.843359169062638
 20
5.287920611154229
 42
0.419117614964926
 10
2.879041002709127
 20
5.314015253108316
 42
0.0
 10
2.937359169062639
 20
5.67792061115423
 42
0.0
 10
2.937359169062639
 20
6.287920611154229
 42
0.0
 10
2.812359169062639
 20
6.287920611154229
 42
0.0
 97
        1
330
76AB
 75
     1
 76
     1
 47
0.0038010848055902
 98
        1
 10
2.858979207772222
 20
6.162080876038871
450
        0
451
        0
460
0.0
461
0.0
452
        0
462
0.0
453
        0
470

1001
GradientColor1ACI
1070
     5
1001
GradientColor2ACI
1070
     2
1001
ACAD
1010
0.0
1020
0.0
1030
0.0
  0
INSERT
  5
792A
330
1F
100
AcDbEntity
  8
A-ANNO-LOGO
100
AcDbBlockReference
  2
A$C4B751D3B
 10
0.0
 20
-1.082866338684642
 30
0.0
  0
MTEXT
  5
792B
330
1F
100
AcDbEntity
  8
A-ANNO-TEXT
100
AcDbMText
 10
3.166465940831279
 20
2.918647947101586
 30
0.0
 40
0.125
 41
2.452042771811406
 46
0.0
 71
     1
 72
     5
  1
329\PDoor Sweep
  7
ZERO
 73
     1
 44
1.0
  0
INSERT
  5
7A45
330
1F
100
AcDbEntity
  8
A-DETL-SCRW
100
AcDbBlockReference
  2
A$C03546389
 10
1.892546639942432
 20
6.69375642541842
 30
0.0
 50
269.9999999999999
  0
HATCH
  5
7A61
330
1F
100
AcDbEntity
  8
A-DETL-PAT1
100
AcDbHatch
 10
0.0
 20
0.0
 30
0.0
210
0.0
220
0.0
230
1.0
  2
SOLID
 70
     1
 71
     1
 91
        1
 92
        7
 72
     1
 73
     1
 93
       15
 10
3.031359169062638
 20
6.665920611154229
 42
0.4142135623730868
 10
2.96935916906264
 20
6.727920611154228
 42
0.0
 10
2.938125141723927
 20
6.727920611154229
 42
0.0918152135535774
 10
2.815703389463742
 20
6.667383894475324
 42
0.689038305011576
 10
2.822359169062638
 20
6.64992061115423
 42
0.0
 10
2.93735916906264
 20
6.649920611154229
 42
0.0
 10
2.93735916906264
 20
6.34992061115423
 42
0.0
 10
2.837781746588726
 20
6.34992061115423
 42
0.0
 10
2.814493168342033
 20
6.326632032907538
 42
0.2767322742371824
 10
2.814493168342034
 20
6.311209189400922
 42
0.0
 10
2.837781746588726
 20
6.287920611154229
 42
0.0
 10
2.937359169062639
 20
6.287920611154229
 42
0.0
 10
2.937359169062636
 20
5.774920611154229
 42
0.4142135623730927
 10
2.984359169062636
 20
5.727920611154228
 42
0.4142135623731075
 10
3.031359169062638
 20
5.774920611154228
 42
0.0
 97
        2
330
7686
330
76AB
 75
     1
 76
     1
 47
0.0025565503636328
 98
        1
 10
3.002039369596943
 20
6.426385099814631
450
        0
451
        0
460
0.0
461
0.0
452
        0
462
1.0
453
        2
463
0.0
 63
     5
421
      255
463
1.0
 63
     2
421
 16776960
470
LINEAR
1001
GradientColor1ACI
1070
     5
1001
GradientColor2ACI
1070
     2
1001
ACAD
1010
0.0
1020
0.0
1030
0.0
  0
VIEWPORT
  5
7FF
330
1B
100
AcDbEntity
 67
     1
  8
0
100
AcDbViewport
 10
50.89172625842993
 20
32.3574773131307
 30
0.0
 40
128.0650764641688
 41
78.85110865097444
 68
     1
 69
     1
 12
50.89172625842993
 22
32.3574773131307
 13
0.0
 23
0.0
 14
0.5
 24
0.5
 15
0.5
 25
0.5
 16
0.0
 26
0.0
 36
1.0
 17
0.0
 27
0.0
 37
0.0
 42
50.0
 43
0.0
 44
0.0
 45
78.85110865097444
 50
0.0
 51
0.0
 72
   100
 90
    32800
  1

281
     0
 71
     1
 74
     0
110
0.0
120
0.0
130
0.0
111
1.0
121
0.0
131
0.0
112
0.0
122
1.0
132
0.0
 79
     0
146
0.0
170
     0
 61
     5
348
3B06
292
     1
282
     1
141
0.0
142
0.0
 63
   250
421
  3355443
  0
VIEWPORT
  5
801
330
1B
100
AcDbEntity
 67
     1
  8
Defpoints
100
AcDbViewport
 10
8.128226426172055
 20
10.78449441835579
 30
0.0
 40
15.01067934375719
 41
20.01844399871442
 68
     2
 69
     2
 12
3.521570094889961
 22
4.8155887297466
 13
0.0
 23
0.0
 14
0.5
 24
0.5
 15
0.5
 25
0.5
 16
0.0
 26
0.0
 36
1.0
 17
0.0
 27
0.0
 37
0.0
 42
50.0
 43
0.0
 44
0.0
 45
10.00922199935721
 50
0.0
 51
0.0
 72
   100
 90
    32864
  1

281
     0
 71
     1
 74
     0
110
0.0
120
0.0
130
0.0
111
1.0
121
0.0
131
0.0
112
0.0
122
1.0
132
0.0
 79
     0
146
0.0
170
     0
 61
     5
348
3B06
292
     1
282
     1
141
0.0
142
0.0
 63
   250
421
  3355443
  0
ENDSEC
  0
SECTION
  2
OBJECTS
  0
DICTIONARY
  5
C
330
0
100
AcDbDictionary
281
     1
  3
ACAD_CIP_PREVIOUS_PRODUCT_INFO
350
3B39
  3
ACAD_COLOR
350
3B19
  3
ACAD_DETAILVIEWSTYLE
350
3B32
  3
ACAD_GROUP
350
D
  3
ACAD_IMAGE_VARS
350
D4D
  3
ACAD_LAYOUT
350
1A
  3
ACAD_MATERIAL
350
3AE7
  3
ACAD_MLEADERSTYLE
350
3B2E
  3
ACAD_MLINESTYLE
350
17
  3
ACAD_PLOTSETTINGS
350
19
  3
ACAD_PLOTSTYLENAME
350
E
  3
ACAD_SCALELIST
350
3B1C
  3
ACAD_SECTIONVIEWSTYLE
350
3B30
  3
ACAD_TABLESTYLE
350
3B1A
  3
ACAD_VISUALSTYLE
350
3B00
  3
ACDB_RECOMPOSE_DATA
350
7B02
  3
AcDbVariableDictionary
350
1C9
  3
AEC_PROPERTY_SET_DEFS
350
7928
  0
DICTIONARY
  5
3DAD
330
8
100
AcDbDictionary
280
     1
281
     1
  0
DICTIONARY
  5
3C6C
330
2
100
AcDbDictionary
280
     1
281
     1
  3
ACAD_LAYERSTATES
360
3C6D
  0
DICTIONARY
  5
3D7F
330
10
100
AcDbDictionary
280
     1
281
     1
  3
ADSK_XREC_LAYER_RECONCILED
360
3D80
  0
DICTIONARY
  5
3D81
330
1C4
100
AcDbDictionary
280
     1
281
     1
  3
ADSK_XREC_LAYER_RECONCILED
360
3D82
  0
DICTIONARY
  5
3D83
330
1C8
100
AcDbDictionary
280
     1
281
     1
  3
ADSK_XREC_LAYER_RECONCILED
360
3D84
  0
DICTIONARY
  5
3D85
330
382
100
AcDbDictionary
280
     1
281
     1
  3
ADSK_XREC_LAYER_RECONCILED
360
3D86
  0
DICTIONARY
  5
3D87
330
6C4
100
AcDbDictionary
280
     1
281
     1
  3
ADSK_XREC_LAYER_RECONCILED
360
3D88
  0
DICTIONARY
  5
742E
330
742D
100
AcDbDictionary
280
     1
281
     1
  0
DICTIONARY
  5
7920
330
791F
100
AcDbDictionary
280
     1
281
     1
  0
DICTIONARY
  5
38DC
330
1F
100
AcDbDictionary
280
     1
281
     1
  3
ACAD_SORTENTS
360
38DD
  0
DICTIONARY
  5
78D5
330
78D4
100
AcDbDictionary
280
     1
281
     1
  3
ACAD_SORTENTS
360
78D6
  0
DICTIONARY
  5
791A
330
7919
100
AcDbDictionary
280
     1
281
     1
  3
ACAD_SORTENTS
360
791B
  0
DICTIONARY
  5
795A
330
7959
100
AcDbDictionary
280
     1
281
     1
  3
ACAD_SORTENTS
360
795B
  0
XRECORD
  5
3B39
102
{ACAD_REACTORS
330
C
102
}
330
C
100
AcDbXrecord
280
     1
300
ACDLT
300
2014
300
86127INVLTS_2014_0F
  0
DICTIONARY
  5
3B19
102
{ACAD_REACTORS
330
C
102
}
330
C
100
AcDbDictionary
281
     1
  0
DICTIONARY
  5
3B32
102
{ACAD_REACTORS
330
C
102
}
330
C
100
AcDbDictionary
281
     1
  3
Imperial24
350
3B33
  0
DICTIONARY
  5
D
102
{ACAD_REACTORS
330
C
102
}
330
C
100
AcDbDictionary
281
     1
  0
RASTERVARIABLES
  5
D4D
102
{ACAD_REACTORS
330
C
102
}
330
C
100
AcDbRasterVariables
 90
        0
 70
     1
 71
     1
 72
     5
  0
DICTIONARY
  5
1A
102
{ACAD_REACTORS
330
C
102
}
330
C
100
AcDbDictionary
281
     1
  3
Layout1
350
1E
  3
Layout2
350
26
  3
Model
350
22
  0
DICTIONARY
  5
3AE7
102
{ACAD_REACTORS
330
C
102
}
330
C
100
AcDbDictionary
281
     1
  3
ByBlock
350
3AF0
  3
ByLayer
350
3AE8
  3
Global
350
3AF8
  0
DICTIONARY
  5
3B2E
102
{ACAD_REACTORS
330
C
102
}
330
C
100
AcDbDictionary
281
     1
  3
Standard
350
3B2F
  0
DICTIONARY
  5
17
102
{ACAD_REACTORS
330
C
102
}
330
C
100
AcDbDictionary
281
     1
  3
Standard
350
18
  0
DICTIONARY
  5
19
102
{ACAD_REACTORS
330
C
102
}
330
C
100
AcDbDictionary
281
     1
  0
ACDBDICTIONARYWDFLT
  5
E
102
{ACAD_REACTORS
330
C
102
}
330
C
100
AcDbDictionary
281
     1
  3
Normal
350
F
100
AcDbDictionaryWithDefault
340
F
  0
DICTIONARY
  5
3B1C
102
{ACAD_REACTORS
330
C
102
}
330
C
100
AcDbDictionary
281
     1
  3
A0
350
3B1D
  3
A1
350
3B1E
  3
A2
350
3B1F
  3
A3
350
3B20
  3
A4
350
3B21
  3
A5
350
3B22
  3
A6
350
3B23
  3
A7
350
3B24
  3
A8
350
3B25
  3
A9
350
3B26
  3
B0
350
3B27
  3
B1
350
3B28
  3
B2
350
3B29
  3
B3
350
3B2A
  3
B4
350
3B2B
  3
B5
350
3B2C
  3
B6
350
3B2D
  0
DICTIONARY
  5
3B30
102
{ACAD_REACTORS
330
C
102
}
330
C
100
AcDbDictionary
281
     1
  3
Imperial24
350
3B31
  0
DICTIONARY
  5
3B1A
102
{ACAD_REACTORS
330
C
102
}
330
C
100
AcDbDictionary
281
     1
  3
Standard
350
3B1B
  0
DICTIONARY
  5
3B00
102
{ACAD_REACTORS
330
C
102
}
330
C
100
AcDbDictionary
281
     1
  3
2dWireframe
350
3B06
  3
Basic
350
3B05
  3
Brighten
350
3B0C
  3
ColorChange
350
3B10
  3
Conceptual
350
3B09
  3
Dim
350
3B0B
  3
EdgeColorOff
350
3B18
  3
Facepattern
350
3B0F
  3
Flat
350
3B01
  3
FlatWithEdges
350
3B02
  3
Gouraud
350
3B03
  3
GouraudWithEdges
350
3B04
  3
Hidden
350
3B08
  3
JitterOff
350
3B16
  3
Linepattern
350
3B0E
  3
OverhangOff
350
3B17
  3
Realistic
350
3B0A
  3
Shaded
350
3B15
  3
Shaded with edges
350
3B14
  3
Shades of Gray
350
3B11
  3
Sketchy
350
3B12
  3
Thicken
350
3B0D
  3
Wireframe
350
3B07
  3
X-Ray
350
3B13
  0
XRECORD
  5
7B02
102
{ACAD_REACTORS
330
C
102
}
330
C
100
AcDbXrecord
280
     1
 90
        1
330
3B1B
  0
DICTIONARY
  5
1C9
102
{ACAD_REACTORS
330
C
102
}
330
C
100
AcDbDictionary
281
     1
  3
CANNOSCALE
350
3DFC
  3
CMLEADERSTYLE
350
3DF9
  3
CTABLESTYLE
350
3DF8
  3
CVIEWDETAILSTYLE
350
3DFA
  3
CVIEWSECTIONSTYLE
350
3DFB
  3
DIMASSOC
350
3DFE
  3
INDEXCTL
350
3DFD
  3
LAYEREVAL
350
7AF3
  3
LAYERNOTIFY
350
7AF4
  3
LIGHTINGUNITS
350
7AF2
  3
MSLTSCALE
350
7AF1
  3
SORTENTS
350
1CA
  3
XCLIPFRAME
350
7B00
  0
DICTIONARY
  5
7928
102
{ACAD_REACTORS
330
C
102
}
330
C
100
AcDbDictionary
281
     1
  0
DICTIONARY
  5
3C6D
102
{ACAD_REACTORS
330
3C6C
102
}
330
3C6C
100
AcDbDictionary
281
     1
  0
XRECORD
  5
3D80
102
{ACAD_REACTORS
330
3D7F
102
}
330
3D7F
100
AcDbXrecord
280
     1
290
     1
  0
XRECORD
  5
3D82
102
{ACAD_REACTORS
330
3D81
102
}
330
3D81
100
AcDbXrecord
280
     1
290
     1
  0
XRECORD
  5
3D84
102
{ACAD_REACTORS
330
3D83
102
}
330
3D83
100
AcDbXrecord
280
     1
290
     1
  0
XRECORD
  5
3D86
102
{ACAD_REACTORS
330
3D85
102
}
330
3D85
100
AcDbXrecord
280
     1
290
     1
  0
XRECORD
  5
3D88
102
{ACAD_REACTORS
330
3D87
102
}
330
3D87
100
AcDbXrecord
280
     1
290
     1
  0
SORTENTSTABLE
  5
38DD
102
{ACAD_REACTORS
330
38DC
102
}
330
38DC
100
AcDbSortentsTable
330
1F
331
730B
  5
730B
331
76A1
  5
792B
331
7A61
  5
74E9
331
7489
  5
76A1
331
76AB
  5
76A0
331
493
  5
47A1
331
730A
  5
730A
331
74E9
  5
76B0
331
74C2
  5
76AB
331
76A0
  5
792A
331
7686
  5
74F9
331
1A55
  5
5D2E
331
792B
  5
7A47
331
7A45
  5
7A49
331
7821
  5
7686
331
74D1
  5
76AE
331
7309
  5
7309
331
AAD
  5
5D2D
331
792A
  5
7A45
  0
SORTENTSTABLE
  5
78D6
102
{ACAD_REACTORS
330
78D5
102
}
330
78D5
100
AcDbSortentsTable
330
78D4
  0
SORTENTSTABLE
  5
791B
102
{ACAD_REACTORS
330
791A
102
}
330
791A
100
AcDbSortentsTable
330
7919
  0
SORTENTSTABLE
  5
795B
102
{ACAD_REACTORS
330
795A
102
}
330
795A
100
AcDbSortentsTable
330
7959
  0
ACDBDETAILVIEWSTYLE
  5
3B33
102
{ACAD_XDICTIONARY
360
7B37
102
}
102
{ACAD_REACTORS
330
3B32
102
}
330
3B32
100
AcDbModelDocViewStyle
 70
     0
  3
Imperial24
290
     0
100
AcDbDetailViewStyle
 70
     0
 71
     0
 90
        3
 71
     1
340
11
 62
   256
 40
0.24
340
0
 62
   256
 40
0.24
300

 40
0.36
280
     3
 71
     2
340
16
 90
       25
 62
   256
 71
     3
340
11
 62
   256
 40
0.24
 90
        1
 40
0.75
 90
        1
300
%<\AcVar ViewType \f "%tc1">% %<\AcVar ViewDetailId>%\PSCALE %<\AcVar ViewScale \f "%sn">%
 71
     4
340
16
 90
       25
 62
   256
340
16
 90
       25
 62
   256
280
     0
  0
LAYOUT
  5
1E
102
{ACAD_REACTORS
330
1A
102
}
330
1A
100
AcDbPlotSettings
  1

  2
HP LaserJet 2100 Series PS
  4
Letter
  6

 40
5.365749835968017
 41
5.386905193328857
 42
5.386917114257812
 43
5.365753173828125
 44
215.8999938964844
 45
279.3999938964844
 46
0.0
 47
0.0
 48
0.0
 49
0.0
140
0.0
141
0.0
142
1.0
143
2.0
 70
   688
 72
     0
 73
     0
 74
     5
  7
Zero.ctb
 75
    17
147
0.5
 76
     0
 77
     2
 78
   300
148
0.0
149
0.0
100
AcDbLayout
  1
Layout1
 70
     1
 71
     1
 10
-0.4224999870840959
 20
-0.4241657632542407
 11
16.57749953232412
 21
21.57583375615398
 12
0.0
 22
0.0
 32
0.0
 14
0.6223608640189156
 24
0.7752666362099987
 34
-0.0015258207003583
 15
15.63380452912571
 25
20.79433968291374
 35
0.0000000349246037
146
0.0
 13
0.0
 23
0.0
 33
0.0
 16
1.0
 26
0.0
 36
0.0
 17
0.0
 27
1.0
 37
0.0
 76
     0
330
1B
331
7FF
  0
LAYOUT
  5
26
102
{ACAD_REACTORS
330
1A
102
}
330
1A
100
AcDbPlotSettings
  1

  2
Canon MultiPASS L6000 Printer
  4
Letter
  6

 40
4.773083209991455
 41
8.244421005249023
 42
4.857742309570312
 43
3.17498779296875
 44
215.8999938964844
 45
279.3999938964844
 46
0.0
 47
0.0
 48
0.0
 49
0.0
140
0.0
141
0.0
142
1.0
143
1.0
 70
   688
 72
     0
 73
     1
 74
     5
  7
Zero.ctb
 75
    16
147
1.0
 76
     0
 77
     2
 78
   300
148
0.0
149
0.0
100
AcDbLayout
  1
Layout2
 70
     1
 71
     2
 10
-0.1249995194082185
 20
-0.1879166618106872
 11
10.87500024029589
 21
8.31208309789342
 12
0.0
 22
0.0
 32
0.0
 14
1.055041673615223
 24
0.812083340066624
 34
0.0
 15
9.495375062537004
 25
7.308750060599618
 35
0.0
146
0.0
 13
0.0
 23
0.0
 33
0.0
 16
1.0
 26
0.0
 36
0.0
 17
0.0
 27
1.0
 37
0.0
 76
     0
330
23
331
6B4
  0
LAYOUT
  5
22
102
{ACAD_XDICTIONARY
360
7AB9
102
}
102
{ACAD_REACTORS
330
1A
102
}
330
1A
100
AcDbPlotSettings
  1

  2
HP LaserJet P3011/P3015 PCL6 Class Driver
  4
Letter
  6

 40
6.805083274841308
 41
5.027099609375
 42
6.805068969726562
 43
5.027069091796875
 44
215.8999938964844
 45
279.3999938964844
 46
13.03867082595814
 47
14.02291259765634
 48
0.0
 49
0.0
140
6.937500000000008
141
9.499999999999992
142
1.0
143
1.0
 70
 11940
 72
     0
 73
     0
 74
     4
  7
Zero.ctb
 75
     0
147
0.8548245684911842
 76
     0
 77
     2
 78
   300
148
0.0
149
0.0
100
AcDbLayout
  1
Model
 70
     1
 71
     0
 10
0.0
 20
0.0
 11
12.0
 21
9.0
 12
0.0
 22
0.0
 32
0.0
 14
0.0
 24
0.0
 34
0.0
 15
0.0
 25
0.0
 35
0.0
146
0.0
 13
0.0
 23
0.0
 33
0.0
 16
1.0
 26
0.0
 36
0.0
 17
0.0
 27
1.0
 37
0.0
 76
     0
330
1F
331
3AE5
1001
ACAD_PSEXT
1000
HP LaserJet P3011/P3015 PCL6 Class Driver
1000
HP LaserJet P3011/P3015 PCL6 Class Driver
1000
192.168.1.40
1000

1070
     0
  0
MATERIAL
  5
3AF0
102
{ACAD_XDICTIONARY
360
3AF1
102
}
102
{ACAD_REACTORS
330
3AE7
102
}
330
3AE7
100
AcDbMaterial
  1
ByBlock
 72
     0
 43
0.0208333333333333
 43
0.0
 43
0.0
 43
0.0
 43
0.0
 43
0.0208333333333333
 43
0.0
 43
0.0
 43
0.0
 43
0.0
 43
1.0
 43
0.0
 43
0.0
 43
0.0
 43
0.0
 43
1.0
 77
     0
 47
0.0208333333333333
 47
0.0
 47
0.0
 47
0.0
 47
0.0
 47
0.0208333333333333
 47
0.0
 47
0.0
 47
0.0
 47
0.0
 47
1.0
 47
0.0
 47
0.0
 47
0.0
 47
0.0
 47
1.0
171
     0
 49
0.0208333333333333
 49
0.0
 49
0.0
 49
0.0
 49
0.0
 49
0.0208333333333333
 49
0.0
 49
0.0
 49
0.0
 49
0.0
 49
1.0
 49
0.0
 49
0.0
 49
0.0
 49
0.0
 49
1.0
175
     0
142
0.0208333333333333
142
0.0
142
0.0
142
0.0
142
0.0
142
0.0208333333333333
142
0.0
142
0.0
142
0.0
142
0.0
142
1.0
142
0.0
142
0.0
142
0.0
142
0.0
142
1.0
179
     0
144
0.0208333333333333
144
0.0
144
0.0
144
0.0
144
0.0
144
0.0208333333333333
144
0.0
144
0.0
144
0.0
144
0.0
144
1.0
144
0.0
144
0.0
144
0.0
144
0.0
144
1.0
147
0.0208333333333333
147
0.0
147
0.0
147
0.0
147
0.0
147
0.0208333333333333
147
0.0
147
0.0
147
0.0
147
0.0
147
1.0
147
0.0
147
0.0
147
0.0
147
0.0
147
1.0
  0
MATERIAL
  5
3AE8
102
{ACAD_XDICTIONARY
360
3AE9
102
}
102
{ACAD_REACTORS
330
3AE7
102
}
330
3AE7
100
AcDbMaterial
  1
ByLayer
 72
     0
 43
0.0208333333333333
 43
0.0
 43
0.0
 43
0.0
 43
0.0
 43
0.0208333333333333
 43
0.0
 43
0.0
 43
0.0
 43
0.0
 43
1.0
 43
0.0
 43
0.0
 43
0.0
 43
0.0
 43
1.0
 77
     0
 47
0.0208333333333333
 47
0.0
 47
0.0
 47
0.0
 47
0.0
 47
0.0208333333333333
 47
0.0
 47
0.0
 47
0.0
 47
0.0
 47
1.0
 47
0.0
 47
0.0
 47
0.0
 47
0.0
 47
1.0
171
     0
 49
0.0208333333333333
 49
0.0
 49
0.0
 49
0.0
 49
0.0
 49
0.0208333333333333
 49
0.0
 49
0.0
 49
0.0
 49
0.0
 49
1.0
 49
0.0
 49
0.0
 49
0.0
 49
0.0
 49
1.0
175
     0
142
0.0208333333333333
142
0.0
142
0.0
142
0.0
142
0.0
142
0.0208333333333333
142
0.0
142
0.0
142
0.0
142
0.0
142
1.0
142
0.0
142
0.0
142
0.0
142
0.0
142
1.0
179
     0
144
0.0208333333333333
144
0.0
144
0.0
144
0.0
144
0.0
144
0.0208333333333333
144
0.0
144
0.0
144
0.0
144
0.0
144
1.0
144
0.0
144
0.0
144
0.0
144
0.0
144
1.0
147
0.0208333333333333
147
0.0
147
0.0
147
0.0
147
0.0
147
0.0208333333333333
147
0.0
147
0.0
147
0.0
147
0.0
147
1.0
147
0.0
147
0.0
147
0.0
147
0.0
147
1.0
  0
MATERIAL
  5
3AF8
102
{ACAD_XDICTIONARY
360
3AF9
102
}
102
{ACAD_REACTORS
330
3AE7
102
}
330
3AE7
100
AcDbMaterial
  1
Global
 72
     0
 43
0.0208333333333333
 43
0.0
 43
0.0
 43
0.0
 43
0.0
 43
0.0208333333333333
 43
0.0
 43
0.0
 43
0.0
 43
0.0
 43
1.0
 43
0.0
 43
0.0
 43
0.0
 43
0.0
 43
1.0
 77
     0
 47
0.0208333333333333
 47
0.0
 47
0.0
 47
0.0
 47
0.0
 47
0.0208333333333333
 47
0.0
 47
0.0
 47
0.0
 47
0.0
 47
1.0
 47
0.0
 47
0.0
 47
0.0
 47
0.0
 47
1.0
171
     0
 49
0.0208333333333333
 49
0.0
 49
0.0
 49
0.0
 49
0.0
 49
0.0208333333333333
 49
0.0
 49
0.0
 49
0.0
 49
0.0
 49
1.0
 49
0.0
 49
0.0
 49
0.0
 49
0.0
 49
1.0
175
     0
142
0.0208333333333333
142
0.0
142
0.0
142
0.0
142
0.0
142
0.0208333333333333
142
0.0
142
0.0
142
0.0
142
0.0
142
1.0
142
0.0
142
0.0
142
0.0
142
0.0
142
1.0
179
     0
144
0.0208333333333333
144
0.0
144
0.0
144
0.0
144
0.0
144
0.0208333333333333
144
0.0
144
0.0
144
0.0
144
0.0
144
1.0
144
0.0
144
0.0
144
0.0
144
0.0
144
1.0
147
0.0208333333333333
147
0.0
147
0.0
147
0.0
147
0.0
147
0.0208333333333333
147
0.0
147
0.0
147
0.0
147
0.0
147
1.0
147
0.0
147
0.0
147
0.0
147
0.0
147
1.0
  0
MLEADERSTYLE
  5
3B2F
102
{ACAD_XDICTIONARY
360
7B33
102
}
102
{ACAD_REACTORS
330
3B2E
102
}
330
3B2E
100
AcDbMLeaderStyle
170
     2
171
     1
172
     0
 90
        2
 40
0.0
 41
0.0
173
     1
 91
-1056964608
340
14
 92
       -2
290
     1
 42
0.09
291
     1
 43
0.36
  3
Standard
 44
0.18
300

342
11
174
     1
178
     6
175
     1
176
     0
 93
-1056964608
 45
0.18
292
     0
297
     0
 46
0.18
 94
-1056964608
 47
1.0
 49
1.0
140
1.0
293
     1
141
0.0
294
     1
177
     0
142
1.0
295
     0
296
     0
143
0.125
1001
ACAD_MLEADERVER
1070
     2
  0
MLINESTYLE
  5
18
102
{ACAD_REACTORS
330
17
102
}
330
17
100
AcDbMlineStyle
  2
STANDARD
 70
     0
  3

 62
   256
 51
90.0
 52
90.0
 71
     2
 49
0.5
 62
   256
  6
BYLAYER
 49
-0.5
 62
   256
  6
BYLAYER
  0
ACDBPLACEHOLDER
  5
F
102
{ACAD_REACTORS
330
E
102
}
330
E
  0
SCALE
  5
3B1D
102
{ACAD_REACTORS
330
3B1C
102
}
330
3B1C
100
AcDbScale
 70
     0
300
1:1
140
1.0
141
1.0
290
     1
  0
SCALE
  5
3B1E
102
{ACAD_REACTORS
330
3B1C
102
}
330
3B1C
100
AcDbScale
 70
     0
300
1/128" = 1'-0"
140
0.0078125
141
12.0
290
     0
  0
SCALE
  5
3B1F
102
{ACAD_REACTORS
330
3B1C
102
}
330
3B1C
100
AcDbScale
 70
     0
300
1/64" = 1'-0"
140
0.015625
141
12.0
290
     0
  0
SCALE
  5
3B20
102
{ACAD_REACTORS
330
3B1C
102
}
330
3B1C
100
AcDbScale
 70
     0
300
1/32" = 1'-0"
140
0.03125
141
12.0
290
     0
  0
SCALE
  5
3B21
102
{ACAD_REACTORS
330
3B1C
102
}
330
3B1C
100
AcDbScale
 70
     0
300
1/16" = 1'-0"
140
0.0625
141
12.0
290
     0
  0
SCALE
  5
3B22
102
{ACAD_REACTORS
330
3B1C
102
}
330
3B1C
100
AcDbScale
 70
     0
300
3/32" = 1'-0"
140
0.09375
141
12.0
290
     0
  0
SCALE
  5
3B23
102
{ACAD_REACTORS
330
3B1C
102
}
330
3B1C
100
AcDbScale
 70
     0
300
1/8" = 1'-0"
140
0.125
141
12.0
290
     0
  0
SCALE
  5
3B24
102
{ACAD_REACTORS
330
3B1C
102
}
330
3B1C
100
AcDbScale
 70
     0
300
3/16" = 1'-0"
140
0.1875
141
12.0
290
     0
  0
SCALE
  5
3B25
102
{ACAD_REACTORS
330
3B1C
102
}
330
3B1C
100
AcDbScale
 70
     0
300
1/4" = 1'-0"
140
0.25
141
12.0
290
     0
  0
SCALE
  5
3B26
102
{ACAD_REACTORS
330
3B1C
102
}
330
3B1C
100
AcDbScale
 70
     0
300
3/8" = 1'-0"
140
0.375
141
12.0
290
     0
  0
SCALE
  5
3B27
102
{ACAD_REACTORS
330
3B1C
102
}
330
3B1C
100
AcDbScale
 70
     0
300
1/2" = 1'-0"
140
0.5
141
12.0
290
     0
  0
SCALE
  5
3B28
102
{ACAD_REACTORS
330
3B1C
102
}
330
3B1C
100
AcDbScale
 70
     0
300
3/4" = 1'-0"
140
0.75
141
12.0
290
     0
  0
SCALE
  5
3B29
102
{ACAD_REACTORS
330
3B1C
102
}
330
3B1C
100
AcDbScale
 70
     0
300
1" = 1'-0"
140
1.0
141
12.0
290
     0
  0
SCALE
  5
3B2A
102
{ACAD_REACTORS
330
3B1C
102
}
330
3B1C
100
AcDbScale
 70
     0
300
1-1/2" = 1'-0"
140
1.5
141
12.0
290
     0
  0
SCALE
  5
3B2B
102
{ACAD_REACTORS
330
3B1C
102
}
330
3B1C
100
AcDbScale
 70
     0
300
3" = 1'-0"
140
3.0
141
12.0
290
     0
  0
SCALE
  5
3B2C
102
{ACAD_REACTORS
330
3B1C
102
}
330
3B1C
100
AcDbScale
 70
     0
300
6" = 1'-0"
140
6.0
141
12.0
290
     0
  0
SCALE
  5
3B2D
102
{ACAD_REACTORS
330
3B1C
102
}
330
3B1C
100
AcDbScale
 70
     0
300
1'-0" = 1'-0"
140
12.0
141
12.0
290
     0
  0
ACDBSECTIONVIEWSTYLE
  5
3B31
102
{ACAD_XDICTIONARY
360
7B35
102
}
102
{ACAD_REACTORS
330
3B30
102
}
330
3B30
100
AcDbModelDocViewStyle
 70
     0
  3
Imperial24
290
     0
100
AcDbSectionViewStyle
 70
     0
 71
     0
 90
       78
 71
     1
340
11
 62
   256
 40
0.24
340
0
340
0
 62
   256
 40
0.24
300
I, O, Q, S, X, Z
 40
0.48
 90
        3
 40
0.18
 90
        1
 71
     2
340
16
 90
       25
 62
   256
340
16
 90
       50
 62
   256
 40
0.24
 40
0.0
 40
0.24
 71
     3
340
11
 62
   256
 40
0.24
 90
        1
 40
0.75
 90
        1
300
%<\AcVar ViewType \f "%tc1">% %<\AcVar ViewSectionStartId>%-%<\AcVar ViewSectionEndId>%\PSCALE %<\AcVar ViewScale \f "%sn">%
 71
     4
 62
   256
 62
   257
300
ANSI31
 40
1.0
 90
        0
290
     0
290
     0
 90
        6
 40
0.0
 40
1.570796326794896
 40
0.2617993877991494
 40
1.308996938995747
 40
-0.2617993877991494
 40
1.832595714594046
  0
TABLESTYLE
  5
3B1B
102
{ACAD_XDICTIONARY
360
3DA9
102
}
102
{ACAD_REACTORS
330
3B1A
102
}
330
3B1A
100
AcDbTableStyle
  3
Standard
 70
     0
 71
     0
 40
0.06
 41
0.06
280
     0
281
     0
  7
Standard
140
0.18
170
     2
 62
     0
 63
     7
283
     0
 90
      512
 91
        0
  1

274
    -2
284
     1
 64
     0
275
    -2
285
     1
 65
     0
276
    -2
286
     1
 66
     0
277
    -2
287
     1
 67
     0
278
    -2
288
     1
 68
     0
279
    -2
289
     1
 69
     0
  7
Standard
140
0.25
170
     5
 62
     0
 63
     7
283
     0
 90
      512
 91
        0
  1

274
    -2
284
     1
 64
     0
275
    -2
285
     1
 65
     0
276
    -2
286
     1
 66
     0
277
    -2
287
     1
 67
     0
278
    -2
288
     1
 68
     0
279
    -2
289
     1
 69
     0
  7
Standard
140
0.18
170
     5
 62
     0
 63
     7
283
     0
 90
      512
 91
        0
  1

274
    -2
284
     1
 64
     0
275
    -2
285
     1
 65
     0
276
    -2
286
     1
 66
     0
277
    -2
287
     1
 67
     0
278
    -2
288
     1
 68
     0
279
    -2
289
     1
 69
     0
  0
VISUALSTYLE
  5
3B06
102
{ACAD_XDICTIONARY
360
7B0D
102
}
102
{ACAD_REACTORS
330
3B00
102
}
330
3B00
100
AcDbVisualStyle
  2
2dWireframe
 70
     4
 71
     0
 72
     2
 73
     0
 90
        0
 40
-0.6
 41
-30.0
 62
     5
 63
     7
 74
     1
 91
        4
 64
     7
 65
   257
 75
     1
175
     1
 42
1.0
 92
        0
 66
   257
 43
1.0
 76
     1
 77
     6
 78
     2
 67
     7
 79
     5
170
     0
171
     0
290
     0
174
     0
 93
        1
 44
0.0
173
     0
291
     0
 45
0.0
1001
ACAD
1000
AcDbSavedByObjectVersion
1070
     0
  0
VISUALSTYLE
  5
3B05
102
{ACAD_XDICTIONARY
360
7B0B
102
}
102
{ACAD_REACTORS
330
3B00
102
}
330
3B00
100
AcDbVisualStyle
  2
Basic
 70
     7
 71
     1
 72
     0
 73
     1
 90
        0
 40
-0.6
 41
-30.0
 62
     5
 63
     7
 74
     0
 91
        4
 64
     7
 65
   257
 75
     1
175
     1
 42
1.0
 92
        8
 66
     7
 43
1.0
 76
     1
 77
     6
 78
     2
 67
     7
 79
     5
170
     0
171
     0
290
     0
174
     0
 93
        1
 44
0.0
173
     0
291
     1
 45
0.0
1001
ACAD
1000
AcDbSavedByObjectVersion
1070
     0
  0
VISUALSTYLE
  5
3B0C
102
{ACAD_XDICTIONARY
360
7B19
102
}
102
{ACAD_REACTORS
330
3B00
102
}
330
3B00
100
AcDbVisualStyle
  2
Brighten
 70
    12
 71
     2
 72
     2
 73
     0
 90
        0
 40
-0.6
 41
-30.0
 62
     5
 63
     7
 74
     1
 91
        4
 64
     7
 65
   257
 75
     1
175
     1
 42
1.0
 92
        8
 66
     7
 43
1.0
 76
     1
 77
     6
 78
     2
 67
     7
 79
     5
170
     0
171
     0
290
     0
174
     0
 93
        1
 44
50.0
173
     0
291
     1
 45
0.0
1001
ACAD
1000
AcDbSavedByObjectVersion
1070
     0
  0
VISUALSTYLE
  5
3B10
102
{ACAD_XDICTIONARY
360
7B21
102
}
102
{ACAD_REACTORS
330
3B00
102
}
330
3B00
100
AcDbVisualStyle
  2
ColorChange
 70
    16
 71
     2
 72
     2
 73
     3
 90
        0
 40
-0.6
 41
-30.0
 62
     5
 63
     8
 74
     1
 91
        4
 64
     7
 65
   257
 75
     1
175
     1
 42
1.0
 92
        8
 66
     8
 43
1.0
 76
     1
 77
     6
 78
     2
 67
     7
 79
     5
170
     0
171
     0
290
     0
174
     0
 93
        1
 44
0.0
173
     0
291
     1
 45
0.0
1001
ACAD
1000
AcDbSavedByObjectVersion
1070
     0
  0
VISUALSTYLE
  5
3B09
102
{ACAD_XDICTIONARY
360
7B13
102
}
102
{ACAD_REACTORS
330
3B00
102
}
330
3B00
100
AcDbVisualStyle
  2
Conceptual
 70
     9
 71
     3
 72
     2
 73
     0
 90
        0
 40
-0.6
 41
-30.0
 62
     5
 63
     7
 74
     2
 91
        2
 64
     7
 65
   257
 75
     1
175
     1
 42
179.0
 92
        8
 66
     7
 43
1.0
 76
     1
 77
     6
 78
     2
 67
     7
 79
     3
170
     0
171
     0
290
     0
174
     0
 93
        1
 44
0.0
173
     0
291
     0
 45
0.0
1001
ACAD
1000
AcDbSavedByObjectVersion
1070
     0
  0
VISUALSTYLE
  5
3B0B
102
{ACAD_XDICTIONARY
360
7B17
102
}
102
{ACAD_REACTORS
330
3B00
102
}
330
3B00
100
AcDbVisualStyle
  2
Dim
 70
    11
 71
     2
 72
     2
 73
     0
 90
        0
 40
-0.6
 41
-30.0
 62
     5
 63
     7
 74
     1
 91
        4
 64
     7
 65
   257
 75
     1
175
     1
 42
1.0
 92
        8
 66
     7
 43
1.0
 76
     1
 77
     6
 78
     2
 67
     7
 79
     5
170
     0
171
     0
290
     0
174
     0
 93
        1
 44
-50.0
173
     0
291
     1
 45
0.0
1001
ACAD
1000
AcDbSavedByObjectVersion
1070
     0
  0
VISUALSTYLE
  5
3B18
102
{ACAD_XDICTIONARY
360
7B31
102
}
102
{ACAD_REACTORS
330
3B00
102
}
330
3B00
100
AcDbVisualStyle
  2
EdgeColorOff
 70
    22
 71
     2
 72
     2
 73
     0
 90
        0
 40
-0.6
 41
-30.0
 62
     5
 63
     7
 74
     1
 91
        4
 64
     7
 65
   257
 75
     1
175
     1
 42
1.0
 92
        8
 66
     7
 43
1.0
 76
     1
 77
     6
 78
     2
 67
     7
 79
     5
170
     0
171
     0
290
     0
174
     0
 93
        1
 44
0.0
173
     0
291
     1
 45
0.0
1001
ACAD
1000
AcDbSavedByObjectVersion
1070
     0
  0
VISUALSTYLE
  5
3B0F
102
{ACAD_XDICTIONARY
360
7B1F
102
}
102
{ACAD_REACTORS
330
3B00
102
}
330
3B00
100
AcDbVisualStyle
  2
Facepattern
 70
    15
 71
     2
 72
     2
 73
     0
 90
        0
 40
-0.6
 41
-30.0
 62
     5
 63
     7
 74
     1
 91
        4
 64
     7
 65
   257
 75
     1
175
     1
 42
1.0
 92
        8
 66
     7
 43
1.0
 76
     1
 77
     6
 78
     2
 67
     7
 79
     5
170
     0
171
     0
290
     0
174
     0
 93
        1
 44
0.0
173
     0
291
     1
 45
0.0
1001
ACAD
1000
AcDbSavedByObjectVersion
1070
     0
  0
VISUALSTYLE
  5
3B01
102
{ACAD_XDICTIONARY
360
7B03
102
}
102
{ACAD_REACTORS
330
3B00
102
}
330
3B00
100
AcDbVisualStyle
  2
Flat
 70
     0
 71
     2
 72
     1
 73
     1
 90
        2
 40
-0.6
 41
30.0
 62
     5
 63
     7
 74
     0
 91
        0
 64
     7
 65
   257
 75
     1
175
     1
 42
1.0
 92
        8
 66
     7
 43
1.0
 76
     1
 77
     6
 78
     2
 67
     7
 79
     5
170
     0
171
     0
290
     0
174
     0
 93
       13
 44
0.0
173
     0
291
     1
 45
0.0
1001
ACAD
1000
AcDbSavedByObjectVersion
1070
     0
  0
VISUALSTYLE
  5
3B02
102
{ACAD_XDICTIONARY
360
7B05
102
}
102
{ACAD_REACTORS
330
3B00
102
}
330
3B00
100
AcDbVisualStyle
  2
FlatWithEdges
 70
     1
 71
     2
 72
     1
 73
     1
 90
        2
 40
-0.6
 41
30.0
 62
     5
 63
     7
 74
     1
 91
        0
 64
     7
 65
   257
 75
     1
175
     1
 42
1.0
 92
        0
 66
   257
 43
1.0
 76
     1
 77
     6
 78
     2
 67
     7
 79
     5
170
     0
171
     0
290
     0
174
     0
 93
       13
 44
0.0
173
     0
291
     1
 45
0.0
1001
ACAD
1000
AcDbSavedByObjectVersion
1070
     0
  0
VISUALSTYLE
  5
3B03
102
{ACAD_XDICTIONARY
360
7B07
102
}
102
{ACAD_REACTORS
330
3B00
102
}
330
3B00
100
AcDbVisualStyle
  2
Gouraud
 70
     2
 71
     2
 72
     2
 73
     1
 90
        2
 40
-0.6
 41
30.0
 62
     5
 63
     7
 74
     0
 91
        0
 64
     7
 65
   257
 75
     1
175
     1
 42
1.0
 92
        0
 66
     7
 43
1.0
 76
     1
 77
     6
 78
     2
 67
     7
 79
     5
170
     0
171
     0
290
     0
174
     0
 93
       13
 44
0.0
173
     0
291
     1
 45
0.0
1001
ACAD
1000
AcDbSavedByObjectVersion
1070
     0
  0
VISUALSTYLE
  5
3B04
102
{ACAD_XDICTIONARY
360
7B09
102
}
102
{ACAD_REACTORS
330
3B00
102
}
330
3B00
100
AcDbVisualStyle
  2
GouraudWithEdges
 70
     3
 71
     2
 72
     2
 73
     1
 90
        2
 40
-0.6
 41
30.0
 62
     5
 63
     7
 74
     1
 91
        0
 64
     7
 65
   257
 75
     1
175
     1
 42
1.0
 92
        0
 66
   257
 43
1.0
 76
     1
 77
     6
 78
     2
 67
     7
 79
     5
170
     0
171
     0
290
     0
174
     0
 93
       13
 44
0.0
173
     0
291
     1
 45
0.0
1001
ACAD
1000
AcDbSavedByObjectVersion
1070
     0
  0
VISUALSTYLE
  5
3B08
102
{ACAD_XDICTIONARY
360
7B11
102
}
102
{ACAD_REACTORS
330
3B00
102
}
330
3B00
100
AcDbVisualStyle
  2
Hidden
 70
     6
 71
     1
 72
     2
 73
     2
 90
        0
 40
-0.6
 41
-30.0
 62
     5
 63
     7
 74
     2
 91
        2
 64
     7
 65
   257
 75
     2
175
     1
 42
40.0
 92
        0
 66
   257
 43
1.0
 76
     1
 77
     6
 78
     2
 67
     7
 79
     3
170
     0
171
     0
290
     0
174
     0
 93
        1
 44
0.0
173
     0
291
     0
 45
0.0
1001
ACAD
1000
AcDbSavedByObjectVersion
1070
     0
  0
VISUALSTYLE
  5
3B16
102
{ACAD_XDICTIONARY
360
7B2D
102
}
102
{ACAD_REACTORS
330
3B00
102
}
330
3B00
100
AcDbVisualStyle
  2
JitterOff
 70
    20
 71
     2
 72
     2
 73
     0
 90
        0
 40
-0.6
 41
-30.0
 62
     5
 63
     7
 74
     1
 91
        4
 64
     7
 65
   257
 75
     1
175
     1
 42
1.0
 92
       10
 66
     7
 43
1.0
 76
     1
 77
     6
 78
     2
 67
     7
 79
     5
170
     0
171
     0
290
     0
174
     0
 93
        1
 44
0.0
173
     0
291
     1
 45
0.0
1001
ACAD
1000
AcDbSavedByObjectVersion
1070
     0
  0
VISUALSTYLE
  5
3B0E
102
{ACAD_XDICTIONARY
360
7B1D
102
}
102
{ACAD_REACTORS
330
3B00
102
}
330
3B00
100
AcDbVisualStyle
  2
Linepattern
 70
    14
 71
     2
 72
     2
 73
     0
 90
        0
 40
-0.6
 41
-30.0
 62
     5
 63
     7
 74
     1
 91
        4
 64
     7
 65
   257
 75
     7
175
     7
 42
1.0
 92
        8
 66
     7
 43
1.0
 76
     1
 77
     6
 78
     2
 67
     7
 79
     5
170
     0
171
     0
290
     0
174
     0
 93
        1
 44
0.0
173
     0
291
     1
 45
0.0
1001
ACAD
1000
AcDbSavedByObjectVersion
1070
     0
  0
VISUALSTYLE
  5
3B17
102
{ACAD_XDICTIONARY
360
7B2F
102
}
102
{ACAD_REACTORS
330
3B00
102
}
330
3B00
100
AcDbVisualStyle
  2
OverhangOff
 70
    21
 71
     2
 72
     2
 73
     0
 90
        0
 40
-0.6
 41
-30.0
 62
     5
 63
     7
 74
     1
 91
        4
 64
     7
 65
   257
 75
     1
175
     1
 42
1.0
 92
        9
 66
     7
 43
1.0
 76
     1
 77
     6
 78
     2
 67
     7
 79
     5
170
     0
171
     0
290
     0
174
     0
 93
        1
 44
0.0
173
     0
291
     1
 45
0.0
1001
ACAD
1000
AcDbSavedByObjectVersion
1070
     0
  0
VISUALSTYLE
  5
3B0A
102
{ACAD_XDICTIONARY
360
7B15
102
}
102
{ACAD_REACTORS
330
3B00
102
}
330
3B00
100
AcDbVisualStyle
  2
Realistic
 70
     8
 71
     2
 72
     2
 73
     0
 90
        2
 40
-0.6
 41
30.0
 62
     5
 63
     7
 74
     0
 91
        0
 64
     7
 65
   257
 75
     1
175
     1
 42
1.0
 92
        8
 66
   257
 43
1.0
 76
     1
 77
     6
 78
     2
 67
     7
 79
     3
170
     0
171
     0
290
     0
174
     0
 93
       13
 44
0.0
173
     0
291
     0
 45
0.0
1001
ACAD
1000
AcDbSavedByObjectVersion
1070
     0
  0
VISUALSTYLE
  5
3B15
102
{ACAD_XDICTIONARY
360
7B2B
102
}
102
{ACAD_REACTORS
330
3B00
102
}
330
3B00
100
AcDbVisualStyle
  2
Shaded
 70
    27
 71
     2
 72
     2
 73
     1
 90
        2
 40
-0.6
 41
30.0
 62
     5
 63
     7
 74
     0
 91
        4
 64
     7
 65
   257
 75
     1
175
     1
 42
1.0
 92
        8
 66
   257
 43
1.0
 76
     1
 77
     6
 78
     2
 67
     8
 79
     3
170
     0
171
     0
290
     0
174
     0
 93
        5
 44
0.0
173
     0
291
     0
 45
0.0
1001
ACAD
1000
AcDbSavedByObjectVersion
1070
     0
  0
VISUALSTYLE
  5
3B14
102
{ACAD_XDICTIONARY
360
7B29
102
}
102
{ACAD_REACTORS
330
3B00
102
}
330
3B00
100
AcDbVisualStyle
  2
Shaded with edges
 70
    26
 71
     2
 72
     2
 73
     1
 90
        2
 40
-0.6
 41
30.0
 62
     5
 63
     7
 74
     1
 91
       10
 64
     7
 65
   257
 75
     2
175
     1
 42
1.0
 92
        8
 66
   257
 43
1.0
 76
     1
 77
     6
 78
     2
 67
     7
 79
     3
170
     0
171
     0
290
     0
174
     0
 93
        5
 44
0.0
173
     0
291
     0
 45
0.0
1001
ACAD
1000
AcDbSavedByObjectVersion
1070
     0
  0
VISUALSTYLE
  5
3B11
102
{ACAD_XDICTIONARY
360
7B23
102
}
102
{ACAD_REACTORS
330
3B00
102
}
330
3B00
100
AcDbVisualStyle
  2
Shades of Gray
 70
    23
 71
     2
 72
     2
 73
     3
 90
        0
 40
-0.6
 41
-30.0
 62
     5
 63
     7
 74
     2
 91
        2
 64
     7
 65
     7
 75
     1
175
     1
 42
40.0
 92
        8
 66
     7
 43
1.0
 76
     1
 77
     6
 78
     2
 67
     7
 79
     3
170
     0
171
     0
290
     0
174
     0
 93
        1
 44
0.0
173
     0
291
     0
 45
0.0
1001
ACAD
1000
AcDbSavedByObjectVersion
1070
     0
  0
VISUALSTYLE
  5
3B12
102
{ACAD_XDICTIONARY
360
7B25
102
}
102
{ACAD_REACTORS
330
3B00
102
}
330
3B00
100
AcDbVisualStyle
  2
Sketchy
 70
    24
 71
     1
 72
     2
 73
     2
 90
        0
 40
-0.6
 41
-30.0
 62
     5
 63
     7
 74
     2
 91
        2
 64
     7
 65
     7
 75
     1
175
     1
 42
40.0
 92
       11
 66
     7
 43
1.0
 76
     1
 77
     6
 78
     2
 67
     7
 79
     6
170
     0
171
     0
290
     0
174
     0
 93
        1
 44
0.0
173
     0
291
     0
 45
0.0
1001
ACAD
1000
AcDbSavedByObjectVersion
1070
     0
  0
VISUALSTYLE
  5
3B0D
102
{ACAD_XDICTIONARY
360
7B1B
102
}
102
{ACAD_REACTORS
330
3B00
102
}
330
3B00
100
AcDbVisualStyle
  2
Thicken
 70
    13
 71
     2
 72
     2
 73
     0
 90
        0
 40
-0.6
 41
-30.0
 62
     5
 63
     7
 74
     1
 91
        4
 64
     7
 65
   257
 75
     1
175
     1
 42
1.0
 92
       12
 66
     7
 43
1.0
 76
     1
 77
     6
 78
     2
 67
     7
 79
     5
170
     0
171
     0
290
     0
174
     0
 93
        1
 44
0.0
173
     0
291
     1
 45
0.0
1001
ACAD
1000
AcDbSavedByObjectVersion
1070
     0
  0
VISUALSTYLE
  5
3B07
102
{ACAD_XDICTIONARY
360
7B0F
102
}
102
{ACAD_REACTORS
330
3B00
102
}
330
3B00
100
AcDbVisualStyle
  2
Wireframe
 70
     5
 71
     0
 72
     2
 73
     0
 90
        0
 40
-0.6
 41
-30.0
 62
     5
 63
     7
 74
     1
 91
        4
 64
     7
 65
   257
 75
     1
175
     1
 42
1.0
 92
        0
 66
   257
 43
1.0
 76
     1
 77
     6
 78
     2
 67
     7
 79
     3
170
     0
171
     0
290
     0
174
     0
 93
        1
 44
0.0
173
     0
291
     0
 45
0.0
1001
ACAD
1000
AcDbSavedByObjectVersion
1070
     0
  0
VISUALSTYLE
  5
3B13
102
{ACAD_XDICTIONARY
360
7B27
102
}
102
{ACAD_REACTORS
330
3B00
102
}
330
3B00
100
AcDbVisualStyle
  2
X-Ray
 70
    25
 71
     2
 72
     2
 73
     1
 90
        1
 40
0.5
 41
-30.0
 62
     5
 63
     7
 74
     1
 91
        0
 64
     7
 65
   257
 75
     1
175
     1
 42
1.0
 92
        8
 66
     7
 43
1.0
 76
     1
 77
     6
 78
     2
 67
     7
 79
     3
170
     0
171
     0
290
     0
174
     0
 93
       13
 44
0.0
173
     0
291
     0
 45
0.0
1001
ACAD
1000
AcDbSavedByObjectVersion
1070
     0
  0
DICTIONARYVAR
  5
3DFC
102
{ACAD_REACTORS
330
1C9
102
}
330
1C9
100
DictionaryVariables
280
     0
  1
1:1
  0
DICTIONARYVAR
  5
3DF9
102
{ACAD_REACTORS
330
1C9
102
}
330
1C9
100
DictionaryVariables
280
     0
  1
STANDARD
  0
DICTIONARYVAR
  5
3DF8
102
{ACAD_REACTORS
330
1C9
102
}
330
1C9
100
DictionaryVariables
280
     0
  1
STANDARD
  0
DICTIONARYVAR
  5
3DFA
102
{ACAD_REACTORS
330
1C9
102
}
330
1C9
100
DictionaryVariables
280
     0
  1
Imperial24
  0
DICTIONARYVAR
  5
3DFB
102
{ACAD_REACTORS
330
1C9
102
}
330
1C9
100
DictionaryVariables
280
     0
  1
Imperial24
  0
DICTIONARYVAR
  5
3DFE
102
{ACAD_REACTORS
330
1C9
102
}
330
1C9
100
DictionaryVariables
280
     0
  1
1
  0
DICTIONARYVAR
  5
3DFD
102
{ACAD_REACTORS
330
1C9
102
}
330
1C9
100
DictionaryVariables
280
     0
  1
0
  0
DICTIONARYVAR
  5
7AF3
102
{ACAD_REACTORS
330
1C9
102
}
330
1C9
100
DictionaryVariables
280
     0
  1
1
  0
DICTIONARYVAR
  5
7AF4
102
{ACAD_REACTORS
330
1C9
102
}
330
1C9
100
DictionaryVariables
280
     0
  1
15
  0
DICTIONARYVAR
  5
7AF2
102
{ACAD_REACTORS
330
1C9
102
}
330
1C9
100
DictionaryVariables
280
     0
  1
0
  0
DICTIONARYVAR
  5
7AF1
102
{ACAD_REACTORS
330
1C9
102
}
330
1C9
100
DictionaryVariables
280
     0
  1
0
  0
DICTIONARYVAR
  5
1CA
102
{ACAD_REACTORS
330
1C9
102
}
330
1C9
100
DictionaryVariables
280
     0
  1
127
  0
DICTIONARYVAR
  5
7B00
102
{ACAD_REACTORS
330
1C9
102
}
330
1C9
100
DictionaryVariables
280
     0
  1
2
  0
DICTIONARY
  5
7B37
330
3B33
100
AcDbDictionary
280
     1
281
     1
  3
ACAD_XREC_ROUNDTRIP
360
7B38
  0
DICTIONARY
  5
7AB9
330
22
100
AcDbDictionary
280
     1
281
     1
  3
ADSK_XREC_LAYOUTTHUMBNAIL
360
7ABA
  0
DICTIONARY
  5
3AF1
330
3AF0
100
AcDbDictionary
280
     1
281
     1
  3
BUMPTILE
360
3AF3
  3
DIFFUSETILE
360
3AF2
  3
OPACITYTILE
360
3AF6
  3
REFLECTIONTILE
360
3AF5
  3
REFRACTIONTILE
360
3AF7
  3
SPECULARTILE
360
3AF4
  0
DICTIONARY
  5
3AE9
330
3AE8
100
AcDbDictionary
280
     1
281
     1
  3
BUMPTILE
360
3AEB
  3
DIFFUSETILE
360
3AEA
  3
OPACITYTILE
360
3AEE
  3
REFLECTIONTILE
360
3AED
  3
REFRACTIONTILE
360
3AEF
  3
SPECULARTILE
360
3AEC
  0
DICTIONARY
  5
3AF9
330
3AF8
100
AcDbDictionary
280
     1
281
     1
  3
BUMPTILE
360
3AFB
  3
DIFFUSETILE
360
3AFA
  3
OPACITYTILE
360
3AFE
  3
REFLECTIONTILE
360
3AFD
  3
REFRACTIONTILE
360
3AFF
  3
SPECULARTILE
360
3AFC
  0
DICTIONARY
  5
7B33
330
3B2F
100
AcDbDictionary
280
     1
281
     1
  3
ACAD_XREC_ROUNDTRIP
360
7B34
  0
DICTIONARY
  5
7B35
330
3B31
100
AcDbDictionary
280
     1
281
     1
  3
ACAD_XREC_ROUNDTRIP
360
7B36
  0
DICTIONARY
  5
3DA9
330
3B1B
100
AcDbDictionary
280
     1
281
     1
  3
ACAD_ROUNDTRIP_2008_TABLESTYLE_CELLSTYLEMAP
360
7B01
  0
DICTIONARY
  5
7B0D
330
3B06
100
AcDbDictionary
280
     1
281
     1
  3
ACAD_XREC_ROUNDTRIP
360
7B0E
  0
DICTIONARY
  5
7B0B
330
3B05
100
AcDbDictionary
280
     1
281
     1
  3
ACAD_XREC_ROUNDTRIP
360
7B0C
  0
DICTIONARY
  5
7B19
330
3B0C
100
AcDbDictionary
280
     1
281
     1
  3
ACAD_XREC_ROUNDTRIP
360
7B1A
  0
DICTIONARY
  5
7B21
330
3B10
100
AcDbDictionary
280
     1
281
     1
  3
ACAD_XREC_ROUNDTRIP
360
7B22
  0
DICTIONARY
  5
7B13
330
3B09
100
AcDbDictionary
280
     1
281
     1
  3
ACAD_XREC_ROUNDTRIP
360
7B14
  0
DICTIONARY
  5
7B17
330
3B0B
100
AcDbDictionary
280
     1
281
     1
  3
ACAD_XREC_ROUNDTRIP
360
7B18
  0
DICTIONARY
  5
7B31
330
3B18
100
AcDbDictionary
280
     1
281
     1
  3
ACAD_XREC_ROUNDTRIP
360
7B32
  0
DICTIONARY
  5
7B1F
330
3B0F
100
AcDbDictionary
280
     1
281
     1
  3
ACAD_XREC_ROUNDTRIP
360
7B20
  0
DICTIONARY
  5
7B03
330
3B01
100
AcDbDictionary
280
     1
281
     1
  3
ACAD_XREC_ROUNDTRIP
360
7B04
  0
DICTIONARY
  5
7B05
330
3B02
100
AcDbDictionary
280
     1
281
     1
  3
ACAD_XREC_ROUNDTRIP
360
7B06
  0
DICTIONARY
  5
7B07
330
3B03
100
AcDbDictionary
280
     1
281
     1
  3
ACAD_XREC_ROUNDTRIP
360
7B08
  0
DICTIONARY
  5
7B09
330
3B04
100
AcDbDictionary
280
     1
281
     1
  3
ACAD_XREC_ROUNDTRIP
360
7B0A
  0
DICTIONARY
  5
7B11
330
3B08
100
AcDbDictionary
280
     1
281
     1
  3
ACAD_XREC_ROUNDTRIP
360
7B12
  0
DICTIONARY
  5
7B2D
330
3B16
100
AcDbDictionary
280
     1
281
     1
  3
ACAD_XREC_ROUNDTRIP
360
7B2E
  0
DICTIONARY
  5
7B1D
330
3B0E
100
AcDbDictionary
280
     1
281
     1
  3
ACAD_XREC_ROUNDTRIP
360
7B1E
  0
DICTIONARY
  5
7B2F
330
3B17
100
AcDbDictionary
280
     1
281
     1
  3
ACAD_XREC_ROUNDTRIP
360
7B30
  0
DICTIONARY
  5
7B15
330
3B0A
100
AcDbDictionary
280
     1
281
     1
  3
ACAD_XREC_ROUNDTRIP
360
7B16
  0
DICTIONARY
  5
7B2B
330
3B15
100
AcDbDictionary
280
     1
281
     1
  3
ACAD_XREC_ROUNDTRIP
360
7B2C
  0
DICTIONARY
  5
7B29
330
3B14
100
AcDbDictionary
280
     1
281
     1
  3
ACAD_XREC_ROUNDTRIP
360
7B2A
  0
DICTIONARY
  5
7B23
330
3B11
100
AcDbDictionary
280
     1
281
     1
  3
ACAD_XREC_ROUNDTRIP
360
7B24
  0
DICTIONARY
  5
7B25
330
3B12
100
AcDbDictionary
280
     1
281
     1
  3
ACAD_XREC_ROUNDTRIP
360
7B26
  0
DICTIONARY
  5
7B1B
330
3B0D
100
AcDbDictionary
280
     1
281
     1
  3
ACAD_XREC_ROUNDTRIP
360
7B1C
  0
DICTIONARY
  5
7B0F
330
3B07
100
AcDbDictionary
280
     1
281
     1
  3
ACAD_XREC_ROUNDTRIP
360
7B10
  0
DICTIONARY
  5
7B27
330
3B13
100
AcDbDictionary
280
     1
281
     1
  3
ACAD_XREC_ROUNDTRIP
360
7B28
  0
XRECORD
  5
7B38
102
{ACAD_REACTORS
330
7B37
102
}
330
7B37
100
AcDbXrecord
280
     1
102
DISPLAYNAME
  1
Imperial24
102
FLAGS
 90
        0
  0
XRECORD
  5
7ABA
102
{ACAD_REACTORS
330
7AB9
102
}
330
7AB9
100
AcDbXrecord
280
     1
310
280000000001000098000000010008000000000000980000010000000100000000010000000000003028210000000000C8C8C8FF000000FF000000FF000000FF000000FF000000FF000000FF000000FF000000FF330000FF660000FF990000FFCC0000FFFF0000FF003300FF333300FF663300FF993300FFCC3300FFFF3300
310
FF006600FF336600FF666600FF996600FFCC6600FFFF6600FF009900FF339900FF669900FF999900FFCC9900FFFF9900FF00CC00FF33CC00FF66CC00FF99CC00FFCCCC00FFFFCC00FF00FF00FF33FF00FF66FF00FF99FF00FFCCFF00FFFFFF00FF000033FF330033FF660033FF990033FFCC0033FFFF0033FF003333FF3333
310
33FF663333FF993333FFCC3333FFFF3333FF006633FF336633FF666633FF996633FFCC6633FFFF6633FF009933FF339933FF669933FF999933FFCC9933FFFF9933FF00CC33FF33CC33FF66CC33FF99CC33FFCCCC33FFFFCC33FF00FF33FF33FF33FF66FF33FF99FF33FFCCFF33FFFFFF33FF000066FF330066FF660066FF99
310
0066FFCC0066FFFF0066FF003366FF333366FF663366FF993366FFCC3366FFFF3366FF006666FF336666FF666666FF996666FFCC6666FFFF6666FF009966FF339966FF669966FF999966FFCC9966FFFF9966FF00CC66FF33CC66FF66CC66FF99CC66FFCCCC66FFFFCC66FF00FF66FF33FF66FF66FF66FF99FF66FFCCFF66FF
310
FFFF66FF000099FF330099FF660099FF990099FFCC0099FFFF0099FF003399FF333399FF663399FF993399FFCC3399FFFF3399FF006699FF336699FF666699FF996699FFCC6699FFFF6699FF009999FF339999FF669999FF999999FFCC9999FFFF9999FF00CC99FF33CC99FF66CC99FF99CC99FFCCCC99FFFFCC99FF00FF99
310
FF33FF99FF66FF99FF99FF99FFCCFF99FFFFFF99FF0000CCFF3300CCFF6600CCFF9900CCFFCC00CCFFFF00CCFF0033CCFF3333CCFF6633CCFF9933CCFFCC33CCFFFF33CCFF0066CCFF3366CCFF6666CCFF9966CCFFCC66CCFFFF66CCFF0099CCFF3399CCFF6699CCFF9999CCFFCC99CCFFFF99CCFF00CCCCFF33CCCCFF66CC
310
CCFF99CCCCFFCCCCCCFFFFCCCCFF00FFCCFF33FFCCFF66FFCCFF99FFCCFFCCFFCCFFFFFFCCFF0000FFFF3300FFFF6600FFFF9900FFFFCC00FFFFFF00FFFF0033FFFF3333FFFF6633FFFF9933FFFFCC33FFFFFF33FFFF0066FFFF3366FFFF6666FFFF9966FFFFCC66FFFFFF66FFFF0099FFFF3399FFFF6699FFFF9999FFFFCC
310
99FFFFFF99FFFF00CCFFFF33CCFFFF66CCFFFF99CCFFFFCCCCFFFFFFCCFFFF00FFFFFF33FFFFFF66FFFFFF99FFFFFFCCFFFFFFFFFFFFFF000000FF0D0D0DFF1A1A1AFF282828FF353535FF434343FF505050FF5D5D5DFF6B6B6BFF787878FF868686FF939393FFA1A1A1FFAEAEAEFFBBBBBBFFC9C9C9FFD6D6D6FFE4E4E4FF
310
F1F1F1FFFFFFFFFF000000FF000000FF000000FF000000FF000000FF000000FF000000FF000000FF000000FF000000FF00000000000000000000000000000000000000000000000000000000000000000000000000000000000000000000000000000000000000000000000000000000000000000000000000000000000000
310
00000000000000000000000000000000000000000000000000000000000000000000000000000000000000000000000000000000000000000000000000000000000000000000000000000000000000000000000000000000000000000000000000000000000000000000000000000000000000000000000000000000000000
310
00000000000000000000000000000000000000000000000000000000000000000000000000000000000000000000000000000000000000000000000000000000000000000000000000000000000000000000000000000000000000000000000000000000000000000000000000000000000000000000000000000000000000
310
00000000000000000000000000000000000000000000000000000000000000000000000000000000000000000000000000000000000000000000000000000000000000000000000000000000000000000000000000000000000000000000000000000000000000000000000000000000000000000000000000000000000000
310
00000000000000000000000000000000000000000000000000000000000000000000000000000000000000000000000000000000000000000000000000000000000000000000000000000000000000000000000000000000000000000000000000000000000000000000000000000000000000000000000000000000000000
310
00000000000000000000000000000000000000000000000000000000000000000000000000000000000000000000000000000000000000000000000000000000000000000000000000000000000000000000000000000000000000000000000000000000000000000000000000000000000000000000000000000000000000
310
00000000000000000000000000000000000000000000000000000000000000000000000000000000000000000000000000000000000000000000000000000000000000000000000000000000000000000000000000000000000000000000000000000000000000000000000000000000000000000000000000000000000000
310
00000000000000000000000000000000000000000000000000000000000000000000000000000000000000000000000000000000000000000000000000000000000000000000000000000000000000000000000000000000000000000000000000000000000000000000000000000000000000000000000000000000000000
310
00000000000000000000000000000000000000000000000000000000000000000000000000000000000000000000000000000000000000000000000000000000000000000000000000000000000000000000000000000000000000000000000000000000000000000000000000000000000000000000000000000000000000
310
00000000000000000000000000000000000000000000000000000000000000000000000000000000000000000000000000000000000000000000000000000000000000000000000000000000000000000000000000000000000000000000000000000000000000000000000000000000000000000000000000000000000000
310
00000000000000000000000000000000000000000000000000000000000000000000000000000000000000000000000000000000000000000000000000000000000000000000000000000000000000000000000000000000000000000000000000000000000000000000000000000000000000000000000000000000000000
310
00000000000000000000000000000000000000000000000000000000000000000000000000000000000000000000000000000000000000000000000000000000000000000000000000000000000000000000000000000000000000000000000000000000000000000000000000000000000000000000000000000000000000
310
00000000000000000000000000000000000000000000000000000000000000000000000000000000000000000000000000000000000000000000000000000000000000000000000000000000000000000000000000000000000000000000000000000000000000000000000000000000000000000000000000000000000000
310
0000000000000000000000000000000000000000000000000000000000000000000000000000000000000000000000000000000000000000000000000000ECECECECECECECECEC0000000000000000000000000000000000000000000000000000000000000000000000000000000000000000000000000000000000000000
310
00000000000000000000000000000000000000000000000000000000000000000000000000000000000000000000000000000000000000000000000000000000000000000000000000000000000000000000000000000000000000000000000000000000000000000000000000000000000000000000000000000000000000
310
0000000000000000000000000000000000000000000000000000000000000000000000000000000000000000000000000000000000000000000000000000ECECECECECECECECECECECEC0000000000000000000000000000000000000000000000000000000000000000000000000000000000000000000000000000000000
310
00000000000000000000000000000000000000000000000000000000000000000000000000000000000000000000000000000000000000000000000000000000000000000000000000000000000000000000000000000000000000000000000000000000000000000000000000000000000000000000000000000000000000
310
000000000000000000000000000000000000000000000000000000000000000000000000000000000000000000000000000000000000000000000000000000ECECECECECECECECECECECECECEC0000000000000000000000000000000000000000000000000000000000000000000000000000000000000000000000000000
310
00000000000000000000000000000000000000000000000000000000000000000000000000000000000000000000000000000000000000000000000000000000000000000000000000000000000000000000000000000000000000000000000000000000000000000000000000000000000000000000000000000000000000
310
00000000000000000000000000000000000000000000000000000000000000000000000000000000000000000000000000000000000000000000000000000000ECECECECECEC0000EC0000EC00ECECEC0000000000000000000000000000000000000000000000000000000000000000000000000000000000000000000000
310
00000000000000000000000000000000000000000000000000000000000000000000000000000000000000000000000000000000000000000000000000000000000000000000000000000000000000000000000000000000000000000000000000000000000000000000000000000000000000000000000000000000000000
310
000000000000000000000000000000000000000000000000000000000000000000000000000000000000000000000000000000000000000000000000000000000000EC00EC00EC000000EC0000ECECECECECEC0000000000000000000000000000000000000000000000000000000000000000000000000000000000000000
310
00000000000000000000000000000000000000000000000000000000000000000000000000000000000000000000000000000000000000000000000000000000000000000000000000000000000000000000000000000000000000000000000000000000000000000000000000000000000000000000000000000000000000
310
000000000000000000000000000000000000000000000000000000000000000000000000000000000000000000000000000000000000000000000000000000000000ECECECECECECECECECECECECECECECECECECECEC000000000000000000C3C3C3C3C3C3C3C3C3C3C3C3C3C3C3C3C3C30000000000000000000000000000
310
00000000000000000000000000000000000000000000000000000000000000000000000000000000000000000000000000000000000000000000000000000000000000000000000000000000000000000000000000000000000000000000000000000000000000000000000000000000000000000000000000000000000000
310
0000000000000000000000000000000000000000000000000000000000000000000000000000000000000000000000000000000000000000000000000000000000000000ECECECECECECECECECECECECECECECECECECECEC000000000000000000C3C3C3C3C3C3C3C3C3C3C3C3C3C3C3C3C3C3000000000000000000000000
310
00000000000000000000000000000000000000000000000000000000000000000000000000000000000000000000000000000000000000000000000000000000000000000000000000000000000000000000000000000000000000000000000000000000000000000000000000000000000000000000000000000000000000
310
00000000000000000000000000000000000000000000000000000000000000000000000000000000000000000000000000000000000000000000000000000000000000000000ECECECECECECECECECECECECECECECECECECEC00000000000000000000C3C3C3C3C3C3C3C3C3C3C3C3C3C3C3C3C3C300000000000000000000
310
00000000000000000000000000000000000000000000000000000000000000000000000000000000000000000000000000000000000000000000000000000000000000000000000000000000000000000000000000000000000000000000000000000000000000000000000000000000000000000000000000000000000000
310
00000000000000000000000000000000000000000000000000000000000000000000000000000000000000000000000000000000000000000000000000000000000000000000000000ECECECECECECECECECECECECECECECECECEC00000000000000000000C3C3C3C3C3C3C3C3C3C3C3C3C3C3C3C3C3C30000000000000000
310
00000000000000000000000000000000000000000000000000000000000000000000000000000000000000000000000000000000000000000000000000000000000000000000000000000000000000000000000000000000000000000000000000000000000000000000000000000000000000000000000000000000000000
310
000000000000000000000000000000000000000000000000000000000000000000000000000000000000000000000000000000000000000000000000000000000000000000000000000000ECECECECECECECECECECECECECECECECECECEC000000000000000000C3C3C3C3C3C3000000000000000000000000000000000000
310
00000000000000000000000000000000000000000000000000000000000000000000000000000000000000000000000000000000000000000000000000000000000000000000000000000000000000000000000000000000000000000000000000000000000000000000000000000000000000000000000000000000000000
310
000000000000000000000000000000000000000000000000000000000000000000000000000000000000000000000000000000000000000000000000000000000000000000000000000000000000ECECECECECECECECECECECECECEC00ECECEC000000000000000000C3C3C3C3C3C300000000000000000000000000000000
310
00000000000000000000000000000000000000000000000000000000000000000000000000000000000000000000000000000000000000000000000000000000000000000000000000000000000000000000000000000000000000000000000000000000000000000000000000000000000000000000000000000000000000
310
00000000000000000000000000000000000000000000000000000000000000000000000000000000000000000000000000000000000000000000000000000000000000000000000000000000000000ECECECECECECECECECECECECECECECECECECEC000000000000000000C3C3C3C3C3C30000000000000000000000000000
310
00000000000000000000000000000000000000000000000000000000000000000000000000000000000000000000000000000000000000000000000000000000000000000000000000000000000000000000000000000000000000000000000000000000000000000000000000000000000000000000000000000000000000
310
000000000000000000000000000000000000000000000000000000000000000000000000000000000000000000000000000000000000000000000000000000000000000000000000000000000000000000ECECECECECECECECECECECECECECECECECEC00000000000000000000C3C3C3C3C3C3000000000000000000000000
310
00000000000000000000000000000000000000000000000000000000000000000000000000000000000000000000000000000000000000000000000000000000000000000000000000000000000000000000000000000000000000000000000000000000000000000000000000000000000000000000000000000000000000
310
000000000000000000000000000000000000000000000000000000000000000000000000000000000000000000000000000000000000000000000000000000000000000000000000000000000000000000000000EC00EC00EC000000EC0000ECEC00EC00EC0000000000000000000000000000000000000000000000000000
310
00000000000000000000000000000000000000000000000000000000000000000000000000000000000000000000000000000000000000000000000000000000000000000000000000000000000000000000000000000000000000000000000000000000000000000000000000000000000000000000000000000000000000
310
0000000000000000000000000000000000000000000000000000000000000000000000000000000000000000000000000000000000000000000000000000000000000000000000000000000000000000000000000000ECECEC00ECEC0000EC0000EC00ECECEC00000000000000000000000000000000000000000000000000
310
00000000000000000000000000000000000000000000000000000000000000000000000000000000000000000000000000000000000000000000000000000000000000000000000000000000000000000000000000000000000000000000000000000000000000000000000000000000000000000000000000000000000000
310
0000000000000000000000000000000000000000000000000000000000000000000000000000000000000000000000000000000000000000000000000000000000000000000000000000000000000000000000000000000000ECECEC00EC0000EC00ECECECECECEC0000000000000000000000000000000000000000000000
310
00000000000000000000000000000000000000000000000000000000000000000000000000000000000000000000000000000000000000000000000000000000000000000000000000000000000000000000000000000000000000000000000000000000000000000000000000000000000000000000000000000000000000
310
0000000000000000000000000000000000000000000000000000000000000000000000000000000000000000000000000000000000000000000000000000000000000000000000000000000000000000000000000000000000000000ECECECECECECECECECECECECEC00000000000000000000000000000000000000000000
310
00000000000000000000000000000000000000000000000000000000000000000000000000000000000000000000000000000000000000000000000000000000000000000000000000000000000000000000000000000000000000000000000000000000000000000000000000000000000000000000000000000000000000
310
0000000000000000000000000000000000000000000000000000000000000000000000000000000000000000000000000000000000000000000000000000000000000000000000000000000000000000000000000000000000000000000000ECECECECECECECECECEC00000000000000000000000000000000000000000000
310
00000000000000000000000000000000000000000000000000000000000000000000000000000000000000000000000000000000000000000000000000000000000000000000000000000000000000000000000000000000000000000000000000000000000000000000000000000000000000000000000000000000000000
310
000000000000000000000000000000000000000000000000000000000000000000000000000000000000000000000000000000000000000000000000000000000000000000000000000000000000000000000000000000000000000000000000000000ECECECECECEC00000000000000000000000000000000000000000000
310
00000000000000000000000000000000000000000000000000000000000000000000000000000000000000000000000000000000000000000000000000000000000000000000000000000000000000000000000000000000000000000000000000000000000000000000000000000000000000000000000000000000000000
310
00000000000000000000000000000000000000000000000000000000000000000000000000000000000000000000000000000000000000000000000000000000000000000000000000000000000000000000000000000000000000000000000000000000000000000000000000000000000000000000000000000000000000
310
00000000000000000000000000000000000000000000000000000000000000000000000000000000000000000000000000000000000000000000000000000000000000000000000000000000000000000000000000000000000000000000000000000000000000000000000000000000000000000000000000000000000000
310
00000000000000000000000000000000000000000000000000000000000000000000000000000000000000000000000000000000000000000000000000000000000000000000000000000000000000000000000000000000000000000000000000000000000000000000000000000000000000000000000000000000000000
310
00000000000000000000000000000000000000000000000000000000000000000000000000000000000000000000000000000000000000000000000000000000000000000000000000000000000000000000000000000000000000000000000000000000000000000000000000000000000000000000000000000000000000
310
00000000000000000000000000000000000000000000000000000000000000000000000000000000000000000000000000000000000000000000000000000000000000000000000000000000000000000000000000000000000000000000000000000000000000000000000000000000000000000000000000000000000000
310
00000000000000000000000000000000000000000000000000000000000000000000000000000000000000000000000000000000000000000000000000000000000000000000000000000000000000000000000000000000000000000000000000000000000000000000000000000000000000000000000000000000000000
310
00000000000000000000000000000000000000000000000000000000000000000000000000000000000000000000000000000000000000000000000000000000000000000000000000000000000000000000000000000000000000000000000000000000000000000000000000000000000000000000000000000000000000
310
00000000000000000000000000000000000000000000000000000000000000000000000000000000000000000000000000000000000000000000000000000000000000000000000000000000000000000000000000000000000000000000000000000000000000000000000000000000000000000000000000000000000000
310
00000000000000000000000000000000000000000000000000000000000000000000000000000000000000000000000000000000000000000000000000000000000000000000000000000000000000000000000000000000000000000000000000000000000000000000000000000000000000000000000000000000000000
310
00000000000000000000000000000000000000000000000000000000000000000000000000000000000000000000000000000000000000000000000000000000000000000000000000000000000000000000000000000000000000000000000000000000000000000000000000000000000000000000000000000000000000
310
00000000000000000000000000000000000000000000000000000000000000000000000000000000000000000000000000000000000000000000000000000000000000000000000000000000000000000000000000000000000000000000000000000000000000000000000000000000000000000000000000000000000000
310
00000000000000000000000000000000000000000000000000000000000000000000000000000000000000000000000000000000000000000000000000000000000000000000000000000000000000000000000000000000000000000000000000000000000000000000000000000000000000000000000000000000000000
310
00000000000000000000000000000000000000000000000000000000000000000000000000000000000000000000000000000000000000000000000000000000000000000000000000000000000000000000000000000000000000000000000000000000000000000000000000000000000000000000000000000000000000
310
00000000000000000000000000000000000000000000000000000000000000000000000000000000000000000000000000000000000000000000000000000000000000000000000000000000000000000000000000000000000000000000000000000000000000000000000000000000000000000000000000000000000000
310
00000000000000000000000000000000000000000000000000000000000000000000000000000000000000000000000000000000000000000000000000000000000000000000000000000000000000000000000000000000000000000000000000000000000000000000000000000000000000000000000000000000000000
310
00000000000000000000000000000000000000000000000000000000000000000000000000000000000000000000000000000000000000000000000000000000000000000000000000000000000000000000000000000000000000000000000000000000000000000000000000000000000000000000000000000000000000
310
00000000000000000000000000000000000000000000000000000000000000000000000000000000000000000000000000000000000000000000000000000000000000000000000000000000000000000000000000000000000000000000000000000000000000000000000000000000000000000000000000000000000000
310
00000000000000000000000000000000000000000000000000000000000000000000000000000000000000000000000000000000000000000000000000000000000000000000000000000000000000000000000000000000000000000000000000000000000000000000000000000000000000000000000000000000000000
310
00000000000000000000000000000000000000000000000000000000000000000000000000000000000000000000000000000000000000000000000000000000000000000000000000000000000000000000000000000000000000000000000000000000000000000000000000000000000000000000000000000000000000
310
00000000000000000000000000000000000000000000000000000000000000000000000000000000000000000000000000000000000000000000000000000000000000000000000000000000000000000000000000000000000000000000000000000000000000000000000000000000000000000000000000000000000000
310
00000000000000000000000000000000000000000000000000000000000000000000000000000000000000000000000000000000000000000000000000000000000000000000000000000000000000000000000000000000000000000000000000000000000000000000000000000000000000000000000000000000000000
310
00000000000000000000000000000000000000000000000000000000000000000000000000000000000000000000000000000000000000000000000000000000000000000000000000000000000000000000000000000000000000000000000000000000000000000000000000000000000000000000000000000000000000
310
00000000000000000000000000000000000000000000000000000000000000000000000000000000000000000000000000000000000000000000000000000000000000000000000000000000000000000000000000000000000000000000000000000000000000000000000000000000000000000000000000000000000000
310
00000000000000000000000000000000000000000000000000000000000000000000000000000000000000000000000000000000000000000000000000000000000000000000000000000000000000000000000000000000000000000000000000000000000000000000000000000000000000000000000000000000000000
310
00000000000000000000000000000000000000000000000000000000000000000000000000000000000000000000000000000000000000000000000000000000000000000000000000000000000000000000000000000000000000000000000000000000000000000000000000000000000000000000000000000000000000
310
00000000000000000000000000000000000000000000000000000000000000000000000000000000000000000000000000000000000000000000000000000000000000000000000000000000000000000000000000000000000000000000000000000000000000000000000000000000000000000000000000000000000000
310
00000000000000000000000000000000000000000000000000000000000000000000000000000000000000000000000000000000000000000000000000000000000000000000000000000000000000000000000000000000000000000000000000000000000000000000000000000000000000000000000000000000000000
310
00000000000000000000000000000000000000000000000000000000000000000000000000000000000000000000000000000000000000000000000000000000000000000000000000000000000000000000000000000000000000000000000000000000000000000000000000000000000000000000000000000000000000
310
00000000000000000000000000000000000000000000000000000000000000000000000000000000000000000000000000000000000000000000000000000000000000000000000000000000000000000000000000000000000000000000000000000000000000000000000000000000000000000000000000000000000000
310
00000000000000000000000000000000000000000000000000000000000000000000000000000000000000000000000000000000000000000000000000000000000000000000000000000000000000000000000000000000000000000000000000000000000000000000000000000000000000000000000000000000000000
310
00000000000000000000000000000000000000000000000000000000000000000000000000000000000000000000000000000000000000000000000000000000000000000000000000000000000000000000000000000000000000000000000000000000000000000000000000000000000000000000000000000000000000
310
00000000000000000000000000000000000000000000000000000000000000000000000000000000000000000000000000000000000000000000000000000000000000000000000000000000000000000000000000000000000000000000000000000000000000000000000000000000000000000000000000000000000000
310
00000000000000000000000000000000000000000000000000000000000000000000000000000000000000000000000000000000000000000000000000000000000000000000000000000000000000000000000000000000000000000000000000000000000000000000000000000000000000000000000000000000000000
310
00000000000000000000000000000000000000000000000000000000000000000000000000000000000000000000000000000000000000000000000000000000000000000000000000000000000000000000000000000000000000000000000000000000000000000000000000000000000000000000000000000000000000
310
00000000000000000000000000000000000000000000000000000000000000000000000000000000000000000000000000000000000000000000000000000000000000000000000000000000000000000000000000000000000000000000000000000000000000000000000000000000000000000000000000000000000000
310
00000000000000000000000000000000000000000000000000000000000000000000000000000000000000000000000000000000000000000000000000000000000000000000000000000000000000000000000000000000000000000000000000000000000000000000000000000000000000000000000000000000000000
310
00000000000000000000000000000000000000000000000000000000000000000000000000000000000000000000000000000000000000000000000000000000000000000000000000000000000000000000000000000000000000000000000000000000000000000000000000000000000000000000000000000000000000
310
00000000000000000000000000000000000000000000000000000000000000000000000000000000000000000000000000000000000000000000000000000000000000000000000000000000000000000000000000000000000000000000000000000000000000000000000000000000000000000000000000000000000000
310
00000000000000000000000000000000000000000000000000000000000000000000000000000000000000000000000000000000000000000000000000000000000000000000000000000000000000000000000000000000000000000000000000000000000000000000000000000000000000000000000000000000000000
310
00000000000000000000000000000000000000000000000000000000000000000000000000000000000000000000000000000000000000000000000000000000000000000000000000000000000000000000000000000000000000000000000000000000000000000000000000000000000000000000000000000000000000
310
00000000000000000000000000000000000000000000000000000000000000000000000000000000000000000000000000000000000000000000000000000000000000000000000000000000000000000000000000000000000000000000000000000000000000000000000000000000000000000000000000000000000000
310
00000000000000000000000000000000000000000000000000000000000000000000000000000000000000000000000000000000000000000000000000000000000000000000000000000000000000000000000000000000000000000000000000000000000000000000000000000000000000000000000000000000000000
310
00000000000000000000000000000000000000000000000000000000000000000000000000000000000000000000000000000000000000000000000000000000000000000000000000000000000000000000000000000000000000000000000000000000000000000000000000000000000000000000000000000000000000
310
00000000000000000000000000000000000000000000000000000000000000000000000000000000000000000000000000000000000000000000000000000000000000000000000000000000000000000000000000000000000000000000000000000000000000000000000000000000000000000000000000000000000000
310
00000000000000000000000000000000000000000000000000000000000000000000000000000000000000000000000000000000000000000000000000000000000000000000000000000000000000000000000000000000000000000000000000000000000000000000000000000000000000000000000000000000000000
310
00000000000000000000000000000000000000000000000000000000000000000000000000000000000000000000000000000000000000000000000000000000000000000000000000000000000000000000000000000000000000000000000000000000000000000000000000000000000000000000000000000000000000
310
00000000000000000000000000000000000000000000000000000000000000000000000000000000000000000000000000000000000000000000000000000000000000000000000000000000000000000000000000000000000000000000000000000000000000000000000000000000000000000000000000000000000000
310
00000000000000000000000000000000000000000000000000000000000000000000000000000000000000000000000000000000000000000000000000000000000000000000000000000000000000000000000000000000000000000000000000000000000000000000000000000000000000000000000000000000000000
310
00000000000000000000000000000000000000000000000000000000000000000000000000000000000000000000000000000000000000000000000000000000000000000000000000000000000000000000000000000000000000000000000000000000000000000000000000000000000000000000000000000000000000
310
00000000000000000000000000000000000000000000000000000000000000000000000000000000000000000000000000000000000000000000000000000000000000000000000000000000000000000000000000000000000000000000000000000000000000000000000000000000000000000000000000000000000000
310
00000000000000000000000000000000000000000000000000000000000000000000000000000000000000000000000000000000000000000000000000000000000000000000000000000000000000000000000000000000000000000000000000000000000000000000000000000000000000000000000000000000000000
310
00000000000000000000000000000000000000000000000000000000000000000000000000000000000000000000000000000000000000000000000000000000000000000000000000000000000000000000000000000000000000000000000000000000000000000000000000000000000000000000000000000000000000
310
00000000000000000000000000000000000000000000000000000000000000000000000000000000000000000000000000000000000000000000000000000000000000000000000000000000000000000000000000000000000000000000000000000000000000000000000000000000000000000000000000000000000000
310
00000000000000000000000000000000000000000000000000000000000000000000000000000000000000000000000000000000000000000000000000000000000000000000000000000000000000000000000000000000000000000000000000000000000000000000000000000000000000000000000000000000000000
310
00000000000000000000000000000000000000000000000000000000000000000000000000000000000000000000000000000000000000000000000000000000000000000000000000000000000000000000000000000000000000000000000000000000000000000000000000000000000000000000000000000000000000
310
00000000000000000000000000000000000000000000000000000000000000000000000000000000000000000000000000000000000000000000000000000000000000000000000000000000000000000000000000000000000000000000000000000000000000000000000000000000000000000000000000000000000000
310
00000000000000000000000000000000000000000000000000000000000000000000000000000000000000000000000000000000000000000000000000000000000000000000000000000000000000000000000000000000000000000000000000000000000000000000000000000000000000000000000000000000000000
310
00000000000000000000000000000000000000000000000000000000000000000000000000000000000000000000000000000000000000000000000000000000000000000000000000000000000000000000000000000000000000000000000000000000000000000000000000000000000000000000000000000000000000
310
00000000000000000000000000000000000000000000000000000000000000000000000000000000000000000000000000000000000000000000000000000000000000000000000000000000000000000000000000000000000000000000000000000000000000000000000000000000000000000000000000000000000000
310
00000000000000000000000000000000000000000000000000000000000000000000000000000000000000000000000000000000000000000000000000000000000000000000000000000000000000000000000000000000000000000000000000000000000000000000000000000000000000000000000000000000000000
310
00000000000000000000000000000000000000000000000000000000000000000000000000000000000000000000000000000000000000000000000000000000000000000000000000000000000000000000000000000000000000000000000000000000000000000000000000000000000000000000000000000000000000
310
00000000000000000000000000000000000000000000000000000000000000000000000000000000000000000000000000000000000000000000000000000000000000000000000000000000000000000000000000000000000000000000000000000000000000000000000000000000000000000000000000000000000000
310
00000000000000000000000000000000000000000000000000000000000000000000000000000000000000000000000000000000000000000000000000000000000000000000000000000000000000000000000000000000000000000000000000000000000000000000000000000000000000000000000000000000000000
310
00000000000000000000000000000000000000000000000000000000000000000000000000000000000000000000000000000000000000000000000000000000000000000000000000000000000000000000000000000000000000000000000000000000000000000000000000000000000000000000000000000000000000
310
00000000000000000000000000000000000000000000000000000000000000000000000000000000000000000000000000000000000000000000000000000000000000000000000000000000000000000000000000000000000000000000000000000000000000000000000000000000000000000000000000000000000000
310
00000000000000000000000000000000000000000000000000000000000000000000000000000000000000000000000000000000000000000000000000000000000000000000000000000000000000000000000000000000000000000000000000000000000000000000000000000000000000000000000000000000000000
310
00000000000000000000000000000000000000000000000000000000000000000000000000000000000000000000000000000000000000000000000000000000000000000000000000000000000000000000000000000000000000000000000000000000000000000000000000000000000000000000000000000000000000
310
0000000000000000000000000000000000000000000000000000000000000000000000000000000000C3C3C3C3C3C3C3C3C3C30000000000000000000000000000000000000000000F000000000000000000000000000000000000000000000000000000000000000000000000000000000000000000000000000000000000
310
00000000000000000000000000000000000000000000000000000000000000000000000000000000000000000000000000000000000000000000000000000000000000000000000000000000000000000000000000000000000000000000000000000000000000000000000000000000000000000000000000000000000000
310
00000000000000000000000000000000000000000000000000000000000000000000000000000000000000C3C3C3C3C3C3C3C3C3C30000000000000000000000000000000000000000000F00000000000000000000000000000000000000000000000000000000000000000000000000000000000000000000000000000000
310
00000000000000000000000000000000000000000000000000000000000000000000000000000000000000000000000000000000000000000000000000000000000000000000000000000000000000000000000000000000000000000000000000000000000000000000000000000000000000000000000000000000000000
310
000000000000000000000000000000000000000000000000000000000000000000000000000000000000000000C3C3C3C3C3C3C3C3C3C30000000000000000000000000000000000000000000F0F00000000000000000000000000000000000000000000000000000000000000000000000000000000000000000000000000
310
00000000000000000000000000000000000000000000000000000000000000000000000000000000000000000000000000000000000000000000000000000000000000000000000000000000000000000000000000000000000000000000000000000000000000000000000000000000000000000000000000000000000000
310
0000000000000000000000000000000000000000000000000000000000000000000000000000000000000000000000C3C3C3C3C3C3C3C3C3C300000000005F0F0F0F0F0F0F0F0F0F0F0F0F0F0F0F0F0F0000000000000000000000000000000000000000000000000000000000000000000000000000000000000000000000
310
00000000000000000000000000000000000000000000000000000000000000000000000000000000000000000000000000000000000000000000000000000000000000000000000000000000000000000000000000000000000000000000000000000000000000000000000000000000000000000000000000000000000000
310
00000000000000000000000000000000000000000000000000000000000000000000000000000000000000000000000000C3C3C3C3C3C3C3C3C3C300000000005F5F0000000000000000000000000F0F0F0F0F0000000000000000000000000000000000000000000000000000000000000000000000000000000000000000
310
00000000000000000000000000000000000000000000000000000000000000000000000000000000000000000000000000000000000000000000000000000000000000000000000000000000000000000000000000000000000000000000000000000000000000000000000000000000000000000000000000000000000000
310
000000000000000000000000000000000000000000000000000000000000000000000000000000000000000000000000000000C3C3C3C3C3C3C3C3C30000000000005F5F0000000000000000000000000F0F0F0F0F000000000000000000000000000000000000000000000000000000000000000000000000000000000000
310
00000000000000000000000000000000000000000000000000000000000000000000000000000000000000000000000000000000000000000000000000000000000000000000000000000000000000000000000000000000000000000000000000000000000000000000000000000000000000000000000000000000000000
310
0000000000000000000000000000000000000000000000000000000000000000000000000000000000000000000000000000000000C3C3C3C3C3C3C3C3C30000000000005F5F0000000000000000000000000F0F0F0F0F00000000000000000000000000000000000000000000000000000000000000000000000000000000
310
00000000000000000000000000000000000000000000000000000000000000000000000000000000000000000000000000000000000000000000000000000000000000000000000000000000000000000000000000000000000000000000000000000000000000000000000000000000000000000000000000000000000000
310
00000000000000000000000000000000000000000000000000000000000000000000000000000000000000000000000000000000000000C3C3C3C3C3C3C3C3C30000000000005F5F5F00000000000000000000000F0F0F0F0F0000000000000000000000000000000000000000000000000000000000000000000000000000
310
00000000000000000000000000000000000000000000000000000000000000000000000000000000000000000000000000000000000000000000000000000000000000000000000000000000000000000000000000000000000000000000000000000000000000000000000000000000000000000000000000000000000000
310
000000000000000000000000000000000000000000000000000000000000000000000000000000000000000000000000000000000000000000C3C3C3C3C3C3C300000000C30000005F5F5F00000000000000000000000F0F0F0F0F000000000000000000000000000000000000000000000000000000000000000000000000
310
00000000000000000000000000000000000000000000000000000000000000000000000000000000000000000000000000000000000000000000000000000000000000000000000000000000000000000000000000000000000000000000000000000000000000000000000000000000000000000000000000000000000000
310
0000000000000000000000000000000000000000000000000000000000000000000000000000000000000000000000000000000000000000000000C3C3C3C3C3C3C30000000000C3C3C35F5F5F00000000000000000000000F0F0F0F0F00000000000000000000000000000000000000000000000000000000000000000000
310
00000000000000000000000000000000000000000000000000000000000000000000000000000000000000000000000000000000000000000000000000000000000000000000000000000000000000000000000000000000000000000000000000000000000000000000000000000000000000000000000000000000000000
310
00000000000000000000000000000000000000000000000000000000000000000000000000000000000000000000000000000000000000000000000000C3C3C3C3C3C3C3C3000000000000C3C35F5F000000000000000000000000000000000000000000000000000000000000000000000000000000000000000000000000
310
00000000000000000000000000000000000000000000000000000000000000000000000000000000000000000000000000000000000000000000000000000000000000000000000000000000000000000000000000000000000000000000000000000000000000000000000000000000000000000000000000000000000000
310
000000000000000000000000000000000000000000000000000000000000000000000000000000000000000000000000000000000000000000000000000000C3C3C3C3C3C3C3C3000000000000005F5F5F0F0F0F0F0F0F0F0F0F0F0F0F0F0F0F00000000000000000000000000000000000000000000000000000000000000
310
00000000000000000000000000000000000000000000000000000000000000000000000000000000000000000000000000000000000000000000000000000000000000000000000000000000000000000000000000000000000000000000000000000000000000000000000000000000000000000000000000000000000000
310
0000000000000000000000000000000000000000000000000000000000000000000000000000000000000000000000000000000000000000000000000000000000C3C3C3C3C3C3C3C3000000000000005F5F5FF1BE00000000000000000000000F0F0000000000000000000000000000000000000000000000000000000000
310
00000000000000000000000000000000000000000000000000000000000000000000000000000000000000000000000000000000000000000000000000000000000000000000000000000000000000000000000000000000000000000000000000000000000000000000000000000000000000000000000000000000000000
310
000000000000000000000000000000000000000000000000000000000000000000000000000000000000000000000000000000000000000000000000000000000000000000000000000000000000000000005F5F5FF1BE00000000000000000000000F00000000000000000000000000000000000000000000000000000000
310
00000000000000000000000000000000000000000000000000000000000000000000000000000000000000000000000000000000000000000000000000000000000000000000000000000000000000000000000000000000000000000000000000000000000000000000000000000000000000000000000000000000000000
310
0000000000000000000000000000000000000000000000000000000000000000000000000000000000000000000000000000000000000000000000000000000000000000000000000000000000000000000000005F5F5FF1BE00000000000000000000000F0000000000000000000000000000000000000000000000000000
310
00000000000000000000000000000000000000000000000000000000000000000000000000000000000000000000000000000000000000000000000000000000000000000000000000000000000000000000000000000000000000000000000000000000000000000000000000000000000000000000000000000000000000
310
00000000000000000000000000000000000000000000000000000000000000000000000000000000000000000000000000000000000000000000000000000000000000000000000000000000000000000000000000005F5F5FF1BE00000F0F0F0F0F000000000F000000000000000000000000000000000000000000000000
310
00000000000000000000000000000000000000000000000000000000000000000000000000000000000000000000000000000000000000000000000000000000000000000000000000000000000000000000000000000000000000000000000000000000000000000000000000000000000000000000000000000000000000
310
000000000000000000000000000000000000000000000000000000000000000000000000000000000000000000000000000000000000000000000000000000000000000000000000000000000000000000000000000000005F5F0FF10F00000F0F0F0F0F000000000F00000000000000000000000000000000000000000000
310
00000000000000000000000000000000000000000000000000000000000000000000000000000000000000000000000000000000000000000000000000000000000000000000000000000000000000000000000000000000000000000000000000000000000000000000000000000000000000000000000000000000000000
310
0000000000000000000000000000000000000000000000000000000000000000000000000000000000000000000000000000000000000000000000000000000000000000000000000000000000000000000000000000000000005F0F0FF10F0F00000000000000000F0F0F0F0F000000000000000000000000000000000000
310
00000000000000000000000000000000000000000000000000000000000000000000000000000000000000000000000000000000000000000000000000000000000000000000000000000000000000000000000000000000000000000000000000000000000000000000000000000000000000000000000000000000000000
310
000000000000000000000000000000000000000000000000000000000000000000000000000000000000000000000000000000000000000000000000000000000000000000000000000000000000000000000000000000000000000F0F0F0FF10F0F0F0F0F0F0F0F00000F0F0F0F0F00000000000000000000000000000000
310
00000000000000000000000000000000000000000000000000000000000000000000000000000000000000000000000000000000000000000000000000000000000000000000000000000000000000000000000000000000000000000000000000000000000000000000000000000000000000000000000000000000000000
310
000000000000000000000000000000000000000000000000000000000000000000000000000000000000000000000000000000000000000000000000000000000000000000000000000000000000000000000000000000000000000000005F5F0FF10F00000F0F0F0F0F00000F0F0F0F0F0000000000000000000000000000
310
00000000000000000000000000000000000000000000000000000000000000000000000000000000000000000000000000000000000000000000000000000000000000000000000000000000000000000000000000000000000000000000000000000000000000000000000000000000000000000000000000000000000000
310
0000000000000000000000000000000000000000000000000000000000000000000000000000000000000000000000000000000000000000000000000000000000000000000000000000000000000000000000000000000000000000000000005F5F0FF10F00000000000000000F0F0F0F0F0F000000000000000000000000
310
00000000000000000000000000000000000000000000000000000000000000000000000000000000000000000000000000000000000000000000000000000000000000000000000000000000000000000000000000000000000000000000000000000000000000000000000000000000000000000000000000000000000000
310
00000000000000000000000000000000000000000000000000000000000000000000000000000000000000000000000000000000000000000000000000000000000000000000000000000000000000000000000000000000000000000000000000005F5F0FF10F00000000000000000F0F0F0F0F0F00000000000000000000
310
00000000000000000000000000000000000000000000000000000000000000000000000000000000000000000000000000000000000000000000000000000000000000000000000000000000000000000000000000000000000000000000000000000000000000000000000000000000000000000000000000000000000000
310
00000000000000000000000000000000000000000000000000000000000000000000000000000000000000000000000000000000000000000000000000000000000000000000000000000000000000000000000000000000000000000000000000000000BEBEBEF1BE00000000000000000F0F0F0F0F0F0000000000000000
310
00000000000000000000000000000000000000000000000000000000000000000000000000000000000000000000000000000000000000000000000000000000000000000000000000000000000000000000000000000000000000000000000000000000000000000000000000000000000000000000000000000000000000
310
0000000000000000000000000000000000000000000000000000000000000000000000000000000000000000000000000000000000000000000000000000000000000000000000000000000000000000000000000000000000000000000000000000000000000000BEF12D2D000000000000000000000F0000000000000000
310
00000000000000000000000000000000000000000000000000000000000000000000000000000000000000000000000000000000000000000000000000000000000000000000000000000000000000000000000000000000000000000000000000000000000000000000000000000000000000000000000000000000000000
310
000000000000000000000000000000000000000000000000000000000000000000000000000000000000000000000000000000000000000000000000000000000000000000000000000000000000000000000000000000000000002D2D2D2D2D2D2D2D2D2D2D2D2D2D2D2D2D2D2D2D0000000000000000000F000000000000
310
00000000000000000000000000000000000000000000000000000000000000000000000000000000000000000000000000000000000000000000000000000000000000000000000000000000000000000000000000000000000000000000000000000000000000000000000000000000000000000000000000000000000000
310
00000000000000000000000000000000000000000000000000000000000000000000000000000000000000000000000000000000000000000000000000000000000000000000000000000000000000000000000000000000000000002D2D2D2D2D2D2D2D2D2D2D2D2D2D2D2D2D2D2D2D2D0000000000000000000F00000000
310
00000000000000000000000000000000000000000000000000000000000000000000000000000000000000000000000000000000000000000000000000000000000000000000000000000000000000000000000000000000000000000000000000000000000000000000000000000000000000000000000000000000000000
310
00000000000000000000000000000000000000000000000000000000000000000000000000000000000000000000000000000000000000000000000000000000000000000000000000000000000000000000000000000000000000000000002D2D2D2D2D2D2D2D2D2D2D2D2D2D2D2D2D2D2D2D0000000000000000000F0000
310
00000000000000000000000000000000000000000000000000000000000000000000000000000000000000000000000000000000000000000000000000000000000000000000000000000000000000000000000000000000000000000000000000000000000000000000000000000000000000000000000000000000000000
310
00000000000000000000000000000000000000000000000000000000000000000000000000000000000000000000000000000000000000000000000000000000000000000000000000000000000000000000000000000000000000000000000000000000000000000000000000000000BEF12D2D000000000000000000000F
310
00000000000000000000000000000000000000000000000000000000000000000000000000000000000000000000000000000000000000000000000000000000000000000000000000000000000000000000000000000000000000000000000000000000000000000000000000000000000000000000000000000000000000
310
000000000000000000000000000000000000000000000000000000000000000000000000000000000000000000000000000000000000000000000000000000000000000000000000000000000000000000000000000000000000000000000000000000000000000000000000000000000FBEBEF10FC3C30000000000000000
310
000F0F00000000000000000000000000000000000000000000000000000000000000000000000000000000000000000000000000000000000000000000000000000000000000000000000000000000000000000000000000000000000000000000000000000000000000000000000000000000000000000000000000000000
310
0000000000000000000000000000000000000000000000000000000000000000000000000000000000000000000000000000000000000000000000000000000000000000000000000000000000000000000000000000000000000000000000000000000000000000000000000000000000000FBEBE0F0F0F0FC30F0F0F0F0F
310
0F0F0F0F0F0000000000000000000000000000000000000000000000000000000000000000000000000000000000000000000000000000000000000000000000000000000000000000000000000000000000000000000000000000000000000000000000000000000000000000000000000000000000000000000000000000
310
0000000000000000000000000000000000000000000000000000000000000000000000000000000000000000000000000000000000000000000000000000000000000000000000000000000000000000000000000000000000000000000000000000000000000000000000000F0F0F0F000000000F0000000F0000C3000000
310
00000000000000000000000000000000000000000000000000000000000000000000000000000000000000000000000000000000000000000000000000000000000000000000000000000000000000000000000000000000000000000000000000000000000000000000000000000000000000000000000000000000000000
310
00000000000000000000000000000000000000000000000000000000000000000000000000000000000000000000000000000000000000000000000000000000000000000000000000000000000000000000000000000000000000000000000000000000000000000000000000000F0F0F0F000000000F0000000F000000C3
310
00000000000000000000000000000000000000000000000000000000000000000000000000000000000000000000000000000000000000000000000000000000000000000000000000000000000000000000000000000000000000000000000000000000000000000000000000000000000000000000000000000000000000
310
000000000000000000000000000000000000000000000000000000000000000000000000000000000000000000000000000000000000000000000000000000000000000000000000000000000000000000000000000000000000000000000000000000000000000000000000000000000F0F0F0F000000000F0000000F0000
310
00C30000000000000000000000000000000000000000000000000000000000000000000000000000000000000000000000000000000000000000000000000000000000000000000000000000000000000000000000000000000000000000000000000000000000000000000000000000000000000000000000000000000000
310
0000000000000000000000000000000000000000000000000000000000000000000000000000000000000000000000000000000000000000000000000000000000000000000000000000000000000000000000000000000000000000000000000000000000000000000000000000000000000F0F0F0F0F0F0F0F0F0000000F
310
0F0F0F00C30000000000000000000000000000000000000000000000000000000000000000000000000000000000000000000000000000000000000000000000000000000000000000000000000000000000000000000000000000000000000000000000000000000000000000000000000000000000000000000000000000
310
00000000000000000000000000000000000000000000000000000000000000000000000000000000000000000000000000000000000000000000000000000000000000000000000000000000000000000000000000000000000000000000000000000000000000000000000000000000000000000F0F0F0F0F0000000F0000
310
000F00000000C3000000000000000000000000000000000000000000000000000000000000000000000000000000000000000000000000000000000000000000000000000000000000000000000000000000000000000000000000000000000000000000000000000000000000000000000000000000000000000000000000
310
00000000000000000000000000000000000000000000000000000000000000000000000000000000000000000000000000000000000000000000000000000000000000000000000000000000000000000000000000000000000000000000000000000000000000000000000000000000000000000000000000000000000000
310
000000000000000000C3000000000000000000000000000000000000000000000000000000000000000000000000000000000000000000000000000000000000000000000000000000000000000000000000000000000000000000000000000000000000000000000000000000000000000000000000000000000000000000
310
00000000000000000000000000000000000000000000000000000000000000000000000000000000000000000000000000000000000000000000000000000000000000000000000000000000000000000000000000000000000000000000000000000000000000000000000000000000000000000000000000000000000000
310
0000C3C3C3C3C3C3C3C3C3C3C3C3C3C3C3C3C3C3C3C3C3C300000000000000000000000000000000000000000000000000000000000000000000000000000000000000000000000000000000000000000000000000000000000000000000000000000000000000000000000000000000000000000000000000000000000000
310
00000000000000000000000000000000000000000000000000000000000000000000000000000000000000000000000000000000000000000000000000000000000000000000000000000000000000000000000000000000000000000000000000000000000000000000000000000000000000000000000000000000000000
310
00000000C3C3C3C3C3C3C3C3C3C3C3C3C3C3C3C3C3C3C3C3C3C30000000000000000000000000000000000000000000000000000000000000000000000000000000000000000000000000000000000000000000000000000000000000000000000000000000000000000000000000000000000000000000000000000000000
310
00000000000000000000000000000000000000000000000000000000000000000000000000000000000000000000000000000000000000000000000000000000000000000000000000000000000000000000000000000000000000000000000000000000000000000000000000000000000000000000000000000000000000
310
00000000000000000000000000000000000000000000000000000000000000000000000000000000000000000000000000000000000000000000000000000000000000000000000000000000000000000000000000000000000000000000000000000000000000000000000000000000000000000000000000000000000000
310
00000000000000000000000000000000000000000000000000000000000000000000000000000000000000000000000000000000000000000000000000000000000000000000000000000000000000000000000000000000000000000000000000000000000000000000000000000000000000000000000000000000000000
310
00000000000000000000000000000000000000000000000000000000000000000000000000000000000000000000000000000000000000000000000000000000000000000000000000000000000000000000000000000000000000000000000000000000000000000000000000000000000000000000000000000000000000
310
00000000000000000000000000000000000000000000000000000000000000000000000000000000000000000000000000000000000000000000000000000000000000000000000000000000000000000000000000000000000000000000000000000000000000000000000000000000000000000000000000000000000000
310
00000000000000000000000000000000000000000000000000000000000000000000000000000000000000000000000000000000000000000000000000000000000000000000000000000000000000000000000000000000000000000000000000000000000000000000000000000000000000000000000000000000000000
310
00000000000000000000000000000000000000000000000000000000000000000000000000000000000000000000000000000000000000000000000000000000000000000000000000000000000000000000000000000000000000000000000000000000000000000000000000000000000000000000000000000000000000
310
00000000000000000000000000000000000000000000000000000000000000000000000000000000000000000000000000000000000000000000000000000000000000000000000000000000000000000000000000000000000000000000000000000000000000000000000000000000000000000000000000000000000000
310
00000000000000000000000000000000000000000000000000000000000000000000000000000000000000000000000000000000000000000000000000000000000000000000000000000000000000000000000000000000000000000000000000000000000000000000000000000000000000000000000000000000000000
310
00000000000000000000000000000000000000000000000000000000000000000000000000000000000000000000000000000000000000000000000000000000000000000000000000000000000000000000000000000000000000000000000000000000000000000000000000000000000000000000000000000000000000
310
00000000000000000000000000000000000000000000000000000000000000000000000000000000000000000000000000000000000000000000000000000000000000000000000000000000000000000000000000000000000000000000000000000000000000000000000000000000000000000000000000000000000000
310
00000000000000000000000000000000000000000000000000000000000000000000000000000000000000000000000000000000000000000000000000000000000000000000000000000000000000000000000000000000000000000000000000000000000000000000000000000000000000000000000000000000000000
310
00000000000000000000000000000000000000000000000000000000000000000000000000000000000000000000000000000000000000000000000000000000000000000000000000000000000000000000000000000000000000000000000000000000000000000000000000000000000000000000000000000000000000
310
00000000000000000000000000000000000000000000000000000000000000000000000000000000000000000000000000000000000000000000000000000000000000000000000000000000000000000000000000000000000000000000000000000000000000000000000000000000000000000000000000000000000000
310
00000000000000000000000000000000000000000000000000000000000000000000000000000000000000000000000000000000000000000000000000000000000000000000000000000000000000000000000000000000000000000000000000000000000000000000000000000000000000000000000000000000000000
310
00000000000000000000000000000000000000000000000000000000000000000000000000000000000000000000000000000000000000000000000000000000000000000000000000000000000000000000000000000000000000000000000000000000000000000000000000000000000000000000000000000000000000
310
00000000000000000000000000000000000000000000000000000000000000000000000000000000000000000000000000000000000000000000000000000000000000000000000000000000000000000000000000000000000000000000000000000000000000000000000000000000000000000000000000000000000000
310
00000000000000000000000000000000000000000000000000000000000000000000000000000000000000000000000000000000000000000000000000000000000000000000000000000000000000000000000000000000000000000000000000000000000000000000000000000000000000000000000000000000000000
310
00000000000000000000000000000000000000000000000000000000000000000000000000000000000000000000000000000000000000000000000000000000000000000000000000000000000000000000000000000000000000000000000000000000000000000000000000000000000000000000000000000000000000
310
00000000000000000000000000000000000000000000000000000000000000000000000000000000000000000000000000000000000000000000000000000000000000000000000000000000000000000000000000000000000000000000000000000000000000000000000000000000000000000000000000000000000000
310
00000000000000000000000000000000000000000000000000000000000000000000000000000000000000000000000000000000000000000000000000000000000000000000000000000000000000000000000000000000000000000000000000000000000000000000000000000000000000000000000000000000000000
310
00000000000000000000000000000000000000000000000000000000000000000000000000000000000000000000000000000000000000000000000000000000000000000000000000000000000000000000000000000000000000000000000000000000000000000000000000000000000000000000000000000000000000
310
00000000000000000000000000000000000000000000000000000000000000000000000000000000000000000000000000000000000000000000000000000000000000000000000000000000000000000000000000000000000000000000000000000000000000000000000000000000000000000000000000000000000000
310
00000000000000000000000000000000000000000000000000000000000000000000000000000000000000000000000000000000000000000000000000000000000000000000000000000000000000000000000000000000000000000000000000000000000000000000000000000000000000000000000000000000000000
310
00000000000000000000000000000000000000000000000000000000000000000000000000000000000000000000000000000000000000000000000000000000000000000000000000000000000000000000000000000000000000000000000000000000000000000000000000000000000000000000000000000000000000
310
00000000000000000000000000000000000000000000000000000000000000000000000000000000000000000000000000000000000000000000000000000000000000000000000000000000000000000000000000000000000000000000000000000000000000000000000000000000000000000000000000000000000000
310
00000000000000000000000000000000000000000000000000000000000000000000000000000000000000000000000000000000000000000000000000000000000000000000000000000000000000000000000000000000000000000000000000000000000000000000000000000000000000000000000000000000000000
310
00000000000000000000000000000000000000000000000000000000000000000000000000000000000000000000000000000000000000000000000000000000000000000000000000000000000000000000000000000000000000000000000000000000000000000000000000000000000000000000000000000000000000
310
00000000000000000000000000000000000000000000000000000000000000000000000000000000000000000000000000000000000000000000000000000000000000000000000000000000000000000000000000000000000000000000000000000000000000000000000000000000000000000000000000000000000000
310
00000000000000000000000000000000000000000000000000000000000000000000000000000000000000000000000000000000000000000000000000000000000000000000000000000000000000000000000000000000000000000000000000000000000000000000000000000000000000000000000000000000000000
310
00000000000000000000000000000000000000000000000000000000000000000000000000000000000000000000000000000000000000000000000000000000000000000000000000000000000000000000000000000000000000000000000000000000000000000000000000000000000000000000000000000000000000
310
00000000000000000000000000000000000000000000000000000000000000000000000000000000000000000000000000000000000000000000000000000000000000000000000000000000000000000000000000000000000000000000000000000000000000000000000000000000000000000000000000000000000000
310
00000000000000000000000000000000000000000000000000000000000000000000000000000000000000000000000000000000000000000000000000000000000000000000000000000000000000000000000000000000000000000000000000000000000000000000000000000000000000000000000000000000000000
310
00000000000000000000000000000000000000000000000000000000000000000000000000000000000000000000000000000000000000000000000000000000000000000000000000000000000000000000000000000000000000000000000000000000000000000000000000000000000000000000000000000000000000
310
00000000000000000000000000000000000000000000000000000000000000000000000000000000000000000000000000000000000000000000000000000000000000000000000000000000000000000000000000000000000000000000000000000000000000000000000000000000000000000000000000000000000000
310
00000000000000000000000000000000000000000000000000000000000000000000000000000000000000000000000000000000000000000000000000000000000000000000000000000000000000000000000000000000000000000000000000000000000000000000000000000000000000000000000000000000000000
310
00000000000000000000000000000000000000000000000000000000000000000000000000000000000000000000000000000000000000000000000000000000000000000000000000000000000000000000000000000000000000000000000000000000000000000000000000000000000000000000000000000000000000
310
00000000000000000000000000000000000000000000000000000000000000000000000000000000000000000000000000000000000000000000000000000000000000000000000000000000000000000000000000000000000000000000000000000000000000000000000000000000000000000000000000000000000000
310
00000000000000000000000000000000000000000000000000000000000000000000000000000000000000000000000000000000000000000000000000000000000000000000000000000000000000000000000000000000000000000000000000000000000000000000000000000000000000000000000000000000000000
310
00000000000000000000000000000000000000000000000000000000000000000000000000000000000000000000000000000000000000000000000000000000000000000000000000000000000000000000000000000000000000000000000000000000000000000000000000000000000000000000000000000000000000
310
00000000000000000000000000000000000000000000000000000000000000000000000000000000000000000000000000000000000000000000000000000000000000000000000000000000000000000000000000000000000000000000000000000000000000000000000000000000000000000000000000000000000000
310
00000000000000000000000000000000000000000000000000000000000000000000000000000000000000000000000000000000000000000000000000000000000000000000000000000000000000000000000000000000000000000000000000000000000000000000000000000000000000000000000000000000000000
310
00000000000000000000000000000000000000000000000000000000000000000000000000000000000000000000000000000000000000000000000000000000000000000000000000000000000000000000000000000000000000000000000000000000000000000000000000000000000000000000000000000000000000
310
00000000000000000000000000000000000000000000000000000000000000000000000000000000000000000000000000000000000000000000000000000000000000000000000000000000000000000000000000000000000000000000000000000000000000000000000000000000000000000000000000000000000000
310
00000000000000000000000000000000000000000000000000000000000000000000000000000000000000000000000000000000000000000000000000000000000000000000000000000000000000000000000000000000000000000000000000000000000000000000000000000000000000000000000000000000000000
310
00000000000000000000000000000000000000000000000000000000000000000000000000000000000000000000000000000000000000000000000000000000000000000000000000000000000000000000000000000000000000000000000000000000000000000000000000000000000000000000000000000000000000
310
00000000000000000000000000000000000000000000000000000000000000000000000000000000000000000000000000000000000000000000000000000000000000000000000000000000000000000000000000000000000000000000000000000000000000000000000000000000000000000000000000000000000000
310
00000000000000000000000000000000000000000000000000000000000000000000000000000000000000000000000000000000000000000000000000000000000000000000000000000000000000000000000000000000000000000000000000000000000000000000000000000000000000000000000000000000000000
310
00000000000000000000000000000000000000000000000000000000000000000000000000000000000000000000000000000000000000000000000000000000000000000000000000000000000000000000000000000000000000000000000000000000000000000000000000000000000000000000000000000000000000
310
00000000000000000000000000000000000000000000000000000000000000000000000000000000000000000000000000000000000000000000000000000000000000000000000000000000000000000000000000000000000000000000000000000000000000000000000000000000000000000000000000000000000000
310
00000000000000000000000000000000000000000000000000000000000000000000000000000000000000000000000000000000000000000000000000000000000000000000000000000000000000000000000000000000000000000000000000000000000000000000000000000000000000000000000000000000000000
310
00000000000000000000000000000000000000000000000000000000000000000000000000000000000000000000000000000000000000000000000000000000000000000000000000000000000000000000000000000000000000000000000000000000000000000000000000000000000000000000000000000000000000
310
00000000000000000000000000000000000000000000000000000000000000000000000000000000000000000000000000000000000000000000000000000000000000000000000000000000000000000000000000000000000000000000000000000000000000000000000000000000000000000000000000000000000000
310
00000000000000000000000000000000000000000000000000000000000000000000000000000000000000000000000000000000000000000000000000000000000000000000000000000000000000000000000000000000000000000000000000000000000000000000000000000000000000000000000000000000000000
310
00000000000000000000000000000000000000000000000000000000000000000000000000000000000000000000000000000000000000000000000000000000000000000000000000000000000000000000000000000000000000000000000000000000000000000000000000000000000000000000000000000000000000
310
00000000000000000000000000000000000000000000000000000000000000000000000000000000000000000000000000000000000000000000000000000000000000000000000000000000000000000000000000000000000000000000000000000000000000000000000000000000000000000000000000000000000000
310
00000000000000000000000000000000000000000000000000000000000000000000000000000000000000000000000000000000000000000000000000000000000000000000000000000000000000000000000000000000000000000000000000000000000000000000000000000000000000000000000000000000000000
310
00000000000000000000000000000000000000000000000000000000000000000000000000000000000000000000000000000000000000000000000000000000000000000000000000000000000000000000000000000000000000000000000000000000000000000000000000000000000000000000000000000000000000
310
00000000000000000000000000000000000000000000000000000000000000000000000000000000000000000000000000000000000000000000000000000000000000000000000000000000000000000000000000000000000000000000000000000000000000000000000000000000000000000000000000000000000000
310
00000000000000000000000000000000000000000000000000000000000000000000000000000000000000000000000000000000000000000000000000000000000000000000000000000000000000000000000000000000000000000000000000000000000000000000000000000000000000000000000000000000000000
310
00000000000000000000000000000000000000000000000000000000000000000000000000000000000000000000000000000000000000000000000000000000000000000000000000000000000000000000000000000000000000000000000000000000000000000000000000000000000000000000000000000000000000
310
00000000000000000000000000000000000000000000000000000000000000000000000000000000000000000000000000000000000000000000000000000000000000000000000000000000000000000000000000000000000000000000000000000000000000000000000000000000000000000000000000000000000000
310
00000000000000000000000000000000000000000000000000000000000000000000000000000000000000000000000000000000000000000000000000000000000000000000000000000000000000000000000000000000000000000000000000000000000000000000000000000000000000000000000000000000000000
310
00000000000000000000000000000000000000000000000000000000000000000000000000000000000000000000000000000000000000000000000000000000000000000000000000000000000000000000000000000000000000000000000000000000000000000000000000000000000000000000000000000000000000
310
00000000000000000000000000000000000000000000000000000000000000000000000000000000000000000000000000000000000000000000000000000000000000000000000000000000000000000000000000000000000000000000000000000000000000000000000000000000000000000000000000000000000000
310
00000000000000000000000000000000000000000000000000000000000000000000000000000000000000000000000000000000000000000000000000000000000000000000000000000000000000000000000000000000000000000000000000000000000000000000000000000000000000000000000000000000000000
310
00000000000000000000000000000000000000000000000000000000000000000000000000000000000000000000000000000000000000000000000000000000000000000000000000000000000000000000000000000000000000000000000000000000000000000000000000000000000000000000000000000000000000
310
00000000000000000000000000000000000000000000000000000000000000000000000000000000000000000000000000000000000000000000000000000000000000000000000000000000000000000000000000000000000000000000000000000000000000000000000000000000000000000000000000000000000000
310
00000000000000000000000000000000000000000000000000000000000000000000000000000000000000000000000000000000000000000000000000000000000000000000000000000000000000000000000000000000000000000000000000000000000000000000000000000000000000000000000000000000000000
310
00000000000000000000000000000000000000000000000000000000000000000000000000000000000000000000000000000000000000000000000000000000000000000000000000000000000000000000000000000000000000000000000000000000000000000000000000000000000000000000000000000000000000
310
00000000000000000000000000000000000000000000000000000000000000000000000000000000000000000000000000000000000000000000000000000000000000000000000000000000000000000000000000000000000000000000000000000000000000000000000000000000000000000000000000000000000000
310
00000000000000000000000000000000000000000000000000000000000000000000000000000000000000000000000000000000000000000000000000000000000000000000000000000000000000000000000000000000000000000000000000000000000000000000000000000000000000000000000000000000000000
310
00000000000000000000000000000000000000000000000000000000000000000000000000000000000000000000000000000000000000000000000000000000000000000000000000000000000000000000000000000000000000000000000000000000000000000000000000000000000000000000000000000000000000
310
00000000000000000000000000000000000000000000000000000000000000000000000000000000000000000000000000000000000000000000000000000000000000000000000000000000000000000000000000000000000000000000000000000000000000000000000000000000000000000000000000000000000000
310
00000000000000000000000000000000000000000000000000000000000000000000000000000000000000000000000000000000000000000000000000000000000000000000000000000000000000000000000000000000000000000000000000000000000000000000000000000000000000000000000000000000000000
310
00000000000000000000000000000000000000000000000000000000000000000000000000000000000000000000000000000000000000000000000000000000000000000000000000000000000000000000000000000000000000000000000000000000000000000000000000000000000000000000000000000000000000
310
00000000000000000000000000000000000000000000000000000000000000000000000000000000000000000000000000000000000000000000000000000000000000000000000000000000000000000000000000000000000000000000000000000000000000000000000000000000000000000000000000000000000000
310
00000000000000000000000000000000000000000000000000000000000000000000000000000000000000000000000000000000000000000000000000000000000000000000000000000000000000000000000000000000000000000000000000000000000000000000000000000000000000000000000000000000000000
310
00000000000000000000000000000000000000000000000000000000000000000000000000000000000000000000000000000000000000000000000000000000000000000000000000000000000000000000000000000000000000000000000000000000000000000000000000000000000000000000000000000000000000
310
00000000000000000000000000000000000000000000000000000000000000000000000000000000000000000000000000000000000000000000000000000000000000000000000000000000000000000000000000000000000000000000000000000000000000000000000000000000000000000000000000000000000000
310
00000000000000000000000000000000000000000000000000000000000000000000000000000000000000000000000000000000000000000000000000000000000000000000000000000000000000000000000000000000000000000000000000000000000000000000000000000000000000000000000000000000000000
310
00000000000000000000000000000000000000000000000000000000000000000000000000000000000000000000000000000000000000000000000000000000000000000000000000000000000000000000000000000000000000000000000000000000000000000000000000000000000000000000000000000000000000
310
00000000000000000000000000000000000000000000000000000000000000000000000000000000000000000000000000000000000000000000000000000000000000000000000000000000000000000000000000000000000000000000000000000000000000000000000000000000000000000000000000000000000000
310
00000000000000000000000000000000000000000000000000000000000000000000000000000000000000000000000000000000000000000000000000000000000000000000000000000000000000000000000000000000000000000000000000000000000000000000000000000000000000000000000000000000000000
310
00000000000000000000000000000000000000000000000000000000000000000000000000000000000000000000000000000000000000000000000000000000000000000000000000000000000000000000000000000000000000000000000000000000000000000000000000000000000000000000000000000000000000
310
00000000000000000000000000000000000000000000000000000000000000000000000000000000000000000000000000000000000000000000000000000000000000000000000000000000000000000000000000000000000000000000000000000000000000000000000000000000000000000000000000000000000000
310
00000000000000000000000000000000000000000000000000000000000000000000000000000000000000000000000000000000000000000000000000000000000000000000000000000000000000000000000000000000000000000000000000000000000000000000000000000000000000000000000000000000000000
310
00000000000000000000000000000000000000000000000000000000000000000000000000000000000000000000000000000000000000000000000000000000000000000000000000000000000000000000000000000000000000000000000000000000000000000000000000000000000000000000000000000000000000
310
00000000000000000000000000000000000000000000000000000000000000000000000000000000000000000000000000000000000000000000000000000000000000000000000000000000000000000000000000000000000000000000000000000000000000000000000000000000000000000000000000000000000000
310
00000000000000000000000000000000000000000000000000000000000000000000000000000000000000000000000000000000000000000000000000000000000000000000000000000000000000000000000000000000000000000000000000000000000000000000000000000000000000000000000000000000000000
310
00000000000000000000000000000000000000000000000000000000000000000000000000000000000000000000000000000000000000000000000000000000000000000000000000000000000000000000000000000000000000000000000000000000000000000000000000000000000000000000000000000000000000
310
00000000000000000000000000000000000000000000000000000000000000000000000000000000000000000000000000000000000000000000000000000000000000000000000000000000000000000000000000000000000000000000000000000000000000000000000000000000000000000000000000000000000000
310
00000000000000000000000000000000000000000000000000000000000000000000000000000000000000000000000000000000000000000000000000000000000000000000000000000000000000000000000000000000000000000000000000000000000000000000000000000000000000000000000000000000000000
310
00000000000000000000000000000000000000000000000000000000000000000000000000000000000000000000000000000000000000000000000000000000000000000000000000000000000000000000000000000000000000000000000000000000000000000000000000000000000000000000000000000000000000
310
00000000000000000000000000000000000000000000000000000000000000000000000000000000000000000000000000000000000000000000000000000000000000000000000000000000000000000000000000000000000000000000000000000000000000000000000000000000000000000000000000000000000000
310
00000000000000000000000000000000000000000000000000000000000000000000000000000000000000000000000000000000000000000000000000000000000000000000000000000000000000000000000000000000000000000000000000000000000000000000000000000000000000000000000000000000000000
310
00000000000000000000000000000000000000000000000000000000000000000000000000000000000000000000000000000000000000000000000000000000000000000000000000000000000000000000000000000000000000000000000000000000000000000000000000000000000000000000000000000000000000
310
00000000000000000000000000000000000000000000000000000000000000000000000000000000000000000000000000000000000000000000000000000000000000000000000000000000000000000000000000000000000000000000000000000000000000000000000000000000000000000000000000000000000000
310
00000000000000000000000000000000000000000000000000000000000000000000000000000000000000000000000000000000000000000000000000000000000000000000000000000000000000000000000000000000000000000000000000000000000000000000000000000000000000000000000000000000000000
310
00000000000000000000000000000000000000000000000000000000000000000000000000000000000000000000000000000000000000000000000000000000000000000000000000000000000000000000000000000000000000000000000000000000000000000000000000000000000000000000000000000000000000
310
00000000000000000000000000000000000000000000000000000000000000000000000000000000000000000000000000000000000000000000000000000000000000000000000000000000000000000000000000000000000000000000000000000000000000000000000000000000000000000000000000000000000000
310
00000000000000000000000000000000000000000000000000000000000000000000000000000000000000000000000000000000000000000000000000000000000000000000000000000000000000000000000000000000000000000000000000000000000000000000000000000000000000000000000000000000000000
310
00000000000000000000000000000000000000000000000000000000000000000000000000000000000000000000000000000000000000000000000000000000000000000000000000000000000000000000000000000000000000000000000000000000000000000000000000000000000000000000000000000000000000
310
00000000000000000000000000000000000000000000000000000000000000000000000000000000000000000000000000000000000000000000000000000000000000000000000000000000000000000000000000000000000000000000000000000000000000000000000000000000000000000000000000000000000000
310
00000000000000000000000000000000000000000000000000000000000000000000000000000000000000000000000000000000000000000000000000000000000000000000000000000000000000000000000000000000000000000000000000000000000000000000000000000000000000000000000000000000000000
310
00000000000000000000000000000000000000000000000000000000000000000000000000000000000000000000000000000000000000000000000000000000000000000000000000000000000000000000000000000000000000000000000000000000000000000000000000000000000000000000000000000000000000
310
00000000000000000000000000000000000000000000000000000000000000000000000000000000000000000000000000000000000000000000000000000000000000000000000000000000000000000000000000000000000000000000000000000000000000000000000000000000000000000000000000000000000000
310
00000000000000000000000000000000000000000000000000000000000000000000000000000000000000000000000000000000000000000000000000000000000000000000000000000000000000000000000000000000000000000000000000000000000000000000000000000000000000000000000000000000000000
310
00000000000000000000000000000000000000000000000000000000000000000000000000000000000000000000000000000000000000000000000000000000000000000000000000000000000000000000000000000000000000000000000000000000000000000000000000000000000000000000000000000000000000
310
00000000000000000000000000000000000000000000000000000000000000000000000000000000000000000000000000000000000000000000000000000000000000000000000000000000000000000000000000000000000000000000000000000000000000000000000000000000000000000000000000000000000000
310
00000000000000000000000000000000000000000000000000000000000000000000000000000000000000000000000000000000000000000000000000000000000000000000000000000000000000000000000000000000000000000000000000000000000000000000000000000000000000000000000000000000000000
310
00000000000000000000000000000000000000000000000000000000000000000000000000000000000000000000000000000000000000000000000000000000000000000000000000000000000000000000000000000000000000000000000000000000000000000000000000000000000000000000000000000000000000
310
0000000000000000000000000000000000000000000000000000000000000000000000000000000000000000000000000000000000000000000000000000000000000000000000000000000000000000000000000000000000000000000000000000
  0
XRECORD
  5
3AF3
102
{ACAD_REACTORS
330
3AF1
102
}
330
3AF1
100
AcDbXrecord
280
     1
270
     1
271
     1
  0
XRECORD
  5
3AF2
102
{ACAD_REACTORS
330
3AF1
102
}
330
3AF1
100
AcDbXrecord
280
     1
270
     1
271
     1
  0
XRECORD
  5
3AF6
102
{ACAD_REACTORS
330
3AF1
102
}
330
3AF1
100
AcDbXrecord
280
     1
270
     1
271
     1
  0
XRECORD
  5
3AF5
102
{ACAD_REACTORS
330
3AF1
102
}
330
3AF1
100
AcDbXrecord
280
     1
270
     1
271
     1
  0
XRECORD
  5
3AF7
102
{ACAD_REACTORS
330
3AF1
102
}
330
3AF1
100
AcDbXrecord
280
     1
270
     1
271
     1
  0
XRECORD
  5
3AF4
102
{ACAD_REACTORS
330
3AF1
102
}
330
3AF1
100
AcDbXrecord
280
     1
270
     1
271
     1
  0
XRECORD
  5
3AEB
102
{ACAD_REACTORS
330
3AE9
102
}
330
3AE9
100
AcDbXrecord
280
     1
270
     1
271
     1
  0
XRECORD
  5
3AEA
102
{ACAD_REACTORS
330
3AE9
102
}
330
3AE9
100
AcDbXrecord
280
     1
270
     1
271
     1
  0
XRECORD
  5
3AEE
102
{ACAD_REACTORS
330
3AE9
102
}
330
3AE9
100
AcDbXrecord
280
     1
270
     1
271
     1
  0
XRECORD
  5
3AED
102
{ACAD_REACTORS
330
3AE9
102
}
330
3AE9
100
AcDbXrecord
280
     1
270
     1
271
     1
  0
XRECORD
  5
3AEF
102
{ACAD_REACTORS
330
3AE9
102
}
330
3AE9
100
AcDbXrecord
280
     1
270
     1
271
     1
  0
XRECORD
  5
3AEC
102
{ACAD_REACTORS
330
3AE9
102
}
330
3AE9
100
AcDbXrecord
280
     1
270
     1
271
     1
  0
XRECORD
  5
3AFB
102
{ACAD_REACTORS
330
3AF9
102
}
330
3AF9
100
AcDbXrecord
280
     1
270
     1
271
     1
  0
XRECORD
  5
3AFA
102
{ACAD_REACTORS
330
3AF9
102
}
330
3AF9
100
AcDbXrecord
280
     1
270
     1
271
     1
  0
XRECORD
  5
3AFE
102
{ACAD_REACTORS
330
3AF9
102
}
330
3AF9
100
AcDbXrecord
280
     1
270
     1
271
     1
  0
XRECORD
  5
3AFD
102
{ACAD_REACTORS
330
3AF9
102
}
330
3AF9
100
AcDbXrecord
280
     1
270
     1
271
     1
  0
XRECORD
  5
3AFF
102
{ACAD_REACTORS
330
3AF9
102
}
330
3AF9
100
AcDbXrecord
280
     1
270
     1
271
     1
  0
XRECORD
  5
3AFC
102
{ACAD_REACTORS
330
3AF9
102
}
330
3AF9
100
AcDbXrecord
280
     1
270
     1
271
     1
  0
XRECORD
  5
7B34
102
{ACAD_REACTORS
330
7B33
102
}
330
7B33
100
AcDbXrecord
280
     1
102
ACAD_ROUNDTRIP_2012_MLEADER_STYLE
298
     1
  0
XRECORD
  5
7B36
102
{ACAD_REACTORS
330
7B35
102
}
330
7B35
100
AcDbXrecord
280
     1
102
DISPLAYNAME
  1
Imperial24
102
FLAGS
 90
        0
  0
CELLSTYLEMAP
  5
7B01
102
{ACAD_REACTORS
330
3DA9
102
}
330
3DA9
100
AcDbCellStyleMap
 90
        3
300
CELLSTYLE
  1
TABLEFORMAT_BEGIN
 90
        5
170
     1
 91
        0
 92
    32768
 62
   257
 93
        1
300
CONTENTFORMAT
  1
CONTENTFORMAT_BEGIN
 90
        0
 91
        0
 92
      512
 93
        0
300

 40
0.0
140
1.0
 94
        5
 62
     0
340
11
144
0.25
309
CONTENTFORMAT_END
171
     0
 94
        0
309
TABLEFORMAT_END
  1
CELLSTYLE_BEGIN
 90
        1
 91
        1
300
_TITLE
309
CELLSTYLE_END
300
CELLSTYLE
  1
TABLEFORMAT_BEGIN
 90
        5
170
     1
 91
        0
 92
        0
 62
   257
 93
        1
300
CONTENTFORMAT
  1
CONTENTFORMAT_BEGIN
 90
        0
 91
        0
 92
      512
 93
        0
300

 40
0.0
140
1.0
 94
        5
 62
     0
340
11
144
0.18
309
CONTENTFORMAT_END
171
     0
 94
        0
309
TABLEFORMAT_END
  1
CELLSTYLE_BEGIN
 90
        2
 91
        1
300
_HEADER
309
CELLSTYLE_END
300
CELLSTYLE
  1
TABLEFORMAT_BEGIN
 90
        5
170
     1
 91
        0
 92
        0
 62
   257
 93
        1
300
CONTENTFORMAT
  1
CONTENTFORMAT_BEGIN
 90
        0
 91
        0
 92
      512
 93
        0
300

 40
0.0
140
1.0
 94
        2
 62
     0
340
11
144
0.18
309
CONTENTFORMAT_END
171
     0
 94
        0
309
TABLEFORMAT_END
  1
CELLSTYLE_BEGIN
 90
        3
 91
        2
300
_DATA
309
CELLSTYLE_END
  0
XRECORD
  5
7B0E
102
{ACAD_REACTORS
330
7B0D
102
}
330
7B0D
100
AcDbXrecord
280
     1
102
RTVSPost2010Prop28
280
     1
102
RTVSPost2010PropOp28
 70
     1
102
RTVSPost2010Prop29
280
     1
102
RTVSPost2010PropOp29
 70
     1
102
RTVSPost2010Prop30
280
     0
102
RTVSPost2010PropOp30
 70
     1
102
RTVSPost2010Prop31
280
     0
102
RTVSPost2010PropOp31
 70
     1
102
RTVSPost2010Prop32
280
     0
102
RTVSPost2010PropOp32
 70
     1
102
RTVSPost2010Prop33
280
     0
102
RTVSPost2010PropOp33
 70
     1
102
RTVSPost2010Prop34
280
     0
102
RTVSPost2010PropOp34
 70
     1
102
RTVSPost2010Prop35
280
     0
102
RTVSPost2010PropOp35
 70
     1
102
RTVSPost2010Prop36
280
     0
102
RTVSPost2010PropOp36
 70
     1
102
RTVSPost2010Prop37
 90
       50
102
RTVSPost2010PropOp37
 70
     1
102
RTVSPost2010Prop38
140
0.0
102
RTVSPost2010PropOp38
 70
     1
102
RTVSPost2010Prop39
140
1.0
102
RTVSPost2010PropOp39
 70
     1
102
RTVSPost2010Prop40
 90
        0
102
RTVSPost2010PropOp40
 70
     1
102
RTVSPost2010Prop41ColorIndex
 90
       18
102
RTVSPost2010Prop41ColorRGB
 90
        0
102
RTVSPost2010PropOp41
 70
     1
102
RTVSPost2010Prop42
 90
       50
102
RTVSPost2010PropOp42
 70
     1
102
RTVSPost2010Prop43
 90
        3
102
RTVSPost2010PropOp43
 70
     1
102
RTVSPost2010Prop44ColorIndex
 90
        5
102
RTVSPost2010Prop44ColorRGB
 90
      255
102
RTVSPost2010PropOp44
 70
     1
102
RTVSPost2010Prop45
280
     0
102
RTVSPost2010PropOp45
 70
     1
102
RTVSPost2010Prop46
 90
       50
102
RTVSPost2010PropOp46
 70
     1
102
RTVSPost2010Prop47
 90
       50
102
RTVSPost2010PropOp47
 70
     1
102
RTVSPost2010Prop48
 90
       50
102
RTVSPost2010PropOp48
 70
     1
102
RTVSPost2010Prop49
280
     0
102
RTVSPost2010PropOp49
 70
     1
102
RTVSPost2010Prop50
 90
       50
102
RTVSPost2010PropOp50
 70
     1
102
RTVSPost2010Prop51ColorIndex
 90
      256
102
RTVSPost2010Prop51ColorRGB
 90
-16777216
102
RTVSPost2010PropOp51
 70
     0
102
RTVSPost2010Prop52
140
1.0
102
RTVSPost2010PropOp52
 70
     0
102
RTVSPost2010Prop53
 90
        2
102
RTVSPost2010PropOp53
 70
     1
102
RTVSPost2010Prop54
  1
strokes_ogs.tif
102
RTVSPost2010PropOp54
 70
     1
102
RTVSPost2010Prop55
280
     0
102
RTVSPost2010PropOp55
 70
     1
102
RTVSPost2010Prop56
140
1.0
102
RTVSPost2010PropOp56
 70
     1
102
RTVSPost2010Prop57
140
1.0
102
RTVSPost2010PropOp57
 70
     1
102
RTVSPropertyOp0
 70
     1
102
RTVSPropertyOp1
 70
     1
102
RTVSPropertyOp2
 70
     1
102
RTVSPropertyOp3
 70
     1
102
RTVSPropertyOp4
 70
     1
102
RTVSPropertyOp5
 70
     1
102
RTVSPropertyOp6
 70
     1
102
RTVSPropertyOp7
 70
     1
102
RTVSPropertyOp8
 70
     1
102
RTVSPropertyOp9
 70
     1
102
RTVSPropertyOp10
 70
     1
102
RTVSPropertyOp11
 70
     1
102
RTVSPropertyOp12
 70
     1
102
RTVSPropertyOp13
 70
     1
102
RTVSPropertyOp14
 70
     1
102
RTVSPropertyOp15
 70
     1
102
RTVSPropertyOp16
 70
     1
102
RTVSPropertyOp17
 70
     1
102
RTVSPropertyOp18
 70
     1
102
RTVSPropertyOp19
 70
     1
102
RTVSPropertyOp20
 70
     1
102
RTVSPropertyOp21
 70
     1
102
RTVSPropertyOp22
 70
     1
102
RTVSPropertyOp23
 70
     1
102
RTVSPropertyOp24
 70
     1
102
RTVSPropertyOp25
 70
     1
102
RTVSPropertyOp26
 70
     1
102
RTVSPropertyOp27
 70
     1
102
RTVSPropertyOp28
 70
     1
102
RTVSPropertyOp29
 70
     1
102
RTVSPropertyOp30
 70
     1
102
RTVSPropertyOp31
 70
     1
102
RTVSPropertyOp32
 70
     1
102
RTVSPropertyOp33
 70
     1
102
RTVSPropertyOp34
 70
     1
102
RTVSPropertyOp35
 70
     1
102
RTVSPropertyOp36
 70
     1
102
RTVSPropertyOp37
 70
     1
102
RTVSPropertyOp38
 70
     1
102
RTVSPropertyOp39
 70
     1
102
RTVSPropertyOp40
 70
     1
102
RTVSPropertyOp41
 70
     1
102
RTVSPropertyOp42
 70
     1
102
RTVSPropertyOp43
 70
     1
102
RTVSPropertyOp44
 70
     1
102
RTVSPropertyOp45
 70
     1
102
RTVSPropertyOp46
 70
     1
102
RTVSPropertyOp47
 70
     1
102
RTVSPropertyOp48
 70
     1
102
RTVSPropertyOp49
 70
     1
102
RTVSPropertyOp50
 70
     1
102
RTVSPropertyOp51
 70
     0
102
RTVSPropertyOp52
 70
     0
102
RTVSPropertyOp53
 70
     1
102
RTVSPropertyOp54
 70
     1
102
RTVSPropertyOp55
 70
     1
102
RTVSPropertyOp56
 70
     1
102
RTVSPropertyOp57
 70
     1
102
RTVSPropertyOp58
 70
     1
102
RTVSPropertyOp59
 70
     1
102
RTVSPropertyOp60
 70
     1
102
RTVSPropertyOp61
 70
     1
102
RTVSPropertyOp62
 70
     1
  0
XRECORD
  5
7B0C
102
{ACAD_REACTORS
330
7B0B
102
}
330
7B0B
100
AcDbXrecord
280
     1
102
RTVSPost2010Prop28
280
     0
102
RTVSPost2010PropOp28
 70
     1
102
RTVSPost2010Prop29
280
     1
102
RTVSPost2010PropOp29
 70
     1
102
RTVSPost2010Prop30
280
     1
102
RTVSPost2010PropOp30
 70
     1
102
RTVSPost2010Prop31
280
     0
102
RTVSPost2010PropOp31
 70
     1
102
RTVSPost2010Prop32
280
     0
102
RTVSPost2010PropOp32
 70
     1
102
RTVSPost2010Prop33
280
     0
102
RTVSPost2010PropOp33
 70
     1
102
RTVSPost2010Prop34
280
     0
102
RTVSPost2010PropOp34
 70
     1
102
RTVSPost2010Prop35
280
     0
102
RTVSPost2010PropOp35
 70
     1
102
RTVSPost2010Prop36
280
     0
102
RTVSPost2010PropOp36
 70
     1
102
RTVSPost2010Prop37
 90
       50
102
RTVSPost2010PropOp37
 70
     1
102
RTVSPost2010Prop38
140
0.0
102
RTVSPost2010PropOp38
 70
     1
102
RTVSPost2010Prop39
140
1.0
102
RTVSPost2010PropOp39
 70
     1
102
RTVSPost2010Prop40
 90
        0
102
RTVSPost2010PropOp40
 70
     1
102
RTVSPost2010Prop41ColorIndex
 90
       18
102
RTVSPost2010Prop41ColorRGB
 90
        0
102
RTVSPost2010PropOp41
 70
     1
102
RTVSPost2010Prop42
 90
       50
102
RTVSPost2010PropOp42
 70
     1
102
RTVSPost2010Prop43
 90
        3
102
RTVSPost2010PropOp43
 70
     1
102
RTVSPost2010Prop44ColorIndex
 90
        5
102
RTVSPost2010Prop44ColorRGB
 90
      255
102
RTVSPost2010PropOp44
 70
     1
102
RTVSPost2010Prop45
280
     0
102
RTVSPost2010PropOp45
 70
     1
102
RTVSPost2010Prop46
 90
       50
102
RTVSPost2010PropOp46
 70
     1
102
RTVSPost2010Prop47
 90
       50
102
RTVSPost2010PropOp47
 70
     1
102
RTVSPost2010Prop48
 90
       50
102
RTVSPost2010PropOp48
 70
     1
102
RTVSPost2010Prop49
280
     0
102
RTVSPost2010PropOp49
 70
     1
102
RTVSPost2010Prop50
 90
       50
102
RTVSPost2010PropOp50
 70
     1
102
RTVSPost2010Prop51ColorIndex
 90
      256
102
RTVSPost2010Prop51ColorRGB
 90
-16777216
102
RTVSPost2010PropOp51
 70
     0
102
RTVSPost2010Prop52
140
1.0
102
RTVSPost2010PropOp52
 70
     0
102
RTVSPost2010Prop53
 90
        2
102
RTVSPost2010PropOp53
 70
     1
102
RTVSPost2010Prop54
  1
strokes_ogs.tif
102
RTVSPost2010PropOp54
 70
     1
102
RTVSPost2010Prop55
280
     0
102
RTVSPost2010PropOp55
 70
     1
102
RTVSPost2010Prop56
140
1.0
102
RTVSPost2010PropOp56
 70
     1
102
RTVSPost2010Prop57
140
1.0
102
RTVSPost2010PropOp57
 70
     1
102
RTVSPropertyOp0
 70
     1
102
RTVSPropertyOp1
 70
     1
102
RTVSPropertyOp2
 70
     1
102
RTVSPropertyOp3
 70
     1
102
RTVSPropertyOp4
 70
     1
102
RTVSPropertyOp5
 70
     1
102
RTVSPropertyOp6
 70
     1
102
RTVSPropertyOp7
 70
     1
102
RTVSPropertyOp8
 70
     1
102
RTVSPropertyOp9
 70
     1
102
RTVSPropertyOp10
 70
     1
102
RTVSPropertyOp11
 70
     1
102
RTVSPropertyOp12
 70
     1
102
RTVSPropertyOp13
 70
     1
102
RTVSPropertyOp14
 70
     1
102
RTVSPropertyOp15
 70
     1
102
RTVSPropertyOp16
 70
     1
102
RTVSPropertyOp17
 70
     1
102
RTVSPropertyOp18
 70
     1
102
RTVSPropertyOp19
 70
     1
102
RTVSPropertyOp20
 70
     1
102
RTVSPropertyOp21
 70
     1
102
RTVSPropertyOp22
 70
     1
102
RTVSPropertyOp23
 70
     1
102
RTVSPropertyOp24
 70
     1
102
RTVSPropertyOp25
 70
     1
102
RTVSPropertyOp26
 70
     1
102
RTVSPropertyOp27
 70
     1
102
RTVSPropertyOp28
 70
     1
102
RTVSPropertyOp29
 70
     1
102
RTVSPropertyOp30
 70
     1
102
RTVSPropertyOp31
 70
     1
102
RTVSPropertyOp32
 70
     1
102
RTVSPropertyOp33
 70
     1
102
RTVSPropertyOp34
 70
     1
102
RTVSPropertyOp35
 70
     1
102
RTVSPropertyOp36
 70
     1
102
RTVSPropertyOp37
 70
     1
102
RTVSPropertyOp38
 70
     1
102
RTVSPropertyOp39
 70
     1
102
RTVSPropertyOp40
 70
     1
102
RTVSPropertyOp41
 70
     1
102
RTVSPropertyOp42
 70
     1
102
RTVSPropertyOp43
 70
     1
102
RTVSPropertyOp44
 70
     1
102
RTVSPropertyOp45
 70
     1
102
RTVSPropertyOp46
 70
     1
102
RTVSPropertyOp47
 70
     1
102
RTVSPropertyOp48
 70
     1
102
RTVSPropertyOp49
 70
     1
102
RTVSPropertyOp50
 70
     1
102
RTVSPropertyOp51
 70
     0
102
RTVSPropertyOp52
 70
     0
102
RTVSPropertyOp53
 70
     1
102
RTVSPropertyOp54
 70
     1
102
RTVSPropertyOp55
 70
     1
102
RTVSPropertyOp56
 70
     1
102
RTVSPropertyOp57
 70
     1
102
RTVSPropertyOp58
 70
     1
102
RTVSPropertyOp59
 70
     1
102
RTVSPropertyOp60
 70
     1
102
RTVSPropertyOp61
 70
     1
102
RTVSPropertyOp62
 70
     1
  0
XRECORD
  5
7B1A
102
{ACAD_REACTORS
330
7B19
102
}
330
7B19
100
AcDbXrecord
280
     1
102
RTVSPost2010Prop28
280
     0
102
RTVSPost2010PropOp28
 70
     1
102
RTVSPost2010Prop29
280
     1
102
RTVSPost2010PropOp29
 70
     1
102
RTVSPost2010Prop30
280
     1
102
RTVSPost2010PropOp30
 70
     1
102
RTVSPost2010Prop31
280
     0
102
RTVSPost2010PropOp31
 70
     1
102
RTVSPost2010Prop32
280
     0
102
RTVSPost2010PropOp32
 70
     1
102
RTVSPost2010Prop33
280
     0
102
RTVSPost2010PropOp33
 70
     1
102
RTVSPost2010Prop34
280
     0
102
RTVSPost2010PropOp34
 70
     1
102
RTVSPost2010Prop35
280
     0
102
RTVSPost2010PropOp35
 70
     1
102
RTVSPost2010Prop36
280
     0
102
RTVSPost2010PropOp36
 70
     1
102
RTVSPost2010Prop37
 90
       50
102
RTVSPost2010PropOp37
 70
     1
102
RTVSPost2010Prop38
140
0.0
102
RTVSPost2010PropOp38
 70
     1
102
RTVSPost2010Prop39
140
1.0
102
RTVSPost2010PropOp39
 70
     1
102
RTVSPost2010Prop40
 90
        0
102
RTVSPost2010PropOp40
 70
     1
102
RTVSPost2010Prop41ColorIndex
 90
       18
102
RTVSPost2010Prop41ColorRGB
 90
        0
102
RTVSPost2010PropOp41
 70
     1
102
RTVSPost2010Prop42
 90
       50
102
RTVSPost2010PropOp42
 70
     1
102
RTVSPost2010Prop43
 90
        3
102
RTVSPost2010PropOp43
 70
     1
102
RTVSPost2010Prop44ColorIndex
 90
        5
102
RTVSPost2010Prop44ColorRGB
 90
      255
102
RTVSPost2010PropOp44
 70
     1
102
RTVSPost2010Prop45
280
     0
102
RTVSPost2010PropOp45
 70
     1
102
RTVSPost2010Prop46
 90
       50
102
RTVSPost2010PropOp46
 70
     1
102
RTVSPost2010Prop47
 90
       50
102
RTVSPost2010PropOp47
 70
     1
102
RTVSPost2010Prop48
 90
       50
102
RTVSPost2010PropOp48
 70
     1
102
RTVSPost2010Prop49
280
     0
102
RTVSPost2010PropOp49
 70
     1
102
RTVSPost2010Prop50
 90
       50
102
RTVSPost2010PropOp50
 70
     1
102
RTVSPost2010Prop51ColorIndex
 90
      256
102
RTVSPost2010Prop51ColorRGB
 90
-16777216
102
RTVSPost2010PropOp51
 70
     0
102
RTVSPost2010Prop52
140
1.0
102
RTVSPost2010PropOp52
 70
     0
102
RTVSPost2010Prop53
 90
        2
102
RTVSPost2010PropOp53
 70
     1
102
RTVSPost2010Prop54
  1
strokes_ogs.tif
102
RTVSPost2010PropOp54
 70
     1
102
RTVSPost2010Prop55
280
     0
102
RTVSPost2010PropOp55
 70
     1
102
RTVSPost2010Prop56
140
1.0
102
RTVSPost2010PropOp56
 70
     1
102
RTVSPost2010Prop57
140
1.0
102
RTVSPost2010PropOp57
 70
     1
102
RTVSPropertyOp0
 70
     1
102
RTVSPropertyOp1
 70
     1
102
RTVSPropertyOp2
 70
     1
102
RTVSPropertyOp3
 70
     1
102
RTVSPropertyOp4
 70
     1
102
RTVSPropertyOp5
 70
     1
102
RTVSPropertyOp6
 70
     1
102
RTVSPropertyOp7
 70
     1
102
RTVSPropertyOp8
 70
     1
102
RTVSPropertyOp9
 70
     1
102
RTVSPropertyOp10
 70
     1
102
RTVSPropertyOp11
 70
     1
102
RTVSPropertyOp12
 70
     1
102
RTVSPropertyOp13
 70
     1
102
RTVSPropertyOp14
 70
     1
102
RTVSPropertyOp15
 70
     1
102
RTVSPropertyOp16
 70
     1
102
RTVSPropertyOp17
 70
     1
102
RTVSPropertyOp18
 70
     1
102
RTVSPropertyOp19
 70
     1
102
RTVSPropertyOp20
 70
     1
102
RTVSPropertyOp21
 70
     1
102
RTVSPropertyOp22
 70
     1
102
RTVSPropertyOp23
 70
     1
102
RTVSPropertyOp24
 70
     1
102
RTVSPropertyOp25
 70
     1
102
RTVSPropertyOp26
 70
     1
102
RTVSPropertyOp27
 70
     1
102
RTVSPropertyOp28
 70
     1
102
RTVSPropertyOp29
 70
     1
102
RTVSPropertyOp30
 70
     1
102
RTVSPropertyOp31
 70
     1
102
RTVSPropertyOp32
 70
     1
102
RTVSPropertyOp33
 70
     1
102
RTVSPropertyOp34
 70
     1
102
RTVSPropertyOp35
 70
     1
102
RTVSPropertyOp36
 70
     1
102
RTVSPropertyOp37
 70
     1
102
RTVSPropertyOp38
 70
     1
102
RTVSPropertyOp39
 70
     1
102
RTVSPropertyOp40
 70
     1
102
RTVSPropertyOp41
 70
     1
102
RTVSPropertyOp42
 70
     1
102
RTVSPropertyOp43
 70
     1
102
RTVSPropertyOp44
 70
     1
102
RTVSPropertyOp45
 70
     1
102
RTVSPropertyOp46
 70
     1
102
RTVSPropertyOp47
 70
     1
102
RTVSPropertyOp48
 70
     1
102
RTVSPropertyOp49
 70
     1
102
RTVSPropertyOp50
 70
     1
102
RTVSPropertyOp51
 70
     0
102
RTVSPropertyOp52
 70
     0
102
RTVSPropertyOp53
 70
     1
102
RTVSPropertyOp54
 70
     1
102
RTVSPropertyOp55
 70
     1
102
RTVSPropertyOp56
 70
     1
102
RTVSPropertyOp57
 70
     1
102
RTVSPropertyOp58
 70
     1
102
RTVSPropertyOp59
 70
     1
102
RTVSPropertyOp60
 70
     1
102
RTVSPropertyOp61
 70
     1
102
RTVSPropertyOp62
 70
     1
  0
XRECORD
  5
7B22
102
{ACAD_REACTORS
330
7B21
102
}
330
7B21
100
AcDbXrecord
280
     1
102
RTVSPost2010Prop28
280
     0
102
RTVSPost2010PropOp28
 70
     1
102
RTVSPost2010Prop29
280
     1
102
RTVSPost2010PropOp29
 70
     1
102
RTVSPost2010Prop30
280
     1
102
RTVSPost2010PropOp30
 70
     1
102
RTVSPost2010Prop31
280
     0
102
RTVSPost2010PropOp31
 70
     1
102
RTVSPost2010Prop32
280
     0
102
RTVSPost2010PropOp32
 70
     1
102
RTVSPost2010Prop33
280
     0
102
RTVSPost2010PropOp33
 70
     1
102
RTVSPost2010Prop34
280
     0
102
RTVSPost2010PropOp34
 70
     1
102
RTVSPost2010Prop35
280
     0
102
RTVSPost2010PropOp35
 70
     1
102
RTVSPost2010Prop36
280
     0
102
RTVSPost2010PropOp36
 70
     1
102
RTVSPost2010Prop37
 90
       50
102
RTVSPost2010PropOp37
 70
     1
102
RTVSPost2010Prop38
140
0.0
102
RTVSPost2010PropOp38
 70
     1
102
RTVSPost2010Prop39
140
1.0
102
RTVSPost2010PropOp39
 70
     1
102
RTVSPost2010Prop40
 90
        0
102
RTVSPost2010PropOp40
 70
     1
102
RTVSPost2010Prop41ColorIndex
 90
       18
102
RTVSPost2010Prop41ColorRGB
 90
        0
102
RTVSPost2010PropOp41
 70
     1
102
RTVSPost2010Prop42
 90
       50
102
RTVSPost2010PropOp42
 70
     1
102
RTVSPost2010Prop43
 90
        3
102
RTVSPost2010PropOp43
 70
     1
102
RTVSPost2010Prop44ColorIndex
 90
        5
102
RTVSPost2010Prop44ColorRGB
 90
      255
102
RTVSPost2010PropOp44
 70
     1
102
RTVSPost2010Prop45
280
     0
102
RTVSPost2010PropOp45
 70
     1
102
RTVSPost2010Prop46
 90
       50
102
RTVSPost2010PropOp46
 70
     1
102
RTVSPost2010Prop47
 90
       50
102
RTVSPost2010PropOp47
 70
     1
102
RTVSPost2010Prop48
 90
       50
102
RTVSPost2010PropOp48
 70
     1
102
RTVSPost2010Prop49
280
     0
102
RTVSPost2010PropOp49
 70
     1
102
RTVSPost2010Prop50
 90
       50
102
RTVSPost2010PropOp50
 70
     1
102
RTVSPost2010Prop51ColorIndex
 90
      256
102
RTVSPost2010Prop51ColorRGB
 90
-16777216
102
RTVSPost2010PropOp51
 70
     0
102
RTVSPost2010Prop52
140
1.0
102
RTVSPost2010PropOp52
 70
     0
102
RTVSPost2010Prop53
 90
        2
102
RTVSPost2010PropOp53
 70
     1
102
RTVSPost2010Prop54
  1
strokes_ogs.tif
102
RTVSPost2010PropOp54
 70
     1
102
RTVSPost2010Prop55
280
     0
102
RTVSPost2010PropOp55
 70
     1
102
RTVSPost2010Prop56
140
1.0
102
RTVSPost2010PropOp56
 70
     1
102
RTVSPost2010Prop57
140
1.0
102
RTVSPost2010PropOp57
 70
     1
102
RTVSPropertyOp0
 70
     1
102
RTVSPropertyOp1
 70
     1
102
RTVSPropertyOp2
 70
     1
102
RTVSPropertyOp3
 70
     1
102
RTVSPropertyOp4
 70
     1
102
RTVSPropertyOp5
 70
     1
102
RTVSPropertyOp6
 70
     1
102
RTVSPropertyOp7
 70
     1
102
RTVSPropertyOp8
 70
     1
102
RTVSPropertyOp9
 70
     1
102
RTVSPropertyOp10
 70
     1
102
RTVSPropertyOp11
 70
     1
102
RTVSPropertyOp12
 70
     1
102
RTVSPropertyOp13
 70
     1
102
RTVSPropertyOp14
 70
     1
102
RTVSPropertyOp15
 70
     1
102
RTVSPropertyOp16
 70
     1
102
RTVSPropertyOp17
 70
     1
102
RTVSPropertyOp18
 70
     1
102
RTVSPropertyOp19
 70
     1
102
RTVSPropertyOp20
 70
     1
102
RTVSPropertyOp21
 70
     1
102
RTVSPropertyOp22
 70
     1
102
RTVSPropertyOp23
 70
     1
102
RTVSPropertyOp24
 70
     1
102
RTVSPropertyOp25
 70
     1
102
RTVSPropertyOp26
 70
     1
102
RTVSPropertyOp27
 70
     1
102
RTVSPropertyOp28
 70
     1
102
RTVSPropertyOp29
 70
     1
102
RTVSPropertyOp30
 70
     1
102
RTVSPropertyOp31
 70
     1
102
RTVSPropertyOp32
 70
     1
102
RTVSPropertyOp33
 70
     1
102
RTVSPropertyOp34
 70
     1
102
RTVSPropertyOp35
 70
     1
102
RTVSPropertyOp36
 70
     1
102
RTVSPropertyOp37
 70
     1
102
RTVSPropertyOp38
 70
     1
102
RTVSPropertyOp39
 70
     1
102
RTVSPropertyOp40
 70
     1
102
RTVSPropertyOp41
 70
     1
102
RTVSPropertyOp42
 70
     1
102
RTVSPropertyOp43
 70
     1
102
RTVSPropertyOp44
 70
     1
102
RTVSPropertyOp45
 70
     1
102
RTVSPropertyOp46
 70
     1
102
RTVSPropertyOp47
 70
     1
102
RTVSPropertyOp48
 70
     1
102
RTVSPropertyOp49
 70
     1
102
RTVSPropertyOp50
 70
     1
102
RTVSPropertyOp51
 70
     0
102
RTVSPropertyOp52
 70
     0
102
RTVSPropertyOp53
 70
     1
102
RTVSPropertyOp54
 70
     1
102
RTVSPropertyOp55
 70
     1
102
RTVSPropertyOp56
 70
     1
102
RTVSPropertyOp57
 70
     1
102
RTVSPropertyOp58
 70
     1
102
RTVSPropertyOp59
 70
     1
102
RTVSPropertyOp60
 70
     1
102
RTVSPropertyOp61
 70
     1
102
RTVSPropertyOp62
 70
     1
  0
XRECORD
  5
7B14
102
{ACAD_REACTORS
330
7B13
102
}
330
7B13
100
AcDbXrecord
280
     1
102
RTVSPost2010Prop28
280
     0
102
RTVSPost2010PropOp28
 70
     1
102
RTVSPost2010Prop29
280
     1
102
RTVSPost2010PropOp29
 70
     1
102
RTVSPost2010Prop30
280
     1
102
RTVSPost2010PropOp30
 70
     1
102
RTVSPost2010Prop31
280
     0
102
RTVSPost2010PropOp31
 70
     1
102
RTVSPost2010Prop32
280
     0
102
RTVSPost2010PropOp32
 70
     1
102
RTVSPost2010Prop33
280
     0
102
RTVSPost2010PropOp33
 70
     1
102
RTVSPost2010Prop34
280
     0
102
RTVSPost2010PropOp34
 70
     1
102
RTVSPost2010Prop35
280
     0
102
RTVSPost2010PropOp35
 70
     1
102
RTVSPost2010Prop36
280
     0
102
RTVSPost2010PropOp36
 70
     1
102
RTVSPost2010Prop37
 90
       50
102
RTVSPost2010PropOp37
 70
     1
102
RTVSPost2010Prop38
140
0.0
102
RTVSPost2010PropOp38
 70
     1
102
RTVSPost2010Prop39
140
1.0
102
RTVSPost2010PropOp39
 70
     1
102
RTVSPost2010Prop40
 90
        0
102
RTVSPost2010PropOp40
 70
     1
102
RTVSPost2010Prop41ColorIndex
 90
       18
102
RTVSPost2010Prop41ColorRGB
 90
        0
102
RTVSPost2010PropOp41
 70
     1
102
RTVSPost2010Prop42
 90
       50
102
RTVSPost2010PropOp42
 70
     1
102
RTVSPost2010Prop43
 90
        3
102
RTVSPost2010PropOp43
 70
     1
102
RTVSPost2010Prop44ColorIndex
 90
        5
102
RTVSPost2010Prop44ColorRGB
 90
      255
102
RTVSPost2010PropOp44
 70
     1
102
RTVSPost2010Prop45
280
     0
102
RTVSPost2010PropOp45
 70
     1
102
RTVSPost2010Prop46
 90
       50
102
RTVSPost2010PropOp46
 70
     1
102
RTVSPost2010Prop47
 90
       50
102
RTVSPost2010PropOp47
 70
     1
102
RTVSPost2010Prop48
 90
       50
102
RTVSPost2010PropOp48
 70
     1
102
RTVSPost2010Prop49
280
     0
102
RTVSPost2010PropOp49
 70
     1
102
RTVSPost2010Prop50
 90
       50
102
RTVSPost2010PropOp50
 70
     1
102
RTVSPost2010Prop51ColorIndex
 90
      256
102
RTVSPost2010Prop51ColorRGB
 90
-16777216
102
RTVSPost2010PropOp51
 70
     0
102
RTVSPost2010Prop52
140
1.0
102
RTVSPost2010PropOp52
 70
     0
102
RTVSPost2010Prop53
 90
        2
102
RTVSPost2010PropOp53
 70
     1
102
RTVSPost2010Prop54
  1
strokes_ogs.tif
102
RTVSPost2010PropOp54
 70
     1
102
RTVSPost2010Prop55
280
     0
102
RTVSPost2010PropOp55
 70
     1
102
RTVSPost2010Prop56
140
1.0
102
RTVSPost2010PropOp56
 70
     1
102
RTVSPost2010Prop57
140
1.0
102
RTVSPost2010PropOp57
 70
     1
102
RTVSPropertyOp0
 70
     1
102
RTVSPropertyOp1
 70
     1
102
RTVSPropertyOp2
 70
     1
102
RTVSPropertyOp3
 70
     1
102
RTVSPropertyOp4
 70
     1
102
RTVSPropertyOp5
 70
     1
102
RTVSPropertyOp6
 70
     1
102
RTVSPropertyOp7
 70
     1
102
RTVSPropertyOp8
 70
     1
102
RTVSPropertyOp9
 70
     1
102
RTVSPropertyOp10
 70
     1
102
RTVSPropertyOp11
 70
     1
102
RTVSPropertyOp12
 70
     1
102
RTVSPropertyOp13
 70
     1
102
RTVSPropertyOp14
 70
     1
102
RTVSPropertyOp15
 70
     1
102
RTVSPropertyOp16
 70
     1
102
RTVSPropertyOp17
 70
     1
102
RTVSPropertyOp18
 70
     1
102
RTVSPropertyOp19
 70
     1
102
RTVSPropertyOp20
 70
     1
102
RTVSPropertyOp21
 70
     1
102
RTVSPropertyOp22
 70
     1
102
RTVSPropertyOp23
 70
     1
102
RTVSPropertyOp24
 70
     1
102
RTVSPropertyOp25
 70
     1
102
RTVSPropertyOp26
 70
     1
102
RTVSPropertyOp27
 70
     1
102
RTVSPropertyOp28
 70
     1
102
RTVSPropertyOp29
 70
     1
102
RTVSPropertyOp30
 70
     1
102
RTVSPropertyOp31
 70
     1
102
RTVSPropertyOp32
 70
     1
102
RTVSPropertyOp33
 70
     1
102
RTVSPropertyOp34
 70
     1
102
RTVSPropertyOp35
 70
     1
102
RTVSPropertyOp36
 70
     1
102
RTVSPropertyOp37
 70
     1
102
RTVSPropertyOp38
 70
     1
102
RTVSPropertyOp39
 70
     1
102
RTVSPropertyOp40
 70
     1
102
RTVSPropertyOp41
 70
     1
102
RTVSPropertyOp42
 70
     1
102
RTVSPropertyOp43
 70
     1
102
RTVSPropertyOp44
 70
     1
102
RTVSPropertyOp45
 70
     1
102
RTVSPropertyOp46
 70
     1
102
RTVSPropertyOp47
 70
     1
102
RTVSPropertyOp48
 70
     1
102
RTVSPropertyOp49
 70
     1
102
RTVSPropertyOp50
 70
     1
102
RTVSPropertyOp51
 70
     0
102
RTVSPropertyOp52
 70
     0
102
RTVSPropertyOp53
 70
     1
102
RTVSPropertyOp54
 70
     1
102
RTVSPropertyOp55
 70
     1
102
RTVSPropertyOp56
 70
     1
102
RTVSPropertyOp57
 70
     1
102
RTVSPropertyOp58
 70
     1
102
RTVSPropertyOp59
 70
     1
102
RTVSPropertyOp60
 70
     1
102
RTVSPropertyOp61
 70
     1
102
RTVSPropertyOp62
 70
     1
  0
XRECORD
  5
7B18
102
{ACAD_REACTORS
330
7B17
102
}
330
7B17
100
AcDbXrecord
280
     1
102
RTVSPost2010Prop28
280
     0
102
RTVSPost2010PropOp28
 70
     1
102
RTVSPost2010Prop29
280
     1
102
RTVSPost2010PropOp29
 70
     1
102
RTVSPost2010Prop30
280
     1
102
RTVSPost2010PropOp30
 70
     1
102
RTVSPost2010Prop31
280
     0
102
RTVSPost2010PropOp31
 70
     1
102
RTVSPost2010Prop32
280
     0
102
RTVSPost2010PropOp32
 70
     1
102
RTVSPost2010Prop33
280
     0
102
RTVSPost2010PropOp33
 70
     1
102
RTVSPost2010Prop34
280
     0
102
RTVSPost2010PropOp34
 70
     1
102
RTVSPost2010Prop35
280
     0
102
RTVSPost2010PropOp35
 70
     1
102
RTVSPost2010Prop36
280
     0
102
RTVSPost2010PropOp36
 70
     1
102
RTVSPost2010Prop37
 90
       50
102
RTVSPost2010PropOp37
 70
     1
102
RTVSPost2010Prop38
140
0.0
102
RTVSPost2010PropOp38
 70
     1
102
RTVSPost2010Prop39
140
1.0
102
RTVSPost2010PropOp39
 70
     1
102
RTVSPost2010Prop40
 90
        0
102
RTVSPost2010PropOp40
 70
     1
102
RTVSPost2010Prop41ColorIndex
 90
       18
102
RTVSPost2010Prop41ColorRGB
 90
        0
102
RTVSPost2010PropOp41
 70
     1
102
RTVSPost2010Prop42
 90
       50
102
RTVSPost2010PropOp42
 70
     1
102
RTVSPost2010Prop43
 90
        3
102
RTVSPost2010PropOp43
 70
     1
102
RTVSPost2010Prop44ColorIndex
 90
        5
102
RTVSPost2010Prop44ColorRGB
 90
      255
102
RTVSPost2010PropOp44
 70
     1
102
RTVSPost2010Prop45
280
     0
102
RTVSPost2010PropOp45
 70
     1
102
RTVSPost2010Prop46
 90
       50
102
RTVSPost2010PropOp46
 70
     1
102
RTVSPost2010Prop47
 90
       50
102
RTVSPost2010PropOp47
 70
     1
102
RTVSPost2010Prop48
 90
       50
102
RTVSPost2010PropOp48
 70
     1
102
RTVSPost2010Prop49
280
     0
102
RTVSPost2010PropOp49
 70
     1
102
RTVSPost2010Prop50
 90
       50
102
RTVSPost2010PropOp50
 70
     1
102
RTVSPost2010Prop51ColorIndex
 90
      256
102
RTVSPost2010Prop51ColorRGB
 90
-16777216
102
RTVSPost2010PropOp51
 70
     0
102
RTVSPost2010Prop52
140
1.0
102
RTVSPost2010PropOp52
 70
     0
102
RTVSPost2010Prop53
 90
        2
102
RTVSPost2010PropOp53
 70
     1
102
RTVSPost2010Prop54
  1
strokes_ogs.tif
102
RTVSPost2010PropOp54
 70
     1
102
RTVSPost2010Prop55
280
     0
102
RTVSPost2010PropOp55
 70
     1
102
RTVSPost2010Prop56
140
1.0
102
RTVSPost2010PropOp56
 70
     1
102
RTVSPost2010Prop57
140
1.0
102
RTVSPost2010PropOp57
 70
     1
102
RTVSPropertyOp0
 70
     1
102
RTVSPropertyOp1
 70
     1
102
RTVSPropertyOp2
 70
     1
102
RTVSPropertyOp3
 70
     1
102
RTVSPropertyOp4
 70
     1
102
RTVSPropertyOp5
 70
     1
102
RTVSPropertyOp6
 70
     1
102
RTVSPropertyOp7
 70
     1
102
RTVSPropertyOp8
 70
     1
102
RTVSPropertyOp9
 70
     1
102
RTVSPropertyOp10
 70
     1
102
RTVSPropertyOp11
 70
     1
102
RTVSPropertyOp12
 70
     1
102
RTVSPropertyOp13
 70
     1
102
RTVSPropertyOp14
 70
     1
102
RTVSPropertyOp15
 70
     1
102
RTVSPropertyOp16
 70
     1
102
RTVSPropertyOp17
 70
     1
102
RTVSPropertyOp18
 70
     1
102
RTVSPropertyOp19
 70
     1
102
RTVSPropertyOp20
 70
     1
102
RTVSPropertyOp21
 70
     1
102
RTVSPropertyOp22
 70
     1
102
RTVSPropertyOp23
 70
     1
102
RTVSPropertyOp24
 70
     1
102
RTVSPropertyOp25
 70
     1
102
RTVSPropertyOp26
 70
     1
102
RTVSPropertyOp27
 70
     1
102
RTVSPropertyOp28
 70
     1
102
RTVSPropertyOp29
 70
     1
102
RTVSPropertyOp30
 70
     1
102
RTVSPropertyOp31
 70
     1
102
RTVSPropertyOp32
 70
     1
102
RTVSPropertyOp33
 70
     1
102
RTVSPropertyOp34
 70
     1
102
RTVSPropertyOp35
 70
     1
102
RTVSPropertyOp36
 70
     1
102
RTVSPropertyOp37
 70
     1
102
RTVSPropertyOp38
 70
     1
102
RTVSPropertyOp39
 70
     1
102
RTVSPropertyOp40
 70
     1
102
RTVSPropertyOp41
 70
     1
102
RTVSPropertyOp42
 70
     1
102
RTVSPropertyOp43
 70
     1
102
RTVSPropertyOp44
 70
     1
102
RTVSPropertyOp45
 70
     1
102
RTVSPropertyOp46
 70
     1
102
RTVSPropertyOp47
 70
     1
102
RTVSPropertyOp48
 70
     1
102
RTVSPropertyOp49
 70
     1
102
RTVSPropertyOp50
 70
     1
102
RTVSPropertyOp51
 70
     0
102
RTVSPropertyOp52
 70
     0
102
RTVSPropertyOp53
 70
     1
102
RTVSPropertyOp54
 70
     1
102
RTVSPropertyOp55
 70
     1
102
RTVSPropertyOp56
 70
     1
102
RTVSPropertyOp57
 70
     1
102
RTVSPropertyOp58
 70
     1
102
RTVSPropertyOp59
 70
     1
102
RTVSPropertyOp60
 70
     1
102
RTVSPropertyOp61
 70
     1
102
RTVSPropertyOp62
 70
     1
  0
XRECORD
  5
7B32
102
{ACAD_REACTORS
330
7B31
102
}
330
7B31
100
AcDbXrecord
280
     1
102
RTVSPost2010Prop28
280
     0
102
RTVSPost2010PropOp28
 70
     0
102
RTVSPost2010Prop29
280
     1
102
RTVSPost2010PropOp29
 70
     0
102
RTVSPost2010Prop30
280
     1
102
RTVSPost2010PropOp30
 70
     0
102
RTVSPost2010Prop31
280
     0
102
RTVSPost2010PropOp31
 70
     0
102
RTVSPost2010Prop32
280
     0
102
RTVSPost2010PropOp32
 70
     0
102
RTVSPost2010Prop33
280
     0
102
RTVSPost2010PropOp33
 70
     0
102
RTVSPost2010Prop34
280
     0
102
RTVSPost2010PropOp34
 70
     0
102
RTVSPost2010Prop35
280
     0
102
RTVSPost2010PropOp35
 70
     0
102
RTVSPost2010Prop36
280
     0
102
RTVSPost2010PropOp36
 70
     0
102
RTVSPost2010Prop37
 90
       50
102
RTVSPost2010PropOp37
 70
     0
102
RTVSPost2010Prop38
140
0.0
102
RTVSPost2010PropOp38
 70
     0
102
RTVSPost2010Prop39
140
1.0
102
RTVSPost2010PropOp39
 70
     0
102
RTVSPost2010Prop40
 90
        0
102
RTVSPost2010PropOp40
 70
     0
102
RTVSPost2010Prop41ColorIndex
 90
       18
102
RTVSPost2010Prop41ColorRGB
 90
        0
102
RTVSPost2010PropOp41
 70
     0
102
RTVSPost2010Prop42
 90
       50
102
RTVSPost2010PropOp42
 70
     0
102
RTVSPost2010Prop43
 90
        3
102
RTVSPost2010PropOp43
 70
     0
102
RTVSPost2010Prop44ColorIndex
 90
        5
102
RTVSPost2010Prop44ColorRGB
 90
      255
102
RTVSPost2010PropOp44
 70
     0
102
RTVSPost2010Prop45
280
     0
102
RTVSPost2010PropOp45
 70
     0
102
RTVSPost2010Prop46
 90
       50
102
RTVSPost2010PropOp46
 70
     0
102
RTVSPost2010Prop47
 90
       50
102
RTVSPost2010PropOp47
 70
     0
102
RTVSPost2010Prop48
 90
       50
102
RTVSPost2010PropOp48
 70
     0
102
RTVSPost2010Prop49
280
     0
102
RTVSPost2010PropOp49
 70
     0
102
RTVSPost2010Prop50
 90
       50
102
RTVSPost2010PropOp50
 70
     0
102
RTVSPost2010Prop51ColorIndex
 90
      256
102
RTVSPost2010Prop51ColorRGB
 90
-16777216
102
RTVSPost2010PropOp51
 70
     0
102
RTVSPost2010Prop52
140
1.0
102
RTVSPost2010PropOp52
 70
     0
102
RTVSPost2010Prop53
 90
        2
102
RTVSPost2010PropOp53
 70
     0
102
RTVSPost2010Prop54
  1
strokes_ogs.tif
102
RTVSPost2010PropOp54
 70
     0
102
RTVSPost2010Prop55
280
     0
102
RTVSPost2010PropOp55
 70
     0
102
RTVSPost2010Prop56
140
1.0
102
RTVSPost2010PropOp56
 70
     0
102
RTVSPost2010Prop57
140
1.0
102
RTVSPost2010PropOp57
 70
     0
102
RTVSPropertyOp0
 70
     0
102
RTVSPropertyOp1
 70
     0
102
RTVSPropertyOp2
 70
     0
102
RTVSPropertyOp3
 70
     0
102
RTVSPropertyOp4
 70
     0
102
RTVSPropertyOp5
 70
     0
102
RTVSPropertyOp6
 70
     0
102
RTVSPropertyOp7
 70
     0
102
RTVSPropertyOp8
 70
     0
102
RTVSPropertyOp9
 70
     0
102
RTVSPropertyOp10
 70
     0
102
RTVSPropertyOp11
 70
     0
102
RTVSPropertyOp12
 70
     0
102
RTVSPropertyOp13
 70
     0
102
RTVSPropertyOp14
 70
     2
102
RTVSPropertyOp15
 70
     0
102
RTVSPropertyOp16
 70
     0
102
RTVSPropertyOp17
 70
     0
102
RTVSPropertyOp18
 70
     0
102
RTVSPropertyOp19
 70
     0
102
RTVSPropertyOp20
 70
     0
102
RTVSPropertyOp21
 70
     0
102
RTVSPropertyOp22
 70
     0
102
RTVSPropertyOp23
 70
     0
102
RTVSPropertyOp24
 70
     0
102
RTVSPropertyOp25
 70
     0
102
RTVSPropertyOp26
 70
     0
102
RTVSPropertyOp27
 70
     0
102
RTVSPropertyOp28
 70
     0
102
RTVSPropertyOp29
 70
     0
102
RTVSPropertyOp30
 70
     0
102
RTVSPropertyOp31
 70
     0
102
RTVSPropertyOp32
 70
     0
102
RTVSPropertyOp33
 70
     0
102
RTVSPropertyOp34
 70
     0
102
RTVSPropertyOp35
 70
     0
102
RTVSPropertyOp36
 70
     0
102
RTVSPropertyOp37
 70
     0
102
RTVSPropertyOp38
 70
     0
102
RTVSPropertyOp39
 70
     0
102
RTVSPropertyOp40
 70
     0
102
RTVSPropertyOp41
 70
     0
102
RTVSPropertyOp42
 70
     0
102
RTVSPropertyOp43
 70
     0
102
RTVSPropertyOp44
 70
     0
102
RTVSPropertyOp45
 70
     0
102
RTVSPropertyOp46
 70
     0
102
RTVSPropertyOp47
 70
     0
102
RTVSPropertyOp48
 70
     0
102
RTVSPropertyOp49
 70
     0
102
RTVSPropertyOp50
 70
     0
102
RTVSPropertyOp51
 70
     0
102
RTVSPropertyOp52
 70
     0
102
RTVSPropertyOp53
 70
     0
102
RTVSPropertyOp54
 70
     0
102
RTVSPropertyOp55
 70
     0
102
RTVSPropertyOp56
 70
     0
102
RTVSPropertyOp57
 70
     0
102
RTVSPropertyOp58
 70
     0
102
RTVSPropertyOp59
 70
     0
102
RTVSPropertyOp60
 70
     0
102
RTVSPropertyOp61
 70
     0
102
RTVSPropertyOp62
 70
     0
  0
XRECORD
  5
7B20
102
{ACAD_REACTORS
330
7B1F
102
}
330
7B1F
100
AcDbXrecord
280
     1
102
RTVSPost2010Prop28
280
     0
102
RTVSPost2010PropOp28
 70
     1
102
RTVSPost2010Prop29
280
     1
102
RTVSPost2010PropOp29
 70
     1
102
RTVSPost2010Prop30
280
     1
102
RTVSPost2010PropOp30
 70
     1
102
RTVSPost2010Prop31
280
     0
102
RTVSPost2010PropOp31
 70
     1
102
RTVSPost2010Prop32
280
     0
102
RTVSPost2010PropOp32
 70
     1
102
RTVSPost2010Prop33
280
     0
102
RTVSPost2010PropOp33
 70
     1
102
RTVSPost2010Prop34
280
     0
102
RTVSPost2010PropOp34
 70
     1
102
RTVSPost2010Prop35
280
     0
102
RTVSPost2010PropOp35
 70
     1
102
RTVSPost2010Prop36
280
     0
102
RTVSPost2010PropOp36
 70
     1
102
RTVSPost2010Prop37
 90
       50
102
RTVSPost2010PropOp37
 70
     1
102
RTVSPost2010Prop38
140
0.0
102
RTVSPost2010PropOp38
 70
     1
102
RTVSPost2010Prop39
140
1.0
102
RTVSPost2010PropOp39
 70
     1
102
RTVSPost2010Prop40
 90
        0
102
RTVSPost2010PropOp40
 70
     1
102
RTVSPost2010Prop41ColorIndex
 90
       18
102
RTVSPost2010Prop41ColorRGB
 90
        0
102
RTVSPost2010PropOp41
 70
     1
102
RTVSPost2010Prop42
 90
       50
102
RTVSPost2010PropOp42
 70
     1
102
RTVSPost2010Prop43
 90
        3
102
RTVSPost2010PropOp43
 70
     1
102
RTVSPost2010Prop44ColorIndex
 90
        5
102
RTVSPost2010Prop44ColorRGB
 90
      255
102
RTVSPost2010PropOp44
 70
     1
102
RTVSPost2010Prop45
280
     0
102
RTVSPost2010PropOp45
 70
     1
102
RTVSPost2010Prop46
 90
       50
102
RTVSPost2010PropOp46
 70
     1
102
RTVSPost2010Prop47
 90
       50
102
RTVSPost2010PropOp47
 70
     1
102
RTVSPost2010Prop48
 90
       50
102
RTVSPost2010PropOp48
 70
     1
102
RTVSPost2010Prop49
280
     0
102
RTVSPost2010PropOp49
 70
     1
102
RTVSPost2010Prop50
 90
       50
102
RTVSPost2010PropOp50
 70
     1
102
RTVSPost2010Prop51ColorIndex
 90
      256
102
RTVSPost2010Prop51ColorRGB
 90
-16777216
102
RTVSPost2010PropOp51
 70
     0
102
RTVSPost2010Prop52
140
1.0
102
RTVSPost2010PropOp52
 70
     0
102
RTVSPost2010Prop53
 90
        2
102
RTVSPost2010PropOp53
 70
     1
102
RTVSPost2010Prop54
  1
strokes_ogs.tif
102
RTVSPost2010PropOp54
 70
     1
102
RTVSPost2010Prop55
280
     0
102
RTVSPost2010PropOp55
 70
     1
102
RTVSPost2010Prop56
140
1.0
102
RTVSPost2010PropOp56
 70
     1
102
RTVSPost2010Prop57
140
1.0
102
RTVSPost2010PropOp57
 70
     1
102
RTVSPropertyOp0
 70
     1
102
RTVSPropertyOp1
 70
     1
102
RTVSPropertyOp2
 70
     1
102
RTVSPropertyOp3
 70
     1
102
RTVSPropertyOp4
 70
     1
102
RTVSPropertyOp5
 70
     1
102
RTVSPropertyOp6
 70
     1
102
RTVSPropertyOp7
 70
     1
102
RTVSPropertyOp8
 70
     1
102
RTVSPropertyOp9
 70
     1
102
RTVSPropertyOp10
 70
     1
102
RTVSPropertyOp11
 70
     1
102
RTVSPropertyOp12
 70
     1
102
RTVSPropertyOp13
 70
     1
102
RTVSPropertyOp14
 70
     1
102
RTVSPropertyOp15
 70
     1
102
RTVSPropertyOp16
 70
     1
102
RTVSPropertyOp17
 70
     1
102
RTVSPropertyOp18
 70
     1
102
RTVSPropertyOp19
 70
     1
102
RTVSPropertyOp20
 70
     1
102
RTVSPropertyOp21
 70
     1
102
RTVSPropertyOp22
 70
     1
102
RTVSPropertyOp23
 70
     1
102
RTVSPropertyOp24
 70
     1
102
RTVSPropertyOp25
 70
     1
102
RTVSPropertyOp26
 70
     1
102
RTVSPropertyOp27
 70
     1
102
RTVSPropertyOp28
 70
     1
102
RTVSPropertyOp29
 70
     1
102
RTVSPropertyOp30
 70
     1
102
RTVSPropertyOp31
 70
     1
102
RTVSPropertyOp32
 70
     1
102
RTVSPropertyOp33
 70
     1
102
RTVSPropertyOp34
 70
     1
102
RTVSPropertyOp35
 70
     1
102
RTVSPropertyOp36
 70
     1
102
RTVSPropertyOp37
 70
     1
102
RTVSPropertyOp38
 70
     1
102
RTVSPropertyOp39
 70
     1
102
RTVSPropertyOp40
 70
     1
102
RTVSPropertyOp41
 70
     1
102
RTVSPropertyOp42
 70
     1
102
RTVSPropertyOp43
 70
     1
102
RTVSPropertyOp44
 70
     1
102
RTVSPropertyOp45
 70
     1
102
RTVSPropertyOp46
 70
     1
102
RTVSPropertyOp47
 70
     1
102
RTVSPropertyOp48
 70
     1
102
RTVSPropertyOp49
 70
     1
102
RTVSPropertyOp50
 70
     1
102
RTVSPropertyOp51
 70
     0
102
RTVSPropertyOp52
 70
     0
102
RTVSPropertyOp53
 70
     1
102
RTVSPropertyOp54
 70
     1
102
RTVSPropertyOp55
 70
     1
102
RTVSPropertyOp56
 70
     1
102
RTVSPropertyOp57
 70
     1
102
RTVSPropertyOp58
 70
     1
102
RTVSPropertyOp59
 70
     1
102
RTVSPropertyOp60
 70
     1
102
RTVSPropertyOp61
 70
     1
102
RTVSPropertyOp62
 70
     1
  0
XRECORD
  5
7B04
102
{ACAD_REACTORS
330
7B03
102
}
330
7B03
100
AcDbXrecord
280
     1
102
RTVSPost2010Prop28
280
     0
102
RTVSPost2010PropOp28
 70
     1
102
RTVSPost2010Prop29
280
     1
102
RTVSPost2010PropOp29
 70
     1
102
RTVSPost2010Prop30
280
     1
102
RTVSPost2010PropOp30
 70
     1
102
RTVSPost2010Prop31
280
     0
102
RTVSPost2010PropOp31
 70
     1
102
RTVSPost2010Prop32
280
     0
102
RTVSPost2010PropOp32
 70
     1
102
RTVSPost2010Prop33
280
     0
102
RTVSPost2010PropOp33
 70
     1
102
RTVSPost2010Prop34
280
     0
102
RTVSPost2010PropOp34
 70
     1
102
RTVSPost2010Prop35
280
     0
102
RTVSPost2010PropOp35
 70
     1
102
RTVSPost2010Prop36
280
     0
102
RTVSPost2010PropOp36
 70
     1
102
RTVSPost2010Prop37
 90
       50
102
RTVSPost2010PropOp37
 70
     1
102
RTVSPost2010Prop38
140
0.0
102
RTVSPost2010PropOp38
 70
     1
102
RTVSPost2010Prop39
140
1.0
102
RTVSPost2010PropOp39
 70
     1
102
RTVSPost2010Prop40
 90
        0
102
RTVSPost2010PropOp40
 70
     1
102
RTVSPost2010Prop41ColorIndex
 90
       18
102
RTVSPost2010Prop41ColorRGB
 90
        0
102
RTVSPost2010PropOp41
 70
     1
102
RTVSPost2010Prop42
 90
       50
102
RTVSPost2010PropOp42
 70
     1
102
RTVSPost2010Prop43
 90
        3
102
RTVSPost2010PropOp43
 70
     1
102
RTVSPost2010Prop44ColorIndex
 90
        5
102
RTVSPost2010Prop44ColorRGB
 90
      255
102
RTVSPost2010PropOp44
 70
     1
102
RTVSPost2010Prop45
280
     0
102
RTVSPost2010PropOp45
 70
     1
102
RTVSPost2010Prop46
 90
       50
102
RTVSPost2010PropOp46
 70
     1
102
RTVSPost2010Prop47
 90
       50
102
RTVSPost2010PropOp47
 70
     1
102
RTVSPost2010Prop48
 90
       50
102
RTVSPost2010PropOp48
 70
     1
102
RTVSPost2010Prop49
280
     0
102
RTVSPost2010PropOp49
 70
     1
102
RTVSPost2010Prop50
 90
       50
102
RTVSPost2010PropOp50
 70
     1
102
RTVSPost2010Prop51ColorIndex
 90
      256
102
RTVSPost2010Prop51ColorRGB
 90
-16777216
102
RTVSPost2010PropOp51
 70
     0
102
RTVSPost2010Prop52
140
1.0
102
RTVSPost2010PropOp52
 70
     0
102
RTVSPost2010Prop53
 90
        2
102
RTVSPost2010PropOp53
 70
     1
102
RTVSPost2010Prop54
  1
strokes_ogs.tif
102
RTVSPost2010PropOp54
 70
     1
102
RTVSPost2010Prop55
280
     0
102
RTVSPost2010PropOp55
 70
     1
102
RTVSPost2010Prop56
140
1.0
102
RTVSPost2010PropOp56
 70
     1
102
RTVSPost2010Prop57
140
1.0
102
RTVSPost2010PropOp57
 70
     1
102
RTVSPropertyOp0
 70
     1
102
RTVSPropertyOp1
 70
     1
102
RTVSPropertyOp2
 70
     1
102
RTVSPropertyOp3
 70
     1
102
RTVSPropertyOp4
 70
     1
102
RTVSPropertyOp5
 70
     1
102
RTVSPropertyOp6
 70
     1
102
RTVSPropertyOp7
 70
     1
102
RTVSPropertyOp8
 70
     1
102
RTVSPropertyOp9
 70
     1
102
RTVSPropertyOp10
 70
     1
102
RTVSPropertyOp11
 70
     1
102
RTVSPropertyOp12
 70
     1
102
RTVSPropertyOp13
 70
     1
102
RTVSPropertyOp14
 70
     1
102
RTVSPropertyOp15
 70
     1
102
RTVSPropertyOp16
 70
     1
102
RTVSPropertyOp17
 70
     1
102
RTVSPropertyOp18
 70
     1
102
RTVSPropertyOp19
 70
     1
102
RTVSPropertyOp20
 70
     1
102
RTVSPropertyOp21
 70
     1
102
RTVSPropertyOp22
 70
     1
102
RTVSPropertyOp23
 70
     1
102
RTVSPropertyOp24
 70
     1
102
RTVSPropertyOp25
 70
     1
102
RTVSPropertyOp26
 70
     1
102
RTVSPropertyOp27
 70
     1
102
RTVSPropertyOp28
 70
     1
102
RTVSPropertyOp29
 70
     1
102
RTVSPropertyOp30
 70
     1
102
RTVSPropertyOp31
 70
     1
102
RTVSPropertyOp32
 70
     1
102
RTVSPropertyOp33
 70
     1
102
RTVSPropertyOp34
 70
     1
102
RTVSPropertyOp35
 70
     1
102
RTVSPropertyOp36
 70
     1
102
RTVSPropertyOp37
 70
     1
102
RTVSPropertyOp38
 70
     1
102
RTVSPropertyOp39
 70
     1
102
RTVSPropertyOp40
 70
     1
102
RTVSPropertyOp41
 70
     1
102
RTVSPropertyOp42
 70
     1
102
RTVSPropertyOp43
 70
     1
102
RTVSPropertyOp44
 70
     1
102
RTVSPropertyOp45
 70
     1
102
RTVSPropertyOp46
 70
     1
102
RTVSPropertyOp47
 70
     1
102
RTVSPropertyOp48
 70
     1
102
RTVSPropertyOp49
 70
     1
102
RTVSPropertyOp50
 70
     1
102
RTVSPropertyOp51
 70
     0
102
RTVSPropertyOp52
 70
     0
102
RTVSPropertyOp53
 70
     1
102
RTVSPropertyOp54
 70
     1
102
RTVSPropertyOp55
 70
     1
102
RTVSPropertyOp56
 70
     1
102
RTVSPropertyOp57
 70
     1
102
RTVSPropertyOp58
 70
     1
102
RTVSPropertyOp59
 70
     1
102
RTVSPropertyOp60
 70
     1
102
RTVSPropertyOp61
 70
     1
102
RTVSPropertyOp62
 70
     1
  0
XRECORD
  5
7B06
102
{ACAD_REACTORS
330
7B05
102
}
330
7B05
100
AcDbXrecord
280
     1
102
RTVSPost2010Prop28
280
     0
102
RTVSPost2010PropOp28
 70
     1
102
RTVSPost2010Prop29
280
     1
102
RTVSPost2010PropOp29
 70
     1
102
RTVSPost2010Prop30
280
     1
102
RTVSPost2010PropOp30
 70
     1
102
RTVSPost2010Prop31
280
     0
102
RTVSPost2010PropOp31
 70
     1
102
RTVSPost2010Prop32
280
     0
102
RTVSPost2010PropOp32
 70
     1
102
RTVSPost2010Prop33
280
     0
102
RTVSPost2010PropOp33
 70
     1
102
RTVSPost2010Prop34
280
     0
102
RTVSPost2010PropOp34
 70
     1
102
RTVSPost2010Prop35
280
     0
102
RTVSPost2010PropOp35
 70
     1
102
RTVSPost2010Prop36
280
     0
102
RTVSPost2010PropOp36
 70
     1
102
RTVSPost2010Prop37
 90
       50
102
RTVSPost2010PropOp37
 70
     1
102
RTVSPost2010Prop38
140
0.0
102
RTVSPost2010PropOp38
 70
     1
102
RTVSPost2010Prop39
140
1.0
102
RTVSPost2010PropOp39
 70
     1
102
RTVSPost2010Prop40
 90
        0
102
RTVSPost2010PropOp40
 70
     1
102
RTVSPost2010Prop41ColorIndex
 90
       18
102
RTVSPost2010Prop41ColorRGB
 90
        0
102
RTVSPost2010PropOp41
 70
     1
102
RTVSPost2010Prop42
 90
       50
102
RTVSPost2010PropOp42
 70
     1
102
RTVSPost2010Prop43
 90
        3
102
RTVSPost2010PropOp43
 70
     1
102
RTVSPost2010Prop44ColorIndex
 90
        5
102
RTVSPost2010Prop44ColorRGB
 90
      255
102
RTVSPost2010PropOp44
 70
     1
102
RTVSPost2010Prop45
280
     0
102
RTVSPost2010PropOp45
 70
     1
102
RTVSPost2010Prop46
 90
       50
102
RTVSPost2010PropOp46
 70
     1
102
RTVSPost2010Prop47
 90
       50
102
RTVSPost2010PropOp47
 70
     1
102
RTVSPost2010Prop48
 90
       50
102
RTVSPost2010PropOp48
 70
     1
102
RTVSPost2010Prop49
280
     0
102
RTVSPost2010PropOp49
 70
     1
102
RTVSPost2010Prop50
 90
       50
102
RTVSPost2010PropOp50
 70
     1
102
RTVSPost2010Prop51ColorIndex
 90
      256
102
RTVSPost2010Prop51ColorRGB
 90
-16777216
102
RTVSPost2010PropOp51
 70
     0
102
RTVSPost2010Prop52
140
1.0
102
RTVSPost2010PropOp52
 70
     0
102
RTVSPost2010Prop53
 90
        2
102
RTVSPost2010PropOp53
 70
     1
102
RTVSPost2010Prop54
  1
strokes_ogs.tif
102
RTVSPost2010PropOp54
 70
     1
102
RTVSPost2010Prop55
280
     0
102
RTVSPost2010PropOp55
 70
     1
102
RTVSPost2010Prop56
140
1.0
102
RTVSPost2010PropOp56
 70
     1
102
RTVSPost2010Prop57
140
1.0
102
RTVSPost2010PropOp57
 70
     1
102
RTVSPropertyOp0
 70
     1
102
RTVSPropertyOp1
 70
     1
102
RTVSPropertyOp2
 70
     1
102
RTVSPropertyOp3
 70
     1
102
RTVSPropertyOp4
 70
     1
102
RTVSPropertyOp5
 70
     1
102
RTVSPropertyOp6
 70
     1
102
RTVSPropertyOp7
 70
     1
102
RTVSPropertyOp8
 70
     1
102
RTVSPropertyOp9
 70
     1
102
RTVSPropertyOp10
 70
     1
102
RTVSPropertyOp11
 70
     1
102
RTVSPropertyOp12
 70
     1
102
RTVSPropertyOp13
 70
     1
102
RTVSPropertyOp14
 70
     1
102
RTVSPropertyOp15
 70
     1
102
RTVSPropertyOp16
 70
     1
102
RTVSPropertyOp17
 70
     1
102
RTVSPropertyOp18
 70
     1
102
RTVSPropertyOp19
 70
     1
102
RTVSPropertyOp20
 70
     1
102
RTVSPropertyOp21
 70
     1
102
RTVSPropertyOp22
 70
     1
102
RTVSPropertyOp23
 70
     1
102
RTVSPropertyOp24
 70
     1
102
RTVSPropertyOp25
 70
     1
102
RTVSPropertyOp26
 70
     1
102
RTVSPropertyOp27
 70
     1
102
RTVSPropertyOp28
 70
     1
102
RTVSPropertyOp29
 70
     1
102
RTVSPropertyOp30
 70
     1
102
RTVSPropertyOp31
 70
     1
102
RTVSPropertyOp32
 70
     1
102
RTVSPropertyOp33
 70
     1
102
RTVSPropertyOp34
 70
     1
102
RTVSPropertyOp35
 70
     1
102
RTVSPropertyOp36
 70
     1
102
RTVSPropertyOp37
 70
     1
102
RTVSPropertyOp38
 70
     1
102
RTVSPropertyOp39
 70
     1
102
RTVSPropertyOp40
 70
     1
102
RTVSPropertyOp41
 70
     1
102
RTVSPropertyOp42
 70
     1
102
RTVSPropertyOp43
 70
     1
102
RTVSPropertyOp44
 70
     1
102
RTVSPropertyOp45
 70
     1
102
RTVSPropertyOp46
 70
     1
102
RTVSPropertyOp47
 70
     1
102
RTVSPropertyOp48
 70
     1
102
RTVSPropertyOp49
 70
     1
102
RTVSPropertyOp50
 70
     1
102
RTVSPropertyOp51
 70
     0
102
RTVSPropertyOp52
 70
     0
102
RTVSPropertyOp53
 70
     1
102
RTVSPropertyOp54
 70
     1
102
RTVSPropertyOp55
 70
     1
102
RTVSPropertyOp56
 70
     1
102
RTVSPropertyOp57
 70
     1
102
RTVSPropertyOp58
 70
     1
102
RTVSPropertyOp59
 70
     1
102
RTVSPropertyOp60
 70
     1
102
RTVSPropertyOp61
 70
     1
102
RTVSPropertyOp62
 70
     1
  0
XRECORD
  5
7B08
102
{ACAD_REACTORS
330
7B07
102
}
330
7B07
100
AcDbXrecord
280
     1
102
RTVSPost2010Prop28
280
     0
102
RTVSPost2010PropOp28
 70
     1
102
RTVSPost2010Prop29
280
     1
102
RTVSPost2010PropOp29
 70
     1
102
RTVSPost2010Prop30
280
     1
102
RTVSPost2010PropOp30
 70
     1
102
RTVSPost2010Prop31
280
     0
102
RTVSPost2010PropOp31
 70
     1
102
RTVSPost2010Prop32
280
     0
102
RTVSPost2010PropOp32
 70
     1
102
RTVSPost2010Prop33
280
     0
102
RTVSPost2010PropOp33
 70
     1
102
RTVSPost2010Prop34
280
     0
102
RTVSPost2010PropOp34
 70
     1
102
RTVSPost2010Prop35
280
     0
102
RTVSPost2010PropOp35
 70
     1
102
RTVSPost2010Prop36
280
     0
102
RTVSPost2010PropOp36
 70
     1
102
RTVSPost2010Prop37
 90
       50
102
RTVSPost2010PropOp37
 70
     1
102
RTVSPost2010Prop38
140
0.0
102
RTVSPost2010PropOp38
 70
     1
102
RTVSPost2010Prop39
140
1.0
102
RTVSPost2010PropOp39
 70
     1
102
RTVSPost2010Prop40
 90
        0
102
RTVSPost2010PropOp40
 70
     1
102
RTVSPost2010Prop41ColorIndex
 90
       18
102
RTVSPost2010Prop41ColorRGB
 90
        0
102
RTVSPost2010PropOp41
 70
     1
102
RTVSPost2010Prop42
 90
       50
102
RTVSPost2010PropOp42
 70
     1
102
RTVSPost2010Prop43
 90
        3
102
RTVSPost2010PropOp43
 70
     1
102
RTVSPost2010Prop44ColorIndex
 90
        5
102
RTVSPost2010Prop44ColorRGB
 90
      255
102
RTVSPost2010PropOp44
 70
     1
102
RTVSPost2010Prop45
280
     0
102
RTVSPost2010PropOp45
 70
     1
102
RTVSPost2010Prop46
 90
       50
102
RTVSPost2010PropOp46
 70
     1
102
RTVSPost2010Prop47
 90
       50
102
RTVSPost2010PropOp47
 70
     1
102
RTVSPost2010Prop48
 90
       50
102
RTVSPost2010PropOp48
 70
     1
102
RTVSPost2010Prop49
280
     0
102
RTVSPost2010PropOp49
 70
     1
102
RTVSPost2010Prop50
 90
       50
102
RTVSPost2010PropOp50
 70
     1
102
RTVSPost2010Prop51ColorIndex
 90
      256
102
RTVSPost2010Prop51ColorRGB
 90
-16777216
102
RTVSPost2010PropOp51
 70
     0
102
RTVSPost2010Prop52
140
1.0
102
RTVSPost2010PropOp52
 70
     0
102
RTVSPost2010Prop53
 90
        2
102
RTVSPost2010PropOp53
 70
     1
102
RTVSPost2010Prop54
  1
strokes_ogs.tif
102
RTVSPost2010PropOp54
 70
     1
102
RTVSPost2010Prop55
280
     0
102
RTVSPost2010PropOp55
 70
     1
102
RTVSPost2010Prop56
140
1.0
102
RTVSPost2010PropOp56
 70
     1
102
RTVSPost2010Prop57
140
1.0
102
RTVSPost2010PropOp57
 70
     1
102
RTVSPropertyOp0
 70
     1
102
RTVSPropertyOp1
 70
     1
102
RTVSPropertyOp2
 70
     1
102
RTVSPropertyOp3
 70
     1
102
RTVSPropertyOp4
 70
     1
102
RTVSPropertyOp5
 70
     1
102
RTVSPropertyOp6
 70
     1
102
RTVSPropertyOp7
 70
     1
102
RTVSPropertyOp8
 70
     1
102
RTVSPropertyOp9
 70
     1
102
RTVSPropertyOp10
 70
     1
102
RTVSPropertyOp11
 70
     1
102
RTVSPropertyOp12
 70
     1
102
RTVSPropertyOp13
 70
     1
102
RTVSPropertyOp14
 70
     1
102
RTVSPropertyOp15
 70
     1
102
RTVSPropertyOp16
 70
     1
102
RTVSPropertyOp17
 70
     1
102
RTVSPropertyOp18
 70
     1
102
RTVSPropertyOp19
 70
     1
102
RTVSPropertyOp20
 70
     1
102
RTVSPropertyOp21
 70
     1
102
RTVSPropertyOp22
 70
     1
102
RTVSPropertyOp23
 70
     1
102
RTVSPropertyOp24
 70
     1
102
RTVSPropertyOp25
 70
     1
102
RTVSPropertyOp26
 70
     1
102
RTVSPropertyOp27
 70
     1
102
RTVSPropertyOp28
 70
     1
102
RTVSPropertyOp29
 70
     1
102
RTVSPropertyOp30
 70
     1
102
RTVSPropertyOp31
 70
     1
102
RTVSPropertyOp32
 70
     1
102
RTVSPropertyOp33
 70
     1
102
RTVSPropertyOp34
 70
     1
102
RTVSPropertyOp35
 70
     1
102
RTVSPropertyOp36
 70
     1
102
RTVSPropertyOp37
 70
     1
102
RTVSPropertyOp38
 70
     1
102
RTVSPropertyOp39
 70
     1
102
RTVSPropertyOp40
 70
     1
102
RTVSPropertyOp41
 70
     1
102
RTVSPropertyOp42
 70
     1
102
RTVSPropertyOp43
 70
     1
102
RTVSPropertyOp44
 70
     1
102
RTVSPropertyOp45
 70
     1
102
RTVSPropertyOp46
 70
     1
102
RTVSPropertyOp47
 70
     1
102
RTVSPropertyOp48
 70
     1
102
RTVSPropertyOp49
 70
     1
102
RTVSPropertyOp50
 70
     1
102
RTVSPropertyOp51
 70
     0
102
RTVSPropertyOp52
 70
     0
102
RTVSPropertyOp53
 70
     1
102
RTVSPropertyOp54
 70
     1
102
RTVSPropertyOp55
 70
     1
102
RTVSPropertyOp56
 70
     1
102
RTVSPropertyOp57
 70
     1
102
RTVSPropertyOp58
 70
     1
102
RTVSPropertyOp59
 70
     1
102
RTVSPropertyOp60
 70
     1
102
RTVSPropertyOp61
 70
     1
102
RTVSPropertyOp62
 70
     1
  0
XRECORD
  5
7B0A
102
{ACAD_REACTORS
330
7B09
102
}
330
7B09
100
AcDbXrecord
280
     1
102
RTVSPost2010Prop28
280
     0
102
RTVSPost2010PropOp28
 70
     1
102
RTVSPost2010Prop29
280
     1
102
RTVSPost2010PropOp29
 70
     1
102
RTVSPost2010Prop30
280
     1
102
RTVSPost2010PropOp30
 70
     1
102
RTVSPost2010Prop31
280
     0
102
RTVSPost2010PropOp31
 70
     1
102
RTVSPost2010Prop32
280
     0
102
RTVSPost2010PropOp32
 70
     1
102
RTVSPost2010Prop33
280
     0
102
RTVSPost2010PropOp33
 70
     1
102
RTVSPost2010Prop34
280
     0
102
RTVSPost2010PropOp34
 70
     1
102
RTVSPost2010Prop35
280
     0
102
RTVSPost2010PropOp35
 70
     1
102
RTVSPost2010Prop36
280
     0
102
RTVSPost2010PropOp36
 70
     1
102
RTVSPost2010Prop37
 90
       50
102
RTVSPost2010PropOp37
 70
     1
102
RTVSPost2010Prop38
140
0.0
102
RTVSPost2010PropOp38
 70
     1
102
RTVSPost2010Prop39
140
1.0
102
RTVSPost2010PropOp39
 70
     1
102
RTVSPost2010Prop40
 90
        0
102
RTVSPost2010PropOp40
 70
     1
102
RTVSPost2010Prop41ColorIndex
 90
       18
102
RTVSPost2010Prop41ColorRGB
 90
        0
102
RTVSPost2010PropOp41
 70
     1
102
RTVSPost2010Prop42
 90
       50
102
RTVSPost2010PropOp42
 70
     1
102
RTVSPost2010Prop43
 90
        3
102
RTVSPost2010PropOp43
 70
     1
102
RTVSPost2010Prop44ColorIndex
 90
        5
102
RTVSPost2010Prop44ColorRGB
 90
      255
102
RTVSPost2010PropOp44
 70
     1
102
RTVSPost2010Prop45
280
     0
102
RTVSPost2010PropOp45
 70
     1
102
RTVSPost2010Prop46
 90
       50
102
RTVSPost2010PropOp46
 70
     1
102
RTVSPost2010Prop47
 90
       50
102
RTVSPost2010PropOp47
 70
     1
102
RTVSPost2010Prop48
 90
       50
102
RTVSPost2010PropOp48
 70
     1
102
RTVSPost2010Prop49
280
     0
102
RTVSPost2010PropOp49
 70
     1
102
RTVSPost2010Prop50
 90
       50
102
RTVSPost2010PropOp50
 70
     1
102
RTVSPost2010Prop51ColorIndex
 90
      256
102
RTVSPost2010Prop51ColorRGB
 90
-16777216
102
RTVSPost2010PropOp51
 70
     0
102
RTVSPost2010Prop52
140
1.0
102
RTVSPost2010PropOp52
 70
     0
102
RTVSPost2010Prop53
 90
        2
102
RTVSPost2010PropOp53
 70
     1
102
RTVSPost2010Prop54
  1
strokes_ogs.tif
102
RTVSPost2010PropOp54
 70
     1
102
RTVSPost2010Prop55
280
     0
102
RTVSPost2010PropOp55
 70
     1
102
RTVSPost2010Prop56
140
1.0
102
RTVSPost2010PropOp56
 70
     1
102
RTVSPost2010Prop57
140
1.0
102
RTVSPost2010PropOp57
 70
     1
102
RTVSPropertyOp0
 70
     1
102
RTVSPropertyOp1
 70
     1
102
RTVSPropertyOp2
 70
     1
102
RTVSPropertyOp3
 70
     1
102
RTVSPropertyOp4
 70
     1
102
RTVSPropertyOp5
 70
     1
102
RTVSPropertyOp6
 70
     1
102
RTVSPropertyOp7
 70
     1
102
RTVSPropertyOp8
 70
     1
102
RTVSPropertyOp9
 70
     1
102
RTVSPropertyOp10
 70
     1
102
RTVSPropertyOp11
 70
     1
102
RTVSPropertyOp12
 70
     1
102
RTVSPropertyOp13
 70
     1
102
RTVSPropertyOp14
 70
     1
102
RTVSPropertyOp15
 70
     1
102
RTVSPropertyOp16
 70
     1
102
RTVSPropertyOp17
 70
     1
102
RTVSPropertyOp18
 70
     1
102
RTVSPropertyOp19
 70
     1
102
RTVSPropertyOp20
 70
     1
102
RTVSPropertyOp21
 70
     1
102
RTVSPropertyOp22
 70
     1
102
RTVSPropertyOp23
 70
     1
102
RTVSPropertyOp24
 70
     1
102
RTVSPropertyOp25
 70
     1
102
RTVSPropertyOp26
 70
     1
102
RTVSPropertyOp27
 70
     1
102
RTVSPropertyOp28
 70
     1
102
RTVSPropertyOp29
 70
     1
102
RTVSPropertyOp30
 70
     1
102
RTVSPropertyOp31
 70
     1
102
RTVSPropertyOp32
 70
     1
102
RTVSPropertyOp33
 70
     1
102
RTVSPropertyOp34
 70
     1
102
RTVSPropertyOp35
 70
     1
102
RTVSPropertyOp36
 70
     1
102
RTVSPropertyOp37
 70
     1
102
RTVSPropertyOp38
 70
     1
102
RTVSPropertyOp39
 70
     1
102
RTVSPropertyOp40
 70
     1
102
RTVSPropertyOp41
 70
     1
102
RTVSPropertyOp42
 70
     1
102
RTVSPropertyOp43
 70
     1
102
RTVSPropertyOp44
 70
     1
102
RTVSPropertyOp45
 70
     1
102
RTVSPropertyOp46
 70
     1
102
RTVSPropertyOp47
 70
     1
102
RTVSPropertyOp48
 70
     1
102
RTVSPropertyOp49
 70
     1
102
RTVSPropertyOp50
 70
     1
102
RTVSPropertyOp51
 70
     0
102
RTVSPropertyOp52
 70
     0
102
RTVSPropertyOp53
 70
     1
102
RTVSPropertyOp54
 70
     1
102
RTVSPropertyOp55
 70
     1
102
RTVSPropertyOp56
 70
     1
102
RTVSPropertyOp57
 70
     1
102
RTVSPropertyOp58
 70
     1
102
RTVSPropertyOp59
 70
     1
102
RTVSPropertyOp60
 70
     1
102
RTVSPropertyOp61
 70
     1
102
RTVSPropertyOp62
 70
     1
  0
XRECORD
  5
7B12
102
{ACAD_REACTORS
330
7B11
102
}
330
7B11
100
AcDbXrecord
280
     1
102
RTVSPost2010Prop28
280
     0
102
RTVSPost2010PropOp28
 70
     1
102
RTVSPost2010Prop29
280
     1
102
RTVSPost2010PropOp29
 70
     1
102
RTVSPost2010Prop30
280
     1
102
RTVSPost2010PropOp30
 70
     1
102
RTVSPost2010Prop31
280
     0
102
RTVSPost2010PropOp31
 70
     1
102
RTVSPost2010Prop32
280
     0
102
RTVSPost2010PropOp32
 70
     1
102
RTVSPost2010Prop33
280
     0
102
RTVSPost2010PropOp33
 70
     1
102
RTVSPost2010Prop34
280
     0
102
RTVSPost2010PropOp34
 70
     1
102
RTVSPost2010Prop35
280
     0
102
RTVSPost2010PropOp35
 70
     1
102
RTVSPost2010Prop36
280
     0
102
RTVSPost2010PropOp36
 70
     1
102
RTVSPost2010Prop37
 90
       50
102
RTVSPost2010PropOp37
 70
     1
102
RTVSPost2010Prop38
140
0.0
102
RTVSPost2010PropOp38
 70
     1
102
RTVSPost2010Prop39
140
1.0
102
RTVSPost2010PropOp39
 70
     1
102
RTVSPost2010Prop40
 90
        0
102
RTVSPost2010PropOp40
 70
     1
102
RTVSPost2010Prop41ColorIndex
 90
       18
102
RTVSPost2010Prop41ColorRGB
 90
        0
102
RTVSPost2010PropOp41
 70
     1
102
RTVSPost2010Prop42
 90
       50
102
RTVSPost2010PropOp42
 70
     1
102
RTVSPost2010Prop43
 90
        3
102
RTVSPost2010PropOp43
 70
     1
102
RTVSPost2010Prop44ColorIndex
 90
        5
102
RTVSPost2010Prop44ColorRGB
 90
      255
102
RTVSPost2010PropOp44
 70
     1
102
RTVSPost2010Prop45
280
     0
102
RTVSPost2010PropOp45
 70
     1
102
RTVSPost2010Prop46
 90
       50
102
RTVSPost2010PropOp46
 70
     1
102
RTVSPost2010Prop47
 90
       50
102
RTVSPost2010PropOp47
 70
     1
102
RTVSPost2010Prop48
 90
       50
102
RTVSPost2010PropOp48
 70
     1
102
RTVSPost2010Prop49
280
     0
102
RTVSPost2010PropOp49
 70
     1
102
RTVSPost2010Prop50
 90
       50
102
RTVSPost2010PropOp50
 70
     1
102
RTVSPost2010Prop51ColorIndex
 90
      256
102
RTVSPost2010Prop51ColorRGB
 90
-16777216
102
RTVSPost2010PropOp51
 70
     0
102
RTVSPost2010Prop52
140
1.0
102
RTVSPost2010PropOp52
 70
     0
102
RTVSPost2010Prop53
 90
        2
102
RTVSPost2010PropOp53
 70
     1
102
RTVSPost2010Prop54
  1
strokes_ogs.tif
102
RTVSPost2010PropOp54
 70
     1
102
RTVSPost2010Prop55
280
     0
102
RTVSPost2010PropOp55
 70
     1
102
RTVSPost2010Prop56
140
1.0
102
RTVSPost2010PropOp56
 70
     1
102
RTVSPost2010Prop57
140
1.0
102
RTVSPost2010PropOp57
 70
     1
102
RTVSPropertyOp0
 70
     1
102
RTVSPropertyOp1
 70
     1
102
RTVSPropertyOp2
 70
     1
102
RTVSPropertyOp3
 70
     1
102
RTVSPropertyOp4
 70
     1
102
RTVSPropertyOp5
 70
     1
102
RTVSPropertyOp6
 70
     1
102
RTVSPropertyOp7
 70
     1
102
RTVSPropertyOp8
 70
     1
102
RTVSPropertyOp9
 70
     1
102
RTVSPropertyOp10
 70
     1
102
RTVSPropertyOp11
 70
     1
102
RTVSPropertyOp12
 70
     1
102
RTVSPropertyOp13
 70
     1
102
RTVSPropertyOp14
 70
     1
102
RTVSPropertyOp15
 70
     1
102
RTVSPropertyOp16
 70
     1
102
RTVSPropertyOp17
 70
     1
102
RTVSPropertyOp18
 70
     1
102
RTVSPropertyOp19
 70
     1
102
RTVSPropertyOp20
 70
     1
102
RTVSPropertyOp21
 70
     1
102
RTVSPropertyOp22
 70
     1
102
RTVSPropertyOp23
 70
     1
102
RTVSPropertyOp24
 70
     1
102
RTVSPropertyOp25
 70
     1
102
RTVSPropertyOp26
 70
     1
102
RTVSPropertyOp27
 70
     1
102
RTVSPropertyOp28
 70
     1
102
RTVSPropertyOp29
 70
     1
102
RTVSPropertyOp30
 70
     1
102
RTVSPropertyOp31
 70
     1
102
RTVSPropertyOp32
 70
     1
102
RTVSPropertyOp33
 70
     1
102
RTVSPropertyOp34
 70
     1
102
RTVSPropertyOp35
 70
     1
102
RTVSPropertyOp36
 70
     1
102
RTVSPropertyOp37
 70
     1
102
RTVSPropertyOp38
 70
     1
102
RTVSPropertyOp39
 70
     1
102
RTVSPropertyOp40
 70
     1
102
RTVSPropertyOp41
 70
     1
102
RTVSPropertyOp42
 70
     1
102
RTVSPropertyOp43
 70
     1
102
RTVSPropertyOp44
 70
     1
102
RTVSPropertyOp45
 70
     1
102
RTVSPropertyOp46
 70
     1
102
RTVSPropertyOp47
 70
     1
102
RTVSPropertyOp48
 70
     1
102
RTVSPropertyOp49
 70
     1
102
RTVSPropertyOp50
 70
     1
102
RTVSPropertyOp51
 70
     0
102
RTVSPropertyOp52
 70
     0
102
RTVSPropertyOp53
 70
     1
102
RTVSPropertyOp54
 70
     1
102
RTVSPropertyOp55
 70
     1
102
RTVSPropertyOp56
 70
     1
102
RTVSPropertyOp57
 70
     1
102
RTVSPropertyOp58
 70
     1
102
RTVSPropertyOp59
 70
     1
102
RTVSPropertyOp60
 70
     1
102
RTVSPropertyOp61
 70
     1
102
RTVSPropertyOp62
 70
     1
  0
XRECORD
  5
7B2E
102
{ACAD_REACTORS
330
7B2D
102
}
330
7B2D
100
AcDbXrecord
280
     1
102
RTVSPost2010Prop28
280
     0
102
RTVSPost2010PropOp28
 70
     0
102
RTVSPost2010Prop29
280
     1
102
RTVSPost2010PropOp29
 70
     0
102
RTVSPost2010Prop30
280
     1
102
RTVSPost2010PropOp30
 70
     0
102
RTVSPost2010Prop31
280
     0
102
RTVSPost2010PropOp31
 70
     0
102
RTVSPost2010Prop32
280
     0
102
RTVSPost2010PropOp32
 70
     0
102
RTVSPost2010Prop33
280
     0
102
RTVSPost2010PropOp33
 70
     0
102
RTVSPost2010Prop34
280
     0
102
RTVSPost2010PropOp34
 70
     0
102
RTVSPost2010Prop35
280
     0
102
RTVSPost2010PropOp35
 70
     0
102
RTVSPost2010Prop36
280
     0
102
RTVSPost2010PropOp36
 70
     0
102
RTVSPost2010Prop37
 90
       50
102
RTVSPost2010PropOp37
 70
     0
102
RTVSPost2010Prop38
140
0.0
102
RTVSPost2010PropOp38
 70
     0
102
RTVSPost2010Prop39
140
1.0
102
RTVSPost2010PropOp39
 70
     0
102
RTVSPost2010Prop40
 90
        0
102
RTVSPost2010PropOp40
 70
     0
102
RTVSPost2010Prop41ColorIndex
 90
       18
102
RTVSPost2010Prop41ColorRGB
 90
        0
102
RTVSPost2010PropOp41
 70
     0
102
RTVSPost2010Prop42
 90
       50
102
RTVSPost2010PropOp42
 70
     0
102
RTVSPost2010Prop43
 90
        3
102
RTVSPost2010PropOp43
 70
     0
102
RTVSPost2010Prop44ColorIndex
 90
        5
102
RTVSPost2010Prop44ColorRGB
 90
      255
102
RTVSPost2010PropOp44
 70
     0
102
RTVSPost2010Prop45
280
     0
102
RTVSPost2010PropOp45
 70
     0
102
RTVSPost2010Prop46
 90
       50
102
RTVSPost2010PropOp46
 70
     0
102
RTVSPost2010Prop47
 90
       50
102
RTVSPost2010PropOp47
 70
     0
102
RTVSPost2010Prop48
 90
       50
102
RTVSPost2010PropOp48
 70
     0
102
RTVSPost2010Prop49
280
     0
102
RTVSPost2010PropOp49
 70
     0
102
RTVSPost2010Prop50
 90
       50
102
RTVSPost2010PropOp50
 70
     0
102
RTVSPost2010Prop51ColorIndex
 90
      256
102
RTVSPost2010Prop51ColorRGB
 90
-16777216
102
RTVSPost2010PropOp51
 70
     0
102
RTVSPost2010Prop52
140
1.0
102
RTVSPost2010PropOp52
 70
     0
102
RTVSPost2010Prop53
 90
        2
102
RTVSPost2010PropOp53
 70
     0
102
RTVSPost2010Prop54
  1
strokes_ogs.tif
102
RTVSPost2010PropOp54
 70
     0
102
RTVSPost2010Prop55
280
     0
102
RTVSPost2010PropOp55
 70
     0
102
RTVSPost2010Prop56
140
1.0
102
RTVSPost2010PropOp56
 70
     0
102
RTVSPost2010Prop57
140
1.0
102
RTVSPost2010PropOp57
 70
     0
102
RTVSPropertyOp0
 70
     0
102
RTVSPropertyOp1
 70
     0
102
RTVSPropertyOp2
 70
     0
102
RTVSPropertyOp3
 70
     0
102
RTVSPropertyOp4
 70
     0
102
RTVSPropertyOp5
 70
     0
102
RTVSPropertyOp6
 70
     0
102
RTVSPropertyOp7
 70
     0
102
RTVSPropertyOp8
 70
     0
102
RTVSPropertyOp9
 70
     0
102
RTVSPropertyOp10
 70
     0
102
RTVSPropertyOp11
 70
     0
102
RTVSPropertyOp12
 70
     0
102
RTVSPropertyOp13
 70
     0
102
RTVSPropertyOp14
 70
     2
102
RTVSPropertyOp15
 70
     0
102
RTVSPropertyOp16
 70
     0
102
RTVSPropertyOp17
 70
     0
102
RTVSPropertyOp18
 70
     0
102
RTVSPropertyOp19
 70
     0
102
RTVSPropertyOp20
 70
     0
102
RTVSPropertyOp21
 70
     0
102
RTVSPropertyOp22
 70
     0
102
RTVSPropertyOp23
 70
     0
102
RTVSPropertyOp24
 70
     0
102
RTVSPropertyOp25
 70
     0
102
RTVSPropertyOp26
 70
     0
102
RTVSPropertyOp27
 70
     0
102
RTVSPropertyOp28
 70
     0
102
RTVSPropertyOp29
 70
     0
102
RTVSPropertyOp30
 70
     0
102
RTVSPropertyOp31
 70
     0
102
RTVSPropertyOp32
 70
     0
102
RTVSPropertyOp33
 70
     0
102
RTVSPropertyOp34
 70
     0
102
RTVSPropertyOp35
 70
     0
102
RTVSPropertyOp36
 70
     0
102
RTVSPropertyOp37
 70
     0
102
RTVSPropertyOp38
 70
     0
102
RTVSPropertyOp39
 70
     0
102
RTVSPropertyOp40
 70
     0
102
RTVSPropertyOp41
 70
     0
102
RTVSPropertyOp42
 70
     0
102
RTVSPropertyOp43
 70
     0
102
RTVSPropertyOp44
 70
     0
102
RTVSPropertyOp45
 70
     0
102
RTVSPropertyOp46
 70
     0
102
RTVSPropertyOp47
 70
     0
102
RTVSPropertyOp48
 70
     0
102
RTVSPropertyOp49
 70
     0
102
RTVSPropertyOp50
 70
     0
102
RTVSPropertyOp51
 70
     0
102
RTVSPropertyOp52
 70
     0
102
RTVSPropertyOp53
 70
     0
102
RTVSPropertyOp54
 70
     0
102
RTVSPropertyOp55
 70
     0
102
RTVSPropertyOp56
 70
     0
102
RTVSPropertyOp57
 70
     0
102
RTVSPropertyOp58
 70
     0
102
RTVSPropertyOp59
 70
     0
102
RTVSPropertyOp60
 70
     0
102
RTVSPropertyOp61
 70
     0
102
RTVSPropertyOp62
 70
     0
  0
XRECORD
  5
7B1E
102
{ACAD_REACTORS
330
7B1D
102
}
330
7B1D
100
AcDbXrecord
280
     1
102
RTVSPost2010Prop28
280
     0
102
RTVSPost2010PropOp28
 70
     1
102
RTVSPost2010Prop29
280
     1
102
RTVSPost2010PropOp29
 70
     1
102
RTVSPost2010Prop30
280
     1
102
RTVSPost2010PropOp30
 70
     1
102
RTVSPost2010Prop31
280
     0
102
RTVSPost2010PropOp31
 70
     1
102
RTVSPost2010Prop32
280
     0
102
RTVSPost2010PropOp32
 70
     1
102
RTVSPost2010Prop33
280
     0
102
RTVSPost2010PropOp33
 70
     1
102
RTVSPost2010Prop34
280
     0
102
RTVSPost2010PropOp34
 70
     1
102
RTVSPost2010Prop35
280
     0
102
RTVSPost2010PropOp35
 70
     1
102
RTVSPost2010Prop36
280
     0
102
RTVSPost2010PropOp36
 70
     1
102
RTVSPost2010Prop37
 90
       50
102
RTVSPost2010PropOp37
 70
     1
102
RTVSPost2010Prop38
140
0.0
102
RTVSPost2010PropOp38
 70
     1
102
RTVSPost2010Prop39
140
1.0
102
RTVSPost2010PropOp39
 70
     1
102
RTVSPost2010Prop40
 90
        0
102
RTVSPost2010PropOp40
 70
     1
102
RTVSPost2010Prop41ColorIndex
 90
       18
102
RTVSPost2010Prop41ColorRGB
 90
        0
102
RTVSPost2010PropOp41
 70
     1
102
RTVSPost2010Prop42
 90
       50
102
RTVSPost2010PropOp42
 70
     1
102
RTVSPost2010Prop43
 90
        3
102
RTVSPost2010PropOp43
 70
     1
102
RTVSPost2010Prop44ColorIndex
 90
        5
102
RTVSPost2010Prop44ColorRGB
 90
      255
102
RTVSPost2010PropOp44
 70
     1
102
RTVSPost2010Prop45
280
     0
102
RTVSPost2010PropOp45
 70
     1
102
RTVSPost2010Prop46
 90
       50
102
RTVSPost2010PropOp46
 70
     1
102
RTVSPost2010Prop47
 90
       50
102
RTVSPost2010PropOp47
 70
     1
102
RTVSPost2010Prop48
 90
       50
102
RTVSPost2010PropOp48
 70
     1
102
RTVSPost2010Prop49
280
     0
102
RTVSPost2010PropOp49
 70
     1
102
RTVSPost2010Prop50
 90
       50
102
RTVSPost2010PropOp50
 70
     1
102
RTVSPost2010Prop51ColorIndex
 90
      256
102
RTVSPost2010Prop51ColorRGB
 90
-16777216
102
RTVSPost2010PropOp51
 70
     0
102
RTVSPost2010Prop52
140
1.0
102
RTVSPost2010PropOp52
 70
     0
102
RTVSPost2010Prop53
 90
        2
102
RTVSPost2010PropOp53
 70
     1
102
RTVSPost2010Prop54
  1
strokes_ogs.tif
102
RTVSPost2010PropOp54
 70
     1
102
RTVSPost2010Prop55
280
     0
102
RTVSPost2010PropOp55
 70
     1
102
RTVSPost2010Prop56
140
1.0
102
RTVSPost2010PropOp56
 70
     1
102
RTVSPost2010Prop57
140
1.0
102
RTVSPost2010PropOp57
 70
     1
102
RTVSPropertyOp0
 70
     1
102
RTVSPropertyOp1
 70
     1
102
RTVSPropertyOp2
 70
     1
102
RTVSPropertyOp3
 70
     1
102
RTVSPropertyOp4
 70
     1
102
RTVSPropertyOp5
 70
     1
102
RTVSPropertyOp6
 70
     1
102
RTVSPropertyOp7
 70
     1
102
RTVSPropertyOp8
 70
     1
102
RTVSPropertyOp9
 70
     1
102
RTVSPropertyOp10
 70
     1
102
RTVSPropertyOp11
 70
     1
102
RTVSPropertyOp12
 70
     1
102
RTVSPropertyOp13
 70
     1
102
RTVSPropertyOp14
 70
     1
102
RTVSPropertyOp15
 70
     1
102
RTVSPropertyOp16
 70
     1
102
RTVSPropertyOp17
 70
     1
102
RTVSPropertyOp18
 70
     1
102
RTVSPropertyOp19
 70
     1
102
RTVSPropertyOp20
 70
     1
102
RTVSPropertyOp21
 70
     1
102
RTVSPropertyOp22
 70
     1
102
RTVSPropertyOp23
 70
     1
102
RTVSPropertyOp24
 70
     1
102
RTVSPropertyOp25
 70
     1
102
RTVSPropertyOp26
 70
     1
102
RTVSPropertyOp27
 70
     1
102
RTVSPropertyOp28
 70
     1
102
RTVSPropertyOp29
 70
     1
102
RTVSPropertyOp30
 70
     1
102
RTVSPropertyOp31
 70
     1
102
RTVSPropertyOp32
 70
     1
102
RTVSPropertyOp33
 70
     1
102
RTVSPropertyOp34
 70
     1
102
RTVSPropertyOp35
 70
     1
102
RTVSPropertyOp36
 70
     1
102
RTVSPropertyOp37
 70
     1
102
RTVSPropertyOp38
 70
     1
102
RTVSPropertyOp39
 70
     1
102
RTVSPropertyOp40
 70
     1
102
RTVSPropertyOp41
 70
     1
102
RTVSPropertyOp42
 70
     1
102
RTVSPropertyOp43
 70
     1
102
RTVSPropertyOp44
 70
     1
102
RTVSPropertyOp45
 70
     1
102
RTVSPropertyOp46
 70
     1
102
RTVSPropertyOp47
 70
     1
102
RTVSPropertyOp48
 70
     1
102
RTVSPropertyOp49
 70
     1
102
RTVSPropertyOp50
 70
     1
102
RTVSPropertyOp51
 70
     0
102
RTVSPropertyOp52
 70
     0
102
RTVSPropertyOp53
 70
     1
102
RTVSPropertyOp54
 70
     1
102
RTVSPropertyOp55
 70
     1
102
RTVSPropertyOp56
 70
     1
102
RTVSPropertyOp57
 70
     1
102
RTVSPropertyOp58
 70
     1
102
RTVSPropertyOp59
 70
     1
102
RTVSPropertyOp60
 70
     1
102
RTVSPropertyOp61
 70
     1
102
RTVSPropertyOp62
 70
     1
  0
XRECORD
  5
7B30
102
{ACAD_REACTORS
330
7B2F
102
}
330
7B2F
100
AcDbXrecord
280
     1
102
RTVSPost2010Prop28
280
     0
102
RTVSPost2010PropOp28
 70
     0
102
RTVSPost2010Prop29
280
     1
102
RTVSPost2010PropOp29
 70
     0
102
RTVSPost2010Prop30
280
     1
102
RTVSPost2010PropOp30
 70
     0
102
RTVSPost2010Prop31
280
     0
102
RTVSPost2010PropOp31
 70
     0
102
RTVSPost2010Prop32
280
     0
102
RTVSPost2010PropOp32
 70
     0
102
RTVSPost2010Prop33
280
     0
102
RTVSPost2010PropOp33
 70
     0
102
RTVSPost2010Prop34
280
     0
102
RTVSPost2010PropOp34
 70
     0
102
RTVSPost2010Prop35
280
     0
102
RTVSPost2010PropOp35
 70
     0
102
RTVSPost2010Prop36
280
     0
102
RTVSPost2010PropOp36
 70
     0
102
RTVSPost2010Prop37
 90
       50
102
RTVSPost2010PropOp37
 70
     0
102
RTVSPost2010Prop38
140
0.0
102
RTVSPost2010PropOp38
 70
     0
102
RTVSPost2010Prop39
140
1.0
102
RTVSPost2010PropOp39
 70
     0
102
RTVSPost2010Prop40
 90
        0
102
RTVSPost2010PropOp40
 70
     0
102
RTVSPost2010Prop41ColorIndex
 90
       18
102
RTVSPost2010Prop41ColorRGB
 90
        0
102
RTVSPost2010PropOp41
 70
     0
102
RTVSPost2010Prop42
 90
       50
102
RTVSPost2010PropOp42
 70
     0
102
RTVSPost2010Prop43
 90
        3
102
RTVSPost2010PropOp43
 70
     0
102
RTVSPost2010Prop44ColorIndex
 90
        5
102
RTVSPost2010Prop44ColorRGB
 90
      255
102
RTVSPost2010PropOp44
 70
     0
102
RTVSPost2010Prop45
280
     0
102
RTVSPost2010PropOp45
 70
     0
102
RTVSPost2010Prop46
 90
       50
102
RTVSPost2010PropOp46
 70
     0
102
RTVSPost2010Prop47
 90
       50
102
RTVSPost2010PropOp47
 70
     0
102
RTVSPost2010Prop48
 90
       50
102
RTVSPost2010PropOp48
 70
     0
102
RTVSPost2010Prop49
280
     0
102
RTVSPost2010PropOp49
 70
     0
102
RTVSPost2010Prop50
 90
       50
102
RTVSPost2010PropOp50
 70
     0
102
RTVSPost2010Prop51ColorIndex
 90
      256
102
RTVSPost2010Prop51ColorRGB
 90
-16777216
102
RTVSPost2010PropOp51
 70
     0
102
RTVSPost2010Prop52
140
1.0
102
RTVSPost2010PropOp52
 70
     0
102
RTVSPost2010Prop53
 90
        2
102
RTVSPost2010PropOp53
 70
     0
102
RTVSPost2010Prop54
  1
strokes_ogs.tif
102
RTVSPost2010PropOp54
 70
     0
102
RTVSPost2010Prop55
280
     0
102
RTVSPost2010PropOp55
 70
     0
102
RTVSPost2010Prop56
140
1.0
102
RTVSPost2010PropOp56
 70
     0
102
RTVSPost2010Prop57
140
1.0
102
RTVSPost2010PropOp57
 70
     0
102
RTVSPropertyOp0
 70
     0
102
RTVSPropertyOp1
 70
     0
102
RTVSPropertyOp2
 70
     0
102
RTVSPropertyOp3
 70
     0
102
RTVSPropertyOp4
 70
     0
102
RTVSPropertyOp5
 70
     0
102
RTVSPropertyOp6
 70
     0
102
RTVSPropertyOp7
 70
     0
102
RTVSPropertyOp8
 70
     0
102
RTVSPropertyOp9
 70
     0
102
RTVSPropertyOp10
 70
     0
102
RTVSPropertyOp11
 70
     0
102
RTVSPropertyOp12
 70
     0
102
RTVSPropertyOp13
 70
     0
102
RTVSPropertyOp14
 70
     2
102
RTVSPropertyOp15
 70
     0
102
RTVSPropertyOp16
 70
     0
102
RTVSPropertyOp17
 70
     0
102
RTVSPropertyOp18
 70
     0
102
RTVSPropertyOp19
 70
     0
102
RTVSPropertyOp20
 70
     0
102
RTVSPropertyOp21
 70
     0
102
RTVSPropertyOp22
 70
     0
102
RTVSPropertyOp23
 70
     0
102
RTVSPropertyOp24
 70
     0
102
RTVSPropertyOp25
 70
     0
102
RTVSPropertyOp26
 70
     0
102
RTVSPropertyOp27
 70
     0
102
RTVSPropertyOp28
 70
     0
102
RTVSPropertyOp29
 70
     0
102
RTVSPropertyOp30
 70
     0
102
RTVSPropertyOp31
 70
     0
102
RTVSPropertyOp32
 70
     0
102
RTVSPropertyOp33
 70
     0
102
RTVSPropertyOp34
 70
     0
102
RTVSPropertyOp35
 70
     0
102
RTVSPropertyOp36
 70
     0
102
RTVSPropertyOp37
 70
     0
102
RTVSPropertyOp38
 70
     0
102
RTVSPropertyOp39
 70
     0
102
RTVSPropertyOp40
 70
     0
102
RTVSPropertyOp41
 70
     0
102
RTVSPropertyOp42
 70
     0
102
RTVSPropertyOp43
 70
     0
102
RTVSPropertyOp44
 70
     0
102
RTVSPropertyOp45
 70
     0
102
RTVSPropertyOp46
 70
     0
102
RTVSPropertyOp47
 70
     0
102
RTVSPropertyOp48
 70
     0
102
RTVSPropertyOp49
 70
     0
102
RTVSPropertyOp50
 70
     0
102
RTVSPropertyOp51
 70
     0
102
RTVSPropertyOp52
 70
     0
102
RTVSPropertyOp53
 70
     0
102
RTVSPropertyOp54
 70
     0
102
RTVSPropertyOp55
 70
     0
102
RTVSPropertyOp56
 70
     0
102
RTVSPropertyOp57
 70
     0
102
RTVSPropertyOp58
 70
     0
102
RTVSPropertyOp59
 70
     0
102
RTVSPropertyOp60
 70
     0
102
RTVSPropertyOp61
 70
     0
102
RTVSPropertyOp62
 70
     0
  0
XRECORD
  5
7B16
102
{ACAD_REACTORS
330
7B15
102
}
330
7B15
100
AcDbXrecord
280
     1
102
RTVSPost2010Prop28
280
     0
102
RTVSPost2010PropOp28
 70
     1
102
RTVSPost2010Prop29
280
     1
102
RTVSPost2010PropOp29
 70
     1
102
RTVSPost2010Prop30
280
     1
102
RTVSPost2010PropOp30
 70
     1
102
RTVSPost2010Prop31
280
     0
102
RTVSPost2010PropOp31
 70
     1
102
RTVSPost2010Prop32
280
     0
102
RTVSPost2010PropOp32
 70
     1
102
RTVSPost2010Prop33
280
     0
102
RTVSPost2010PropOp33
 70
     1
102
RTVSPost2010Prop34
280
     0
102
RTVSPost2010PropOp34
 70
     1
102
RTVSPost2010Prop35
280
     0
102
RTVSPost2010PropOp35
 70
     1
102
RTVSPost2010Prop36
280
     0
102
RTVSPost2010PropOp36
 70
     1
102
RTVSPost2010Prop37
 90
       50
102
RTVSPost2010PropOp37
 70
     1
102
RTVSPost2010Prop38
140
0.0
102
RTVSPost2010PropOp38
 70
     1
102
RTVSPost2010Prop39
140
1.0
102
RTVSPost2010PropOp39
 70
     1
102
RTVSPost2010Prop40
 90
        0
102
RTVSPost2010PropOp40
 70
     1
102
RTVSPost2010Prop41ColorIndex
 90
       18
102
RTVSPost2010Prop41ColorRGB
 90
        0
102
RTVSPost2010PropOp41
 70
     1
102
RTVSPost2010Prop42
 90
       50
102
RTVSPost2010PropOp42
 70
     1
102
RTVSPost2010Prop43
 90
        3
102
RTVSPost2010PropOp43
 70
     1
102
RTVSPost2010Prop44ColorIndex
 90
        5
102
RTVSPost2010Prop44ColorRGB
 90
      255
102
RTVSPost2010PropOp44
 70
     1
102
RTVSPost2010Prop45
280
     0
102
RTVSPost2010PropOp45
 70
     1
102
RTVSPost2010Prop46
 90
       50
102
RTVSPost2010PropOp46
 70
     1
102
RTVSPost2010Prop47
 90
       50
102
RTVSPost2010PropOp47
 70
     1
102
RTVSPost2010Prop48
 90
       50
102
RTVSPost2010PropOp48
 70
     1
102
RTVSPost2010Prop49
280
     0
102
RTVSPost2010PropOp49
 70
     1
102
RTVSPost2010Prop50
 90
       50
102
RTVSPost2010PropOp50
 70
     1
102
RTVSPost2010Prop51ColorIndex
 90
      256
102
RTVSPost2010Prop51ColorRGB
 90
-16777216
102
RTVSPost2010PropOp51
 70
     0
102
RTVSPost2010Prop52
140
1.0
102
RTVSPost2010PropOp52
 70
     0
102
RTVSPost2010Prop53
 90
        2
102
RTVSPost2010PropOp53
 70
     1
102
RTVSPost2010Prop54
  1
strokes_ogs.tif
102
RTVSPost2010PropOp54
 70
     1
102
RTVSPost2010Prop55
280
     0
102
RTVSPost2010PropOp55
 70
     1
102
RTVSPost2010Prop56
140
1.0
102
RTVSPost2010PropOp56
 70
     1
102
RTVSPost2010Prop57
140
1.0
102
RTVSPost2010PropOp57
 70
     1
102
RTVSPropertyOp0
 70
     1
102
RTVSPropertyOp1
 70
     1
102
RTVSPropertyOp2
 70
     1
102
RTVSPropertyOp3
 70
     1
102
RTVSPropertyOp4
 70
     1
102
RTVSPropertyOp5
 70
     1
102
RTVSPropertyOp6
 70
     1
102
RTVSPropertyOp7
 70
     1
102
RTVSPropertyOp8
 70
     1
102
RTVSPropertyOp9
 70
     1
102
RTVSPropertyOp10
 70
     1
102
RTVSPropertyOp11
 70
     1
102
RTVSPropertyOp12
 70
     1
102
RTVSPropertyOp13
 70
     1
102
RTVSPropertyOp14
 70
     1
102
RTVSPropertyOp15
 70
     1
102
RTVSPropertyOp16
 70
     1
102
RTVSPropertyOp17
 70
     1
102
RTVSPropertyOp18
 70
     1
102
RTVSPropertyOp19
 70
     1
102
RTVSPropertyOp20
 70
     1
102
RTVSPropertyOp21
 70
     1
102
RTVSPropertyOp22
 70
     1
102
RTVSPropertyOp23
 70
     1
102
RTVSPropertyOp24
 70
     1
102
RTVSPropertyOp25
 70
     1
102
RTVSPropertyOp26
 70
     1
102
RTVSPropertyOp27
 70
     1
102
RTVSPropertyOp28
 70
     1
102
RTVSPropertyOp29
 70
     1
102
RTVSPropertyOp30
 70
     1
102
RTVSPropertyOp31
 70
     1
102
RTVSPropertyOp32
 70
     1
102
RTVSPropertyOp33
 70
     1
102
RTVSPropertyOp34
 70
     1
102
RTVSPropertyOp35
 70
     1
102
RTVSPropertyOp36
 70
     1
102
RTVSPropertyOp37
 70
     1
102
RTVSPropertyOp38
 70
     1
102
RTVSPropertyOp39
 70
     1
102
RTVSPropertyOp40
 70
     1
102
RTVSPropertyOp41
 70
     1
102
RTVSPropertyOp42
 70
     1
102
RTVSPropertyOp43
 70
     1
102
RTVSPropertyOp44
 70
     1
102
RTVSPropertyOp45
 70
     1
102
RTVSPropertyOp46
 70
     1
102
RTVSPropertyOp47
 70
     1
102
RTVSPropertyOp48
 70
     1
102
RTVSPropertyOp49
 70
     1
102
RTVSPropertyOp50
 70
     1
102
RTVSPropertyOp51
 70
     0
102
RTVSPropertyOp52
 70
     0
102
RTVSPropertyOp53
 70
     1
102
RTVSPropertyOp54
 70
     1
102
RTVSPropertyOp55
 70
     1
102
RTVSPropertyOp56
 70
     1
102
RTVSPropertyOp57
 70
     1
102
RTVSPropertyOp58
 70
     1
102
RTVSPropertyOp59
 70
     1
102
RTVSPropertyOp60
 70
     1
102
RTVSPropertyOp61
 70
     1
102
RTVSPropertyOp62
 70
     1
  0
XRECORD
  5
7B2C
102
{ACAD_REACTORS
330
7B2B
102
}
330
7B2B
100
AcDbXrecord
280
     1
102
RTVSPost2010Prop28
280
     0
102
RTVSPost2010PropOp28
 70
     1
102
RTVSPost2010Prop29
280
     1
102
RTVSPost2010PropOp29
 70
     1
102
RTVSPost2010Prop30
280
     1
102
RTVSPost2010PropOp30
 70
     1
102
RTVSPost2010Prop31
280
     0
102
RTVSPost2010PropOp31
 70
     1
102
RTVSPost2010Prop32
280
     0
102
RTVSPost2010PropOp32
 70
     1
102
RTVSPost2010Prop33
280
     0
102
RTVSPost2010PropOp33
 70
     1
102
RTVSPost2010Prop34
280
     0
102
RTVSPost2010PropOp34
 70
     1
102
RTVSPost2010Prop35
280
     0
102
RTVSPost2010PropOp35
 70
     1
102
RTVSPost2010Prop36
280
     0
102
RTVSPost2010PropOp36
 70
     1
102
RTVSPost2010Prop37
 90
       50
102
RTVSPost2010PropOp37
 70
     1
102
RTVSPost2010Prop38
140
0.0
102
RTVSPost2010PropOp38
 70
     1
102
RTVSPost2010Prop39
140
1.0
102
RTVSPost2010PropOp39
 70
     1
102
RTVSPost2010Prop40
 90
        0
102
RTVSPost2010PropOp40
 70
     1
102
RTVSPost2010Prop41ColorIndex
 90
       18
102
RTVSPost2010Prop41ColorRGB
 90
        0
102
RTVSPost2010PropOp41
 70
     1
102
RTVSPost2010Prop42
 90
       50
102
RTVSPost2010PropOp42
 70
     1
102
RTVSPost2010Prop43
 90
        3
102
RTVSPost2010PropOp43
 70
     1
102
RTVSPost2010Prop44ColorIndex
 90
        5
102
RTVSPost2010Prop44ColorRGB
 90
      255
102
RTVSPost2010PropOp44
 70
     1
102
RTVSPost2010Prop45
280
     0
102
RTVSPost2010PropOp45
 70
     1
102
RTVSPost2010Prop46
 90
       50
102
RTVSPost2010PropOp46
 70
     1
102
RTVSPost2010Prop47
 90
       50
102
RTVSPost2010PropOp47
 70
     1
102
RTVSPost2010Prop48
 90
       50
102
RTVSPost2010PropOp48
 70
     1
102
RTVSPost2010Prop49
280
     0
102
RTVSPost2010PropOp49
 70
     1
102
RTVSPost2010Prop50
 90
       50
102
RTVSPost2010PropOp50
 70
     1
102
RTVSPost2010Prop51ColorIndex
 90
      256
102
RTVSPost2010Prop51ColorRGB
 90
-16777216
102
RTVSPost2010PropOp51
 70
     0
102
RTVSPost2010Prop52
140
1.0
102
RTVSPost2010PropOp52
 70
     0
102
RTVSPost2010Prop53
 90
        2
102
RTVSPost2010PropOp53
 70
     1
102
RTVSPost2010Prop54
  1
strokes_ogs.tif
102
RTVSPost2010PropOp54
 70
     1
102
RTVSPost2010Prop55
280
     0
102
RTVSPost2010PropOp55
 70
     1
102
RTVSPost2010Prop56
140
1.0
102
RTVSPost2010PropOp56
 70
     1
102
RTVSPost2010Prop57
140
1.0
102
RTVSPost2010PropOp57
 70
     1
102
RTVSPropertyOp0
 70
     1
102
RTVSPropertyOp1
 70
     1
102
RTVSPropertyOp2
 70
     1
102
RTVSPropertyOp3
 70
     1
102
RTVSPropertyOp4
 70
     1
102
RTVSPropertyOp5
 70
     1
102
RTVSPropertyOp6
 70
     1
102
RTVSPropertyOp7
 70
     1
102
RTVSPropertyOp8
 70
     1
102
RTVSPropertyOp9
 70
     1
102
RTVSPropertyOp10
 70
     1
102
RTVSPropertyOp11
 70
     1
102
RTVSPropertyOp12
 70
     1
102
RTVSPropertyOp13
 70
     1
102
RTVSPropertyOp14
 70
     1
102
RTVSPropertyOp15
 70
     1
102
RTVSPropertyOp16
 70
     1
102
RTVSPropertyOp17
 70
     1
102
RTVSPropertyOp18
 70
     1
102
RTVSPropertyOp19
 70
     1
102
RTVSPropertyOp20
 70
     1
102
RTVSPropertyOp21
 70
     1
102
RTVSPropertyOp22
 70
     1
102
RTVSPropertyOp23
 70
     1
102
RTVSPropertyOp24
 70
     1
102
RTVSPropertyOp25
 70
     1
102
RTVSPropertyOp26
 70
     1
102
RTVSPropertyOp27
 70
     1
102
RTVSPropertyOp28
 70
     1
102
RTVSPropertyOp29
 70
     1
102
RTVSPropertyOp30
 70
     1
102
RTVSPropertyOp31
 70
     1
102
RTVSPropertyOp32
 70
     1
102
RTVSPropertyOp33
 70
     1
102
RTVSPropertyOp34
 70
     1
102
RTVSPropertyOp35
 70
     1
102
RTVSPropertyOp36
 70
     1
102
RTVSPropertyOp37
 70
     1
102
RTVSPropertyOp38
 70
     1
102
RTVSPropertyOp39
 70
     1
102
RTVSPropertyOp40
 70
     1
102
RTVSPropertyOp41
 70
     1
102
RTVSPropertyOp42
 70
     1
102
RTVSPropertyOp43
 70
     1
102
RTVSPropertyOp44
 70
     1
102
RTVSPropertyOp45
 70
     1
102
RTVSPropertyOp46
 70
     1
102
RTVSPropertyOp47
 70
     1
102
RTVSPropertyOp48
 70
     1
102
RTVSPropertyOp49
 70
     1
102
RTVSPropertyOp50
 70
     1
102
RTVSPropertyOp51
 70
     0
102
RTVSPropertyOp52
 70
     0
102
RTVSPropertyOp53
 70
     1
102
RTVSPropertyOp54
 70
     1
102
RTVSPropertyOp55
 70
     1
102
RTVSPropertyOp56
 70
     1
102
RTVSPropertyOp57
 70
     1
102
RTVSPropertyOp58
 70
     1
102
RTVSPropertyOp59
 70
     1
102
RTVSPropertyOp60
 70
     1
102
RTVSPropertyOp61
 70
     1
102
RTVSPropertyOp62
 70
     1
  0
XRECORD
  5
7B2A
102
{ACAD_REACTORS
330
7B29
102
}
330
7B29
100
AcDbXrecord
280
     1
102
RTVSPost2010Prop28
280
     0
102
RTVSPost2010PropOp28
 70
     1
102
RTVSPost2010Prop29
280
     1
102
RTVSPost2010PropOp29
 70
     1
102
RTVSPost2010Prop30
280
     1
102
RTVSPost2010PropOp30
 70
     1
102
RTVSPost2010Prop31
280
     0
102
RTVSPost2010PropOp31
 70
     1
102
RTVSPost2010Prop32
280
     0
102
RTVSPost2010PropOp32
 70
     1
102
RTVSPost2010Prop33
280
     0
102
RTVSPost2010PropOp33
 70
     1
102
RTVSPost2010Prop34
280
     0
102
RTVSPost2010PropOp34
 70
     1
102
RTVSPost2010Prop35
280
     0
102
RTVSPost2010PropOp35
 70
     1
102
RTVSPost2010Prop36
280
     0
102
RTVSPost2010PropOp36
 70
     1
102
RTVSPost2010Prop37
 90
       50
102
RTVSPost2010PropOp37
 70
     1
102
RTVSPost2010Prop38
140
0.0
102
RTVSPost2010PropOp38
 70
     1
102
RTVSPost2010Prop39
140
1.0
102
RTVSPost2010PropOp39
 70
     1
102
RTVSPost2010Prop40
 90
        0
102
RTVSPost2010PropOp40
 70
     1
102
RTVSPost2010Prop41ColorIndex
 90
       18
102
RTVSPost2010Prop41ColorRGB
 90
        0
102
RTVSPost2010PropOp41
 70
     1
102
RTVSPost2010Prop42
 90
       50
102
RTVSPost2010PropOp42
 70
     1
102
RTVSPost2010Prop43
 90
        3
102
RTVSPost2010PropOp43
 70
     1
102
RTVSPost2010Prop44ColorIndex
 90
        5
102
RTVSPost2010Prop44ColorRGB
 90
      255
102
RTVSPost2010PropOp44
 70
     1
102
RTVSPost2010Prop45
280
     0
102
RTVSPost2010PropOp45
 70
     1
102
RTVSPost2010Prop46
 90
       50
102
RTVSPost2010PropOp46
 70
     1
102
RTVSPost2010Prop47
 90
       50
102
RTVSPost2010PropOp47
 70
     1
102
RTVSPost2010Prop48
 90
       50
102
RTVSPost2010PropOp48
 70
     1
102
RTVSPost2010Prop49
280
     0
102
RTVSPost2010PropOp49
 70
     1
102
RTVSPost2010Prop50
 90
       50
102
RTVSPost2010PropOp50
 70
     1
102
RTVSPost2010Prop51ColorIndex
 90
      256
102
RTVSPost2010Prop51ColorRGB
 90
-16777216
102
RTVSPost2010PropOp51
 70
     0
102
RTVSPost2010Prop52
140
1.0
102
RTVSPost2010PropOp52
 70
     0
102
RTVSPost2010Prop53
 90
        2
102
RTVSPost2010PropOp53
 70
     1
102
RTVSPost2010Prop54
  1
strokes_ogs.tif
102
RTVSPost2010PropOp54
 70
     1
102
RTVSPost2010Prop55
280
     0
102
RTVSPost2010PropOp55
 70
     1
102
RTVSPost2010Prop56
140
1.0
102
RTVSPost2010PropOp56
 70
     1
102
RTVSPost2010Prop57
140
1.0
102
RTVSPost2010PropOp57
 70
     1
102
RTVSPropertyOp0
 70
     1
102
RTVSPropertyOp1
 70
     1
102
RTVSPropertyOp2
 70
     1
102
RTVSPropertyOp3
 70
     1
102
RTVSPropertyOp4
 70
     1
102
RTVSPropertyOp5
 70
     1
102
RTVSPropertyOp6
 70
     1
102
RTVSPropertyOp7
 70
     1
102
RTVSPropertyOp8
 70
     1
102
RTVSPropertyOp9
 70
     1
102
RTVSPropertyOp10
 70
     1
102
RTVSPropertyOp11
 70
     1
102
RTVSPropertyOp12
 70
     1
102
RTVSPropertyOp13
 70
     1
102
RTVSPropertyOp14
 70
     1
102
RTVSPropertyOp15
 70
     1
102
RTVSPropertyOp16
 70
     1
102
RTVSPropertyOp17
 70
     1
102
RTVSPropertyOp18
 70
     1
102
RTVSPropertyOp19
 70
     1
102
RTVSPropertyOp20
 70
     1
102
RTVSPropertyOp21
 70
     1
102
RTVSPropertyOp22
 70
     1
102
RTVSPropertyOp23
 70
     1
102
RTVSPropertyOp24
 70
     1
102
RTVSPropertyOp25
 70
     1
102
RTVSPropertyOp26
 70
     1
102
RTVSPropertyOp27
 70
     1
102
RTVSPropertyOp28
 70
     1
102
RTVSPropertyOp29
 70
     1
102
RTVSPropertyOp30
 70
     1
102
RTVSPropertyOp31
 70
     1
102
RTVSPropertyOp32
 70
     1
102
RTVSPropertyOp33
 70
     1
102
RTVSPropertyOp34
 70
     1
102
RTVSPropertyOp35
 70
     1
102
RTVSPropertyOp36
 70
     1
102
RTVSPropertyOp37
 70
     1
102
RTVSPropertyOp38
 70
     1
102
RTVSPropertyOp39
 70
     1
102
RTVSPropertyOp40
 70
     1
102
RTVSPropertyOp41
 70
     1
102
RTVSPropertyOp42
 70
     1
102
RTVSPropertyOp43
 70
     1
102
RTVSPropertyOp44
 70
     1
102
RTVSPropertyOp45
 70
     1
102
RTVSPropertyOp46
 70
     1
102
RTVSPropertyOp47
 70
     1
102
RTVSPropertyOp48
 70
     1
102
RTVSPropertyOp49
 70
     1
102
RTVSPropertyOp50
 70
     1
102
RTVSPropertyOp51
 70
     0
102
RTVSPropertyOp52
 70
     0
102
RTVSPropertyOp53
 70
     1
102
RTVSPropertyOp54
 70
     1
102
RTVSPropertyOp55
 70
     1
102
RTVSPropertyOp56
 70
     1
102
RTVSPropertyOp57
 70
     1
102
RTVSPropertyOp58
 70
     1
102
RTVSPropertyOp59
 70
     1
102
RTVSPropertyOp60
 70
     1
102
RTVSPropertyOp61
 70
     1
102
RTVSPropertyOp62
 70
     1
  0
XRECORD
  5
7B24
102
{ACAD_REACTORS
330
7B23
102
}
330
7B23
100
AcDbXrecord
280
     1
102
RTVSPost2010Prop28
280
     0
102
RTVSPost2010PropOp28
 70
     1
102
RTVSPost2010Prop29
280
     1
102
RTVSPost2010PropOp29
 70
     1
102
RTVSPost2010Prop30
280
     1
102
RTVSPost2010PropOp30
 70
     1
102
RTVSPost2010Prop31
280
     0
102
RTVSPost2010PropOp31
 70
     1
102
RTVSPost2010Prop32
280
     0
102
RTVSPost2010PropOp32
 70
     1
102
RTVSPost2010Prop33
280
     0
102
RTVSPost2010PropOp33
 70
     1
102
RTVSPost2010Prop34
280
     0
102
RTVSPost2010PropOp34
 70
     1
102
RTVSPost2010Prop35
280
     0
102
RTVSPost2010PropOp35
 70
     1
102
RTVSPost2010Prop36
280
     0
102
RTVSPost2010PropOp36
 70
     1
102
RTVSPost2010Prop37
 90
       50
102
RTVSPost2010PropOp37
 70
     1
102
RTVSPost2010Prop38
140
0.0
102
RTVSPost2010PropOp38
 70
     1
102
RTVSPost2010Prop39
140
1.0
102
RTVSPost2010PropOp39
 70
     1
102
RTVSPost2010Prop40
 90
        0
102
RTVSPost2010PropOp40
 70
     1
102
RTVSPost2010Prop41ColorIndex
 90
       18
102
RTVSPost2010Prop41ColorRGB
 90
        0
102
RTVSPost2010PropOp41
 70
     1
102
RTVSPost2010Prop42
 90
       50
102
RTVSPost2010PropOp42
 70
     1
102
RTVSPost2010Prop43
 90
        3
102
RTVSPost2010PropOp43
 70
     1
102
RTVSPost2010Prop44ColorIndex
 90
        5
102
RTVSPost2010Prop44ColorRGB
 90
      255
102
RTVSPost2010PropOp44
 70
     1
102
RTVSPost2010Prop45
280
     0
102
RTVSPost2010PropOp45
 70
     1
102
RTVSPost2010Prop46
 90
       50
102
RTVSPost2010PropOp46
 70
     1
102
RTVSPost2010Prop47
 90
       50
102
RTVSPost2010PropOp47
 70
     1
102
RTVSPost2010Prop48
 90
       50
102
RTVSPost2010PropOp48
 70
     1
102
RTVSPost2010Prop49
280
     0
102
RTVSPost2010PropOp49
 70
     1
102
RTVSPost2010Prop50
 90
       50
102
RTVSPost2010PropOp50
 70
     1
102
RTVSPost2010Prop51ColorIndex
 90
      256
102
RTVSPost2010Prop51ColorRGB
 90
-16777216
102
RTVSPost2010PropOp51
 70
     0
102
RTVSPost2010Prop52
140
1.0
102
RTVSPost2010PropOp52
 70
     0
102
RTVSPost2010Prop53
 90
        2
102
RTVSPost2010PropOp53
 70
     1
102
RTVSPost2010Prop54
  1
strokes_ogs.tif
102
RTVSPost2010PropOp54
 70
     1
102
RTVSPost2010Prop55
280
     0
102
RTVSPost2010PropOp55
 70
     1
102
RTVSPost2010Prop56
140
1.0
102
RTVSPost2010PropOp56
 70
     1
102
RTVSPost2010Prop57
140
1.0
102
RTVSPost2010PropOp57
 70
     1
102
RTVSPropertyOp0
 70
     1
102
RTVSPropertyOp1
 70
     1
102
RTVSPropertyOp2
 70
     1
102
RTVSPropertyOp3
 70
     1
102
RTVSPropertyOp4
 70
     1
102
RTVSPropertyOp5
 70
     1
102
RTVSPropertyOp6
 70
     1
102
RTVSPropertyOp7
 70
     1
102
RTVSPropertyOp8
 70
     1
102
RTVSPropertyOp9
 70
     1
102
RTVSPropertyOp10
 70
     1
102
RTVSPropertyOp11
 70
     1
102
RTVSPropertyOp12
 70
     1
102
RTVSPropertyOp13
 70
     1
102
RTVSPropertyOp14
 70
     1
102
RTVSPropertyOp15
 70
     1
102
RTVSPropertyOp16
 70
     1
102
RTVSPropertyOp17
 70
     1
102
RTVSPropertyOp18
 70
     1
102
RTVSPropertyOp19
 70
     1
102
RTVSPropertyOp20
 70
     1
102
RTVSPropertyOp21
 70
     1
102
RTVSPropertyOp22
 70
     1
102
RTVSPropertyOp23
 70
     1
102
RTVSPropertyOp24
 70
     1
102
RTVSPropertyOp25
 70
     1
102
RTVSPropertyOp26
 70
     1
102
RTVSPropertyOp27
 70
     1
102
RTVSPropertyOp28
 70
     1
102
RTVSPropertyOp29
 70
     1
102
RTVSPropertyOp30
 70
     1
102
RTVSPropertyOp31
 70
     1
102
RTVSPropertyOp32
 70
     1
102
RTVSPropertyOp33
 70
     1
102
RTVSPropertyOp34
 70
     1
102
RTVSPropertyOp35
 70
     1
102
RTVSPropertyOp36
 70
     1
102
RTVSPropertyOp37
 70
     1
102
RTVSPropertyOp38
 70
     1
102
RTVSPropertyOp39
 70
     1
102
RTVSPropertyOp40
 70
     1
102
RTVSPropertyOp41
 70
     1
102
RTVSPropertyOp42
 70
     1
102
RTVSPropertyOp43
 70
     1
102
RTVSPropertyOp44
 70
     1
102
RTVSPropertyOp45
 70
     1
102
RTVSPropertyOp46
 70
     1
102
RTVSPropertyOp47
 70
     1
102
RTVSPropertyOp48
 70
     1
102
RTVSPropertyOp49
 70
     1
102
RTVSPropertyOp50
 70
     1
102
RTVSPropertyOp51
 70
     0
102
RTVSPropertyOp52
 70
     0
102
RTVSPropertyOp53
 70
     1
102
RTVSPropertyOp54
 70
     1
102
RTVSPropertyOp55
 70
     1
102
RTVSPropertyOp56
 70
     1
102
RTVSPropertyOp57
 70
     1
102
RTVSPropertyOp58
 70
     1
102
RTVSPropertyOp59
 70
     1
102
RTVSPropertyOp60
 70
     1
102
RTVSPropertyOp61
 70
     1
102
RTVSPropertyOp62
 70
     1
  0
XRECORD
  5
7B26
102
{ACAD_REACTORS
330
7B25
102
}
330
7B25
100
AcDbXrecord
280
     1
102
RTVSPost2010Prop28
280
     0
102
RTVSPost2010PropOp28
 70
     1
102
RTVSPost2010Prop29
280
     1
102
RTVSPost2010PropOp29
 70
     1
102
RTVSPost2010Prop30
280
     1
102
RTVSPost2010PropOp30
 70
     1
102
RTVSPost2010Prop31
280
     0
102
RTVSPost2010PropOp31
 70
     1
102
RTVSPost2010Prop32
280
     0
102
RTVSPost2010PropOp32
 70
     1
102
RTVSPost2010Prop33
280
     0
102
RTVSPost2010PropOp33
 70
     1
102
RTVSPost2010Prop34
280
     0
102
RTVSPost2010PropOp34
 70
     1
102
RTVSPost2010Prop35
280
     0
102
RTVSPost2010PropOp35
 70
     1
102
RTVSPost2010Prop36
280
     0
102
RTVSPost2010PropOp36
 70
     1
102
RTVSPost2010Prop37
 90
       50
102
RTVSPost2010PropOp37
 70
     1
102
RTVSPost2010Prop38
140
0.0
102
RTVSPost2010PropOp38
 70
     1
102
RTVSPost2010Prop39
140
1.0
102
RTVSPost2010PropOp39
 70
     1
102
RTVSPost2010Prop40
 90
        0
102
RTVSPost2010PropOp40
 70
     1
102
RTVSPost2010Prop41ColorIndex
 90
       18
102
RTVSPost2010Prop41ColorRGB
 90
        0
102
RTVSPost2010PropOp41
 70
     1
102
RTVSPost2010Prop42
 90
       50
102
RTVSPost2010PropOp42
 70
     1
102
RTVSPost2010Prop43
 90
        3
102
RTVSPost2010PropOp43
 70
     1
102
RTVSPost2010Prop44ColorIndex
 90
        5
102
RTVSPost2010Prop44ColorRGB
 90
      255
102
RTVSPost2010PropOp44
 70
     1
102
RTVSPost2010Prop45
280
     0
102
RTVSPost2010PropOp45
 70
     1
102
RTVSPost2010Prop46
 90
       50
102
RTVSPost2010PropOp46
 70
     1
102
RTVSPost2010Prop47
 90
       50
102
RTVSPost2010PropOp47
 70
     1
102
RTVSPost2010Prop48
 90
       50
102
RTVSPost2010PropOp48
 70
     1
102
RTVSPost2010Prop49
280
     0
102
RTVSPost2010PropOp49
 70
     1
102
RTVSPost2010Prop50
 90
       50
102
RTVSPost2010PropOp50
 70
     1
102
RTVSPost2010Prop51ColorIndex
 90
      256
102
RTVSPost2010Prop51ColorRGB
 90
-16777216
102
RTVSPost2010PropOp51
 70
     0
102
RTVSPost2010Prop52
140
1.0
102
RTVSPost2010PropOp52
 70
     0
102
RTVSPost2010Prop53
 90
        2
102
RTVSPost2010PropOp53
 70
     1
102
RTVSPost2010Prop54
  1
strokes_ogs.tif
102
RTVSPost2010PropOp54
 70
     1
102
RTVSPost2010Prop55
280
     0
102
RTVSPost2010PropOp55
 70
     1
102
RTVSPost2010Prop56
140
1.0
102
RTVSPost2010PropOp56
 70
     1
102
RTVSPost2010Prop57
140
1.0
102
RTVSPost2010PropOp57
 70
     1
102
RTVSPropertyOp0
 70
     1
102
RTVSPropertyOp1
 70
     1
102
RTVSPropertyOp2
 70
     1
102
RTVSPropertyOp3
 70
     1
102
RTVSPropertyOp4
 70
     1
102
RTVSPropertyOp5
 70
     1
102
RTVSPropertyOp6
 70
     1
102
RTVSPropertyOp7
 70
     1
102
RTVSPropertyOp8
 70
     1
102
RTVSPropertyOp9
 70
     1
102
RTVSPropertyOp10
 70
     1
102
RTVSPropertyOp11
 70
     1
102
RTVSPropertyOp12
 70
     1
102
RTVSPropertyOp13
 70
     1
102
RTVSPropertyOp14
 70
     1
102
RTVSPropertyOp15
 70
     1
102
RTVSPropertyOp16
 70
     1
102
RTVSPropertyOp17
 70
     1
102
RTVSPropertyOp18
 70
     1
102
RTVSPropertyOp19
 70
     1
102
RTVSPropertyOp20
 70
     1
102
RTVSPropertyOp21
 70
     1
102
RTVSPropertyOp22
 70
     1
102
RTVSPropertyOp23
 70
     1
102
RTVSPropertyOp24
 70
     1
102
RTVSPropertyOp25
 70
     1
102
RTVSPropertyOp26
 70
     1
102
RTVSPropertyOp27
 70
     1
102
RTVSPropertyOp28
 70
     1
102
RTVSPropertyOp29
 70
     1
102
RTVSPropertyOp30
 70
     1
102
RTVSPropertyOp31
 70
     1
102
RTVSPropertyOp32
 70
     1
102
RTVSPropertyOp33
 70
     1
102
RTVSPropertyOp34
 70
     1
102
RTVSPropertyOp35
 70
     1
102
RTVSPropertyOp36
 70
     1
102
RTVSPropertyOp37
 70
     1
102
RTVSPropertyOp38
 70
     1
102
RTVSPropertyOp39
 70
     1
102
RTVSPropertyOp40
 70
     1
102
RTVSPropertyOp41
 70
     1
102
RTVSPropertyOp42
 70
     1
102
RTVSPropertyOp43
 70
     1
102
RTVSPropertyOp44
 70
     1
102
RTVSPropertyOp45
 70
     1
102
RTVSPropertyOp46
 70
     1
102
RTVSPropertyOp47
 70
     1
102
RTVSPropertyOp48
 70
     1
102
RTVSPropertyOp49
 70
     1
102
RTVSPropertyOp50
 70
     1
102
RTVSPropertyOp51
 70
     0
102
RTVSPropertyOp52
 70
     0
102
RTVSPropertyOp53
 70
     1
102
RTVSPropertyOp54
 70
     1
102
RTVSPropertyOp55
 70
     1
102
RTVSPropertyOp56
 70
     1
102
RTVSPropertyOp57
 70
     1
102
RTVSPropertyOp58
 70
     1
102
RTVSPropertyOp59
 70
     1
102
RTVSPropertyOp60
 70
     1
102
RTVSPropertyOp61
 70
     1
102
RTVSPropertyOp62
 70
     1
  0
XRECORD
  5
7B1C
102
{ACAD_REACTORS
330
7B1B
102
}
330
7B1B
100
AcDbXrecord
280
     1
102
RTVSPost2010Prop28
280
     0
102
RTVSPost2010PropOp28
 70
     1
102
RTVSPost2010Prop29
280
     1
102
RTVSPost2010PropOp29
 70
     1
102
RTVSPost2010Prop30
280
     1
102
RTVSPost2010PropOp30
 70
     1
102
RTVSPost2010Prop31
280
     0
102
RTVSPost2010PropOp31
 70
     1
102
RTVSPost2010Prop32
280
     0
102
RTVSPost2010PropOp32
 70
     1
102
RTVSPost2010Prop33
280
     0
102
RTVSPost2010PropOp33
 70
     1
102
RTVSPost2010Prop34
280
     0
102
RTVSPost2010PropOp34
 70
     1
102
RTVSPost2010Prop35
280
     0
102
RTVSPost2010PropOp35
 70
     1
102
RTVSPost2010Prop36
280
     0
102
RTVSPost2010PropOp36
 70
     1
102
RTVSPost2010Prop37
 90
       50
102
RTVSPost2010PropOp37
 70
     1
102
RTVSPost2010Prop38
140
0.0
102
RTVSPost2010PropOp38
 70
     1
102
RTVSPost2010Prop39
140
1.0
102
RTVSPost2010PropOp39
 70
     1
102
RTVSPost2010Prop40
 90
        0
102
RTVSPost2010PropOp40
 70
     1
102
RTVSPost2010Prop41ColorIndex
 90
       18
102
RTVSPost2010Prop41ColorRGB
 90
        0
102
RTVSPost2010PropOp41
 70
     1
102
RTVSPost2010Prop42
 90
       50
102
RTVSPost2010PropOp42
 70
     1
102
RTVSPost2010Prop43
 90
        3
102
RTVSPost2010PropOp43
 70
     1
102
RTVSPost2010Prop44ColorIndex
 90
        5
102
RTVSPost2010Prop44ColorRGB
 90
      255
102
RTVSPost2010PropOp44
 70
     1
102
RTVSPost2010Prop45
280
     0
102
RTVSPost2010PropOp45
 70
     1
102
RTVSPost2010Prop46
 90
       50
102
RTVSPost2010PropOp46
 70
     1
102
RTVSPost2010Prop47
 90
       50
102
RTVSPost2010PropOp47
 70
     1
102
RTVSPost2010Prop48
 90
       50
102
RTVSPost2010PropOp48
 70
     1
102
RTVSPost2010Prop49
280
     0
102
RTVSPost2010PropOp49
 70
     1
102
RTVSPost2010Prop50
 90
       50
102
RTVSPost2010PropOp50
 70
     1
102
RTVSPost2010Prop51ColorIndex
 90
      256
102
RTVSPost2010Prop51ColorRGB
 90
-16777216
102
RTVSPost2010PropOp51
 70
     0
102
RTVSPost2010Prop52
140
1.0
102
RTVSPost2010PropOp52
 70
     0
102
RTVSPost2010Prop53
 90
        2
102
RTVSPost2010PropOp53
 70
     1
102
RTVSPost2010Prop54
  1
strokes_ogs.tif
102
RTVSPost2010PropOp54
 70
     1
102
RTVSPost2010Prop55
280
     0
102
RTVSPost2010PropOp55
 70
     1
102
RTVSPost2010Prop56
140
1.0
102
RTVSPost2010PropOp56
 70
     1
102
RTVSPost2010Prop57
140
1.0
102
RTVSPost2010PropOp57
 70
     1
102
RTVSPropertyOp0
 70
     1
102
RTVSPropertyOp1
 70
     1
102
RTVSPropertyOp2
 70
     1
102
RTVSPropertyOp3
 70
     1
102
RTVSPropertyOp4
 70
     1
102
RTVSPropertyOp5
 70
     1
102
RTVSPropertyOp6
 70
     1
102
RTVSPropertyOp7
 70
     1
102
RTVSPropertyOp8
 70
     1
102
RTVSPropertyOp9
 70
     1
102
RTVSPropertyOp10
 70
     1
102
RTVSPropertyOp11
 70
     1
102
RTVSPropertyOp12
 70
     1
102
RTVSPropertyOp13
 70
     1
102
RTVSPropertyOp14
 70
     1
102
RTVSPropertyOp15
 70
     1
102
RTVSPropertyOp16
 70
     1
102
RTVSPropertyOp17
 70
     1
102
RTVSPropertyOp18
 70
     1
102
RTVSPropertyOp19
 70
     1
102
RTVSPropertyOp20
 70
     1
102
RTVSPropertyOp21
 70
     1
102
RTVSPropertyOp22
 70
     1
102
RTVSPropertyOp23
 70
     1
102
RTVSPropertyOp24
 70
     1
102
RTVSPropertyOp25
 70
     1
102
RTVSPropertyOp26
 70
     1
102
RTVSPropertyOp27
 70
     1
102
RTVSPropertyOp28
 70
     1
102
RTVSPropertyOp29
 70
     1
102
RTVSPropertyOp30
 70
     1
102
RTVSPropertyOp31
 70
     1
102
RTVSPropertyOp32
 70
     1
102
RTVSPropertyOp33
 70
     1
102
RTVSPropertyOp34
 70
     1
102
RTVSPropertyOp35
 70
     1
102
RTVSPropertyOp36
 70
     1
102
RTVSPropertyOp37
 70
     1
102
RTVSPropertyOp38
 70
     1
102
RTVSPropertyOp39
 70
     1
102
RTVSPropertyOp40
 70
     1
102
RTVSPropertyOp41
 70
     1
102
RTVSPropertyOp42
 70
     1
102
RTVSPropertyOp43
 70
     1
102
RTVSPropertyOp44
 70
     1
102
RTVSPropertyOp45
 70
     1
102
RTVSPropertyOp46
 70
     1
102
RTVSPropertyOp47
 70
     1
102
RTVSPropertyOp48
 70
     1
102
RTVSPropertyOp49
 70
     1
102
RTVSPropertyOp50
 70
     1
102
RTVSPropertyOp51
 70
     0
102
RTVSPropertyOp52
 70
     0
102
RTVSPropertyOp53
 70
     1
102
RTVSPropertyOp54
 70
     1
102
RTVSPropertyOp55
 70
     1
102
RTVSPropertyOp56
 70
     1
102
RTVSPropertyOp57
 70
     1
102
RTVSPropertyOp58
 70
     1
102
RTVSPropertyOp59
 70
     1
102
RTVSPropertyOp60
 70
     1
102
RTVSPropertyOp61
 70
     1
102
RTVSPropertyOp62
 70
     1
  0
XRECORD
  5
7B10
102
{ACAD_REACTORS
330
7B0F
102
}
330
7B0F
100
AcDbXrecord
280
     1
102
RTVSPost2010Prop28
280
     0
102
RTVSPost2010PropOp28
 70
     1
102
RTVSPost2010Prop29
280
     1
102
RTVSPost2010PropOp29
 70
     1
102
RTVSPost2010Prop30
280
     1
102
RTVSPost2010PropOp30
 70
     1
102
RTVSPost2010Prop31
280
     0
102
RTVSPost2010PropOp31
 70
     1
102
RTVSPost2010Prop32
280
     0
102
RTVSPost2010PropOp32
 70
     1
102
RTVSPost2010Prop33
280
     0
102
RTVSPost2010PropOp33
 70
     1
102
RTVSPost2010Prop34
280
     0
102
RTVSPost2010PropOp34
 70
     1
102
RTVSPost2010Prop35
280
     0
102
RTVSPost2010PropOp35
 70
     1
102
RTVSPost2010Prop36
280
     0
102
RTVSPost2010PropOp36
 70
     1
102
RTVSPost2010Prop37
 90
       50
102
RTVSPost2010PropOp37
 70
     1
102
RTVSPost2010Prop38
140
0.0
102
RTVSPost2010PropOp38
 70
     1
102
RTVSPost2010Prop39
140
1.0
102
RTVSPost2010PropOp39
 70
     1
102
RTVSPost2010Prop40
 90
        0
102
RTVSPost2010PropOp40
 70
     1
102
RTVSPost2010Prop41ColorIndex
 90
       18
102
RTVSPost2010Prop41ColorRGB
 90
        0
102
RTVSPost2010PropOp41
 70
     1
102
RTVSPost2010Prop42
 90
       50
102
RTVSPost2010PropOp42
 70
     1
102
RTVSPost2010Prop43
 90
        3
102
RTVSPost2010PropOp43
 70
     1
102
RTVSPost2010Prop44ColorIndex
 90
        5
102
RTVSPost2010Prop44ColorRGB
 90
      255
102
RTVSPost2010PropOp44
 70
     1
102
RTVSPost2010Prop45
280
     0
102
RTVSPost2010PropOp45
 70
     1
102
RTVSPost2010Prop46
 90
       50
102
RTVSPost2010PropOp46
 70
     1
102
RTVSPost2010Prop47
 90
       50
102
RTVSPost2010PropOp47
 70
     1
102
RTVSPost2010Prop48
 90
       50
102
RTVSPost2010PropOp48
 70
     1
102
RTVSPost2010Prop49
280
     0
102
RTVSPost2010PropOp49
 70
     1
102
RTVSPost2010Prop50
 90
       50
102
RTVSPost2010PropOp50
 70
     1
102
RTVSPost2010Prop51ColorIndex
 90
      256
102
RTVSPost2010Prop51ColorRGB
 90
-16777216
102
RTVSPost2010PropOp51
 70
     0
102
RTVSPost2010Prop52
140
1.0
102
RTVSPost2010PropOp52
 70
     0
102
RTVSPost2010Prop53
 90
        2
102
RTVSPost2010PropOp53
 70
     1
102
RTVSPost2010Prop54
  1
strokes_ogs.tif
102
RTVSPost2010PropOp54
 70
     1
102
RTVSPost2010Prop55
280
     0
102
RTVSPost2010PropOp55
 70
     1
102
RTVSPost2010Prop56
140
1.0
102
RTVSPost2010PropOp56
 70
     1
102
RTVSPost2010Prop57
140
1.0
102
RTVSPost2010PropOp57
 70
     1
102
RTVSPropertyOp0
 70
     1
102
RTVSPropertyOp1
 70
     1
102
RTVSPropertyOp2
 70
     1
102
RTVSPropertyOp3
 70
     1
102
RTVSPropertyOp4
 70
     1
102
RTVSPropertyOp5
 70
     1
102
RTVSPropertyOp6
 70
     1
102
RTVSPropertyOp7
 70
     1
102
RTVSPropertyOp8
 70
     1
102
RTVSPropertyOp9
 70
     1
102
RTVSPropertyOp10
 70
     1
102
RTVSPropertyOp11
 70
     1
102
RTVSPropertyOp12
 70
     1
102
RTVSPropertyOp13
 70
     1
102
RTVSPropertyOp14
 70
     1
102
RTVSPropertyOp15
 70
     1
102
RTVSPropertyOp16
 70
     1
102
RTVSPropertyOp17
 70
     1
102
RTVSPropertyOp18
 70
     1
102
RTVSPropertyOp19
 70
     1
102
RTVSPropertyOp20
 70
     1
102
RTVSPropertyOp21
 70
     1
102
RTVSPropertyOp22
 70
     1
102
RTVSPropertyOp23
 70
     1
102
RTVSPropertyOp24
 70
     1
102
RTVSPropertyOp25
 70
     1
102
RTVSPropertyOp26
 70
     1
102
RTVSPropertyOp27
 70
     1
102
RTVSPropertyOp28
 70
     1
102
RTVSPropertyOp29
 70
     1
102
RTVSPropertyOp30
 70
     1
102
RTVSPropertyOp31
 70
     1
102
RTVSPropertyOp32
 70
     1
102
RTVSPropertyOp33
 70
     1
102
RTVSPropertyOp34
 70
     1
102
RTVSPropertyOp35
 70
     1
102
RTVSPropertyOp36
 70
     1
102
RTVSPropertyOp37
 70
     1
102
RTVSPropertyOp38
 70
     1
102
RTVSPropertyOp39
 70
     1
102
RTVSPropertyOp40
 70
     1
102
RTVSPropertyOp41
 70
     1
102
RTVSPropertyOp42
 70
     1
102
RTVSPropertyOp43
 70
     1
102
RTVSPropertyOp44
 70
     1
102
RTVSPropertyOp45
 70
     1
102
RTVSPropertyOp46
 70
     1
102
RTVSPropertyOp47
 70
     1
102
RTVSPropertyOp48
 70
     1
102
RTVSPropertyOp49
 70
     1
102
RTVSPropertyOp50
 70
     1
102
RTVSPropertyOp51
 70
     0
102
RTVSPropertyOp52
 70
     0
102
RTVSPropertyOp53
 70
     1
102
RTVSPropertyOp54
 70
     1
102
RTVSPropertyOp55
 70
     1
102
RTVSPropertyOp56
 70
     1
102
RTVSPropertyOp57
 70
     1
102
RTVSPropertyOp58
 70
     1
102
RTVSPropertyOp59
 70
     1
102
RTVSPropertyOp60
 70
     1
102
RTVSPropertyOp61
 70
     1
102
RTVSPropertyOp62
 70
     1
  0
XRECORD
  5
7B28
102
{ACAD_REACTORS
330
7B27
102
}
330
7B27
100
AcDbXrecord
280
     1
102
RTVSPost2010Prop28
280
     0
102
RTVSPost2010PropOp28
 70
     1
102
RTVSPost2010Prop29
280
     1
102
RTVSPost2010PropOp29
 70
     1
102
RTVSPost2010Prop30
280
     1
102
RTVSPost2010PropOp30
 70
     1
102
RTVSPost2010Prop31
280
     0
102
RTVSPost2010PropOp31
 70
     1
102
RTVSPost2010Prop32
280
     0
102
RTVSPost2010PropOp32
 70
     1
102
RTVSPost2010Prop33
280
     0
102
RTVSPost2010PropOp33
 70
     1
102
RTVSPost2010Prop34
280
     0
102
RTVSPost2010PropOp34
 70
     1
102
RTVSPost2010Prop35
280
     0
102
RTVSPost2010PropOp35
 70
     1
102
RTVSPost2010Prop36
280
     0
102
RTVSPost2010PropOp36
 70
     1
102
RTVSPost2010Prop37
 90
       50
102
RTVSPost2010PropOp37
 70
     1
102
RTVSPost2010Prop38
140
0.0
102
RTVSPost2010PropOp38
 70
     1
102
RTVSPost2010Prop39
140
1.0
102
RTVSPost2010PropOp39
 70
     1
102
RTVSPost2010Prop40
 90
        0
102
RTVSPost2010PropOp40
 70
     1
102
RTVSPost2010Prop41ColorIndex
 90
       18
102
RTVSPost2010Prop41ColorRGB
 90
        0
102
RTVSPost2010PropOp41
 70
     1
102
RTVSPost2010Prop42
 90
       50
102
RTVSPost2010PropOp42
 70
     1
102
RTVSPost2010Prop43
 90
        3
102
RTVSPost2010PropOp43
 70
     1
102
RTVSPost2010Prop44ColorIndex
 90
        5
102
RTVSPost2010Prop44ColorRGB
 90
      255
102
RTVSPost2010PropOp44
 70
     1
102
RTVSPost2010Prop45
280
     0
102
RTVSPost2010PropOp45
 70
     1
102
RTVSPost2010Prop46
 90
       50
102
RTVSPost2010PropOp46
 70
     1
102
RTVSPost2010Prop47
 90
       50
102
RTVSPost2010PropOp47
 70
     1
102
RTVSPost2010Prop48
 90
       50
102
RTVSPost2010PropOp48
 70
     1
102
RTVSPost2010Prop49
280
     0
102
RTVSPost2010PropOp49
 70
     1
102
RTVSPost2010Prop50
 90
       50
102
RTVSPost2010PropOp50
 70
     1
102
RTVSPost2010Prop51ColorIndex
 90
      256
102
RTVSPost2010Prop51ColorRGB
 90
-16777216
102
RTVSPost2010PropOp51
 70
     0
102
RTVSPost2010Prop52
140
1.0
102
RTVSPost2010PropOp52
 70
     0
102
RTVSPost2010Prop53
 90
        2
102
RTVSPost2010PropOp53
 70
     1
102
RTVSPost2010Prop54
  1
strokes_ogs.tif
102
RTVSPost2010PropOp54
 70
     1
102
RTVSPost2010Prop55
280
     0
102
RTVSPost2010PropOp55
 70
     1
102
RTVSPost2010Prop56
140
1.0
102
RTVSPost2010PropOp56
 70
     1
102
RTVSPost2010Prop57
140
1.0
102
RTVSPost2010PropOp57
 70
     1
102
RTVSPropertyOp0
 70
     1
102
RTVSPropertyOp1
 70
     1
102
RTVSPropertyOp2
 70
     1
102
RTVSPropertyOp3
 70
     1
102
RTVSPropertyOp4
 70
     1
102
RTVSPropertyOp5
 70
     1
102
RTVSPropertyOp6
 70
     1
102
RTVSPropertyOp7
 70
     1
102
RTVSPropertyOp8
 70
     1
102
RTVSPropertyOp9
 70
     1
102
RTVSPropertyOp10
 70
     1
102
RTVSPropertyOp11
 70
     1
102
RTVSPropertyOp12
 70
     1
102
RTVSPropertyOp13
 70
     1
102
RTVSPropertyOp14
 70
     1
102
RTVSPropertyOp15
 70
     1
102
RTVSPropertyOp16
 70
     1
102
RTVSPropertyOp17
 70
     1
102
RTVSPropertyOp18
 70
     1
102
RTVSPropertyOp19
 70
     1
102
RTVSPropertyOp20
 70
     1
102
RTVSPropertyOp21
 70
     1
102
RTVSPropertyOp22
 70
     1
102
RTVSPropertyOp23
 70
     1
102
RTVSPropertyOp24
 70
     1
102
RTVSPropertyOp25
 70
     1
102
RTVSPropertyOp26
 70
     1
102
RTVSPropertyOp27
 70
     1
102
RTVSPropertyOp28
 70
     1
102
RTVSPropertyOp29
 70
     1
102
RTVSPropertyOp30
 70
     1
102
RTVSPropertyOp31
 70
     1
102
RTVSPropertyOp32
 70
     1
102
RTVSPropertyOp33
 70
     1
102
RTVSPropertyOp34
 70
     1
102
RTVSPropertyOp35
 70
     1
102
RTVSPropertyOp36
 70
     1
102
RTVSPropertyOp37
 70
     1
102
RTVSPropertyOp38
 70
     1
102
RTVSPropertyOp39
 70
     1
102
RTVSPropertyOp40
 70
     1
102
RTVSPropertyOp41
 70
     1
102
RTVSPropertyOp42
 70
     1
102
RTVSPropertyOp43
 70
     1
102
RTVSPropertyOp44
 70
     1
102
RTVSPropertyOp45
 70
     1
102
RTVSPropertyOp46
 70
     1
102
RTVSPropertyOp47
 70
     1
102
RTVSPropertyOp48
 70
     1
102
RTVSPropertyOp49
 70
     1
102
RTVSPropertyOp50
 70
     1
102
RTVSPropertyOp51
 70
     0
102
RTVSPropertyOp52
 70
     0
102
RTVSPropertyOp53
 70
     1
102
RTVSPropertyOp54
 70
     1
102
RTVSPropertyOp55
 70
     1
102
RTVSPropertyOp56
 70
     1
102
RTVSPropertyOp57
 70
     1
102
RTVSPropertyOp58
 70
     1
102
RTVSPropertyOp59
 70
     1
102
RTVSPropertyOp60
 70
     1
102
RTVSPropertyOp61
 70
     1
102
RTVSPropertyOp62
 70
     1
  0
ENDSEC
  0
EOF
