  0
SECTION
  2
HEADER
  9
$ACADVER
  1
AC1021
  9
$ACADMAINTVER
 70
    50
  9
$DWGCODEPAGE
  3
ANSI_1252
  9
$LASTSAVEDBY
  1
itanang
  9
$INSBASE
 10
0.0
 20
0.0
 30
0.0
  9
$EXTMIN
 10
0.9747474888773798
 20
2.226293354296719
 30
0.0
  9
$EXTMAX
 10
6.693060045405553
 20
6.451242169662251
 30
0.0
  9
$LIMMIN
 10
0.0
 20
0.0
  9
$LIMMAX
 10
12.0
 20
9.0
  9
$ORTHOMODE
 70
     0
  9
$REGENMODE
 70
     1
  9
$FILLMODE
 70
     1
  9
$QTEXTMODE
 70
     0
  9
$MIRRTEXT
 70
     1
  9
$LTSCALE
 40
1.0
  9
$ATTMODE
 70
     2
  9
$TEXTSIZE
 40
0.0649676644074742
  9
$TRACEWID
 40
0.05
  9
$TEXTSTYLE
  7
ZERO
  9
$CLAYER
  8
A-DETL-SADL
  9
$CELTYPE
  6
ByLayer
  9
$CECOLOR
 62
   256
  9
$CELTSCALE
 40
1.0
  9
$DISPSILH
 70
     0
  9
$DIMSCALE
 40
1.0
  9
$DIMASZ
 40
0.075
  9
$DIMEXO
 40
0.06
  9
$DIMDLI
 40
0.38
  9
$DIMRND
 40
0.0
  9
$DIMDLE
 40
0.0
  9
$DIMEXE
 40
0.06
  9
$DIMTP
 40
0.0
  9
$DIMTM
 40
0.0
  9
$DIMTXT
 40
0.085
  9
$DIMCEN
 40
0.025
  9
$DIMTSZ
 40
0.0
  9
$DIMTOL
 70
     0
  9
$DIMLIM
 70
     0
  9
$DIMTIH
 70
     1
  9
$DIMTOH
 70
     1
  9
$DIMSE1
 70
     0
  9
$DIMSE2
 70
     0
  9
$DIMTAD
 70
     0
  9
$DIMZIN
 70
     4
  9
$DIMBLK
  1

  9
$DIMASO
 70
     1
  9
$DIMSHO
 70
     1
  9
$DIMPOST
  1
\X
  9
$DIMAPOST
  1

  9
$DIMALT
 70
     1
  9
$DIMALTD
 70
     1
  9
$DIMALTF
 40
25.4
  9
$DIMLFAC
 40
1.0
  9
$DIMTOFL
 70
     0
  9
$DIMTVP
 40
0.0
  9
$DIMTIX
 70
     0
  9
$DIMSOXD
 70
     0
  9
$DIMSAH
 70
     0
  9
$DIMBLK1
  1

  9
$DIMBLK2
  1

  9
$DIMSTYLE
  2
dim24
  9
$DIMCLRD
 70
     5
  9
$DIMCLRE
 70
     5
  9
$DIMCLRT
 70
     5
  9
$DIMTFAC
 40
1.0
  9
$DIMGAP
 40
0.03125
  9
$DIMJUST
 70
     0
  9
$DIMSD1
 70
     0
  9
$DIMSD2
 70
     0
  9
$DIMTOLJ
 70
     1
  9
$DIMTZIN
 70
     0
  9
$DIMALTZ
 70
     0
  9
$DIMALTTZ
 70
     0
  9
$DIMUPT
 70
     0
  9
$DIMDEC
 70
     3
  9
$DIMTDEC
 70
     3
  9
$DIMALTU
 70
     2
  9
$DIMALTTD
 70
     1
  9
$DIMTXSTY
  7
ZERO
  9
$DIMAUNIT
 70
     0
  9
$DIMADEC
 70
     0
  9
$DIMALTRND
 40
0.0
  9
$DIMAZIN
 70
     0
  9
$DIMDSEP
 70
    46
  9
$DIMATFIT
 70
     1
  9
$DIMFRAC
 70
     0
  9
$DIMLDRBLK
  1

  9
$DIMLUNIT
 70
     3
  9
$DIMLWD
 70
     0
  9
$DIMLWE
 70
     0
  9
$DIMTMOVE
 70
     0
  9
$DIMFXL
 40
1.0
  9
$DIMFXLON
 70
     0
  9
$DIMJOGANG
 40
0.7853981633974483
  9
$DIMTFILL
 70
     0
  9
$DIMTFILLCLR
 70
     0
  9
$DIMARCSYM
 70
     0
  9
$DIMLTYPE
  6

  9
$DIMLTEX1
  6

  9
$DIMLTEX2
  6

  9
$LUNITS
 70
     3
  9
$LUPREC
 70
     3
  9
$SKETCHINC
 40
0.1
  9
$FILLETRAD
 40
0.0
  9
$AUNITS
 70
     0
  9
$AUPREC
 70
     0
  9
$MENU
  1
.
  9
$ELEVATION
 40
0.0
  9
$PELEVATION
 40
0.0
  9
$THICKNESS
 40
0.0
  9
$LIMCHECK
 70
     0
  9
$CHAMFERA
 40
0.5
  9
$CHAMFERB
 40
0.5
  9
$CHAMFERC
 40
1.0
  9
$CHAMFERD
 40
0.0
  9
$SKPOLY
 70
     0
  9
$TDCREATE
 40
2452325.545459838
  9
$TDUCREATE
 40
2452325.712126505
  9
$TDUPDATE
 40
2458414.470706146
  9
$TDUUPDATE
 40
2458414.637372813
  9
$TDINDWG
 40
1.7719782060
  9
$TDUSRTIMER
 40
1.7719769329
  9
$USRTIMER
 70
     1
  9
$ANGBASE
 50
0.0
  9
$ANGDIR
 70
     0
  9
$PDMODE
 70
     0
  9
$PDSIZE
 40
0.0
  9
$PLINEWID
 40
0.0
  9
$SPLFRAME
 70
     0
  9
$SPLINETYPE
 70
     6
  9
$SPLINESEGS
 70
     8
  9
$HANDSEED
  5
484F
  9
$SURFTAB1
 70
     6
  9
$SURFTAB2
 70
     6
  9
$SURFTYPE
 70
     6
  9
$SURFU
 70
     6
  9
$SURFV
 70
     6
  9
$UCSBASE
  2

  9
$UCSNAME
  2

  9
$UCSORG
 10
0.0
 20
0.0
 30
0.0
  9
$UCSXDIR
 10
1.0
 20
0.0
 30
0.0
  9
$UCSYDIR
 10
0.0
 20
1.0
 30
0.0
  9
$UCSORTHOREF
  2

  9
$UCSORTHOVIEW
 70
     0
  9
$UCSORGTOP
 10
0.0
 20
0.0
 30
0.0
  9
$UCSORGBOTTOM
 10
0.0
 20
0.0
 30
0.0
  9
$UCSORGLEFT
 10
0.0
 20
0.0
 30
0.0
  9
$UCSORGRIGHT
 10
0.0
 20
0.0
 30
0.0
  9
$UCSORGFRONT
 10
0.0
 20
0.0
 30
0.0
  9
$UCSORGBACK
 10
0.0
 20
0.0
 30
0.0
  9
$PUCSBASE
  2

  9
$PUCSNAME
  2

  9
$PUCSORG
 10
0.0
 20
0.0
 30
0.0
  9
$PUCSXDIR
 10
1.0
 20
0.0
 30
0.0
  9
$PUCSYDIR
 10
0.0
 20
1.0
 30
0.0
  9
$PUCSORTHOREF
  2

  9
$PUCSORTHOVIEW
 70
     0
  9
$PUCSORGTOP
 10
0.0
 20
0.0
 30
0.0
  9
$PUCSORGBOTTOM
 10
0.0
 20
0.0
 30
0.0
  9
$PUCSORGLEFT
 10
0.0
 20
0.0
 30
0.0
  9
$PUCSORGRIGHT
 10
0.0
 20
0.0
 30
0.0
  9
$PUCSORGFRONT
 10
0.0
 20
0.0
 30
0.0
  9
$PUCSORGBACK
 10
0.0
 20
0.0
 30
0.0
  9
$USERI1
 70
     0
  9
$USERI2
 70
     0
  9
$USERI3
 70
     0
  9
$USERI4
 70
     0
  9
$USERI5
 70
     0
  9
$USERR1
 40
0.0
  9
$USERR2
 40
0.0
  9
$USERR3
 40
0.0
  9
$USERR4
 40
0.0
  9
$USERR5
 40
0.0
  9
$WORLDVIEW
 70
     1
  9
$SHADEDGE
 70
     3
  9
$SHADEDIF
 70
    70
  9
$TILEMODE
 70
     1
  9
$MAXACTVP
 70
    64
  9
$PINSBASE
 10
0.0
 20
0.0
 30
0.0
  9
$PLIMCHECK
 70
     0
  9
$PEXTMIN
 10
0.6223608640189156
 20
0.7752666362099987
 30
-0.0015258207003583
  9
$PEXTMAX
 10
15.63380452912571
 20
20.79433968291374
 30
0.0000000349246037
  9
$PLIMMIN
 10
-0.4224999870840959
 20
-0.4241657632542407
  9
$PLIMMAX
 10
16.57749953232412
 20
21.57583375615398
  9
$UNITMODE
 70
     0
  9
$VISRETAIN
 70
     1
  9
$PLINEGEN
 70
     0
  9
$PSLTSCALE
 70
     1
  9
$TREEDEPTH
 70
  3020
  9
$CMLSTYLE
  2
Standard
  9
$CMLJUST
 70
     0
  9
$CMLSCALE
 40
1.0
  9
$PROXYGRAPHICS
 70
     1
  9
$MEASUREMENT
 70
     0
  9
$CELWEIGHT
370
    -1
  9
$ENDCAPS
280
     0
  9
$JOINSTYLE
280
     0
  9
$LWDISPLAY
290
     0
  9
$INSUNITS
 70
     1
  9
$HYPERLINKBASE
  1

  9
$STYLESHEET
  1
Zero.ctb
  9
$XEDIT
290
     1
  9
$CEPSNTYPE
380
     0
  9
$PSTYLEMODE
290
     1
  9
$FINGERPRINTGUID
  2
{C83B5C41-633D-4981-A8D7-D6883C970831}
  9
$VERSIONGUID
  2
{A20C5733-F0E6-4097-8B9F-E2F7F217D303}
  9
$EXTNAMES
290
     1
  9
$PSVPSCALE
 40
1.0
  9
$OLESTARTUP
290
     0
  9
$SORTENTS
280
   127
  9
$INDEXCTL
280
     0
  9
$HIDETEXT
280
     0
  9
$XCLIPFRAME
290
     0
  9
$HALOGAP
280
     0
  9
$OBSCOLOR
 70
   257
  9
$OBSLTYPE
280
     0
  9
$INTERSECTIONDISPLAY
280
     0
  9
$INTERSECTIONCOLOR
 70
   257
  9
$DIMASSOC
280
     1
  9
$PROJECTNAME
  1

  9
$CAMERADISPLAY
290
     0
  9
$LENSLENGTH
 40
50.0
  9
$CAMERAHEIGHT
 40
0.0
  9
$STEPSPERSEC
 40
2.0
  9
$STEPSIZE
 40
6.0
  9
$3DDWFPREC
 40
2.0
  9
$PSOLWIDTH
 40
0.25
  9
$PSOLHEIGHT
 40
4.0
  9
$LOFTANG1
 40
1.570796326794896
  9
$LOFTANG2
 40
1.570796326794896
  9
$LOFTMAG1
 40
0.0
  9
$LOFTMAG2
 40
0.0
  9
$LOFTPARAM
 70
     7
  9
$LOFTNORMALS
280
     1
  9
$LATITUDE
 40
37.795
  9
$LONGITUDE
 40
-122.394
  9
$NORTHDIRECTION
 40
0.0
  9
$TIMEZONE
 70
 -8000
  9
$LIGHTGLYPHDISPLAY
280
     1
  9
$TILEMODELIGHTSYNCH
280
     1
  9
$CMATERIAL
347
3AE8
  9
$SOLIDHIST
280
     0
  9
$SHOWHIST
280
     1
  9
$DWFFRAME
280
     2
  9
$DGNFRAME
280
     0
  9
$REALWORLDSCALE
290
     1
  9
$INTERFERECOLOR
 62
     1
  9
$INTERFEREOBJVS
345
3B0A
  9
$INTERFEREVPVS
346
3B07
  9
$CSHADOW
280
     0
  9
$SHADOWPLANELOCATION
 40
0.0
  0
ENDSEC
  0
SECTION
  2
CLASSES
  0
CLASS
  1
ACDBDICTIONARYWDFLT
  2
AcDbDictionaryWithDefault
  3
ObjectDBX Classes
 90
        0
 91
        1
280
     0
281
     0
  0
CLASS
  1
DICTIONARYVAR
  2
AcDbDictionaryVar
  3
ObjectDBX Classes
 90
        0
 91
       14
280
     0
281
     0
  0
CLASS
  1
RASTERVARIABLES
  2
AcDbRasterVariables
  3
ISM
 90
        0
 91
        1
280
     0
281
     0
  0
CLASS
  1
IMAGE
  2
AcDbRasterImage
  3
ISM
 90
     2175
 91
        0
280
     0
281
     1
  0
CLASS
  1
SORTENTSTABLE
  2
AcDbSortentsTable
  3
ObjectDBX Classes
 90
        0
 91
        4
280
     0
281
     0
  0
CLASS
  1
MATERIAL
  2
AcDbMaterial
  3
ObjectDBX Classes
 90
     1153
 91
        3
280
     0
281
     0
  0
CLASS
  1
VISUALSTYLE
  2
AcDbVisualStyle
  3
ObjectDBX Classes
 90
     4095
 91
       24
280
     0
281
     0
  0
CLASS
  1
TABLESTYLE
  2
AcDbTableStyle
  3
ObjectDBX Classes
 90
     4095
 91
        1
280
     0
281
     0
  0
CLASS
  1
SCALE
  2
AcDbScale
  3
ObjectDBX Classes
 90
     1153
 91
       17
280
     0
281
     0
  0
CLASS
  1
MLEADERSTYLE
  2
AcDbMLeaderStyle
  3
ACDB_MLEADERSTYLE_CLASS
 90
     4095
 91
        1
280
     0
281
     0
  0
CLASS
  1
ACDBSECTIONVIEWSTYLE
  2
AcDbSectionViewStyle
  3
ObjectDBX Classes
 90
     1025
 91
        1
280
     0
281
     0
  0
CLASS
  1
ACDBDETAILVIEWSTYLE
  2
AcDbDetailViewStyle
  3
ObjectDBX Classes
 90
     1025
 91
        1
280
     0
281
     0
  0
CLASS
  1
CELLSTYLEMAP
  2
AcDbCellStyleMap
  3
ObjectDBX Classes
 90
     1152
 91
        2
280
     0
281
     0
  0
ENDSEC
  0
SECTION
  2
TABLES
  0
TABLE
  2
VPORT
  5
8
102
{ACAD_XDICTIONARY
360
3DAD
102
}
330
0
100
AcDbSymbolTable
 70
     1
  0
VPORT
  5
3AE5
330
8
100
AcDbSymbolTableRecord
100
AcDbViewportTableRecord
  2
*Active
 70
     0
 10
0.0
 20
0.0
 11
1.0
 21
1.0
 12
9.856960905946639
 22
6.590043432279527
 13
0.0
 23
0.0
 14
0.5
 24
0.5
 15
0.5
 25
0.5
 16
0.0
 26
0.0
 36
1.0
 17
0.0
 27
0.0
 37
0.0
 40
18.74243341036369
 41
2.21195652173913
 42
50.0
 43
0.0
 44
0.0
 50
0.0
 51
0.0
 71
     0
 72
   100
 73
     1
 74
     3
 75
     0
 76
     0
 77
     0
 78
     0
281
     0
 65
     1
110
0.0
120
0.0
130
0.0
111
1.0
121
0.0
131
0.0
112
0.0
122
1.0
132
0.0
 79
     0
146
0.0
348
3B06
 60
     3
 61
     5
292
     1
282
     1
141
0.0
142
0.0
 63
   250
421
  3355443
1001
ACAD_NAV_VCDISPLAY
1070
     3
  0
ENDTAB
  0
TABLE
  2
LTYPE
  5
5
330
0
100
AcDbSymbolTable
 70
     1
  0
LTYPE
  5
14
330
5
100
AcDbSymbolTableRecord
100
AcDbLinetypeTableRecord
  2
ByBlock
 70
     0
  3

 72
    65
 73
     0
 40
0.0
  0
LTYPE
  5
15
330
5
100
AcDbSymbolTableRecord
100
AcDbLinetypeTableRecord
  2
ByLayer
 70
     0
  3

 72
    65
 73
     0
 40
0.0
  0
LTYPE
  5
16
330
5
100
AcDbSymbolTableRecord
100
AcDbLinetypeTableRecord
  2
Continuous
 70
     0
  3
Solid line
 72
    65
 73
     0
 40
0.0
  0
ENDTAB
  0
TABLE
  2
LAYER
  5
2
102
{ACAD_XDICTIONARY
360
3C6C
102
}
330
0
100
AcDbSymbolTable
 70
     9
  0
LAYER
  5
10
102
{ACAD_XDICTIONARY
360
3D7F
102
}
330
2
100
AcDbSymbolTableRecord
100
AcDbLayerTableRecord
  2
0
 70
     0
 62
    11
  6
Continuous
370
    -3
390
F
347
3AF8
  0
LAYER
  5
36
330
2
100
AcDbSymbolTableRecord
100
AcDbLayerTableRecord
  2
Defpoints
 70
     0
 62
     2
  6
Continuous
290
     0
370
    -3
390
F
347
3AF8
  0
LAYER
  5
1C4
102
{ACAD_XDICTIONARY
360
3D81
102
}
330
2
100
AcDbSymbolTableRecord
100
AcDbLayerTableRecord
  2
A-ANNO-DIMS
 70
     0
 62
     5
  6
Continuous
370
    -3
390
F
347
3AF8
  0
LAYER
  5
1C8
102
{ACAD_XDICTIONARY
360
3D83
102
}
330
2
100
AcDbSymbolTableRecord
100
AcDbLayerTableRecord
  2
A-DETL-SADL
 70
     0
 62
     1
  6
Continuous
370
    -3
390
F
347
3AF8
  0
LAYER
  5
382
102
{ACAD_XDICTIONARY
360
3D85
102
}
330
2
100
AcDbSymbolTableRecord
100
AcDbLayerTableRecord
  2
A-DETL-PAT1
 70
     0
 62
   254
  6
Continuous
370
    -3
390
F
347
3AF8
  0
LAYER
  5
6C4
102
{ACAD_XDICTIONARY
360
3D87
102
}
330
2
100
AcDbSymbolTableRecord
100
AcDbLayerTableRecord
  2
A-ANNO-TEXT
 70
     0
 62
     6
  6
Continuous
370
     5
390
F
347
3AF8
  0
LAYER
  5
4331
330
2
100
AcDbSymbolTableRecord
100
AcDbLayerTableRecord
  2
A-DETL-RUBR
 70
     0
 62
    75
  6
Continuous
370
    -3
390
F
347
3AF8
  0
LAYER
  5
4333
330
2
100
AcDbSymbolTableRecord
100
AcDbLayerTableRecord
  2
A-DETL-PAT2
 70
     0
 62
    75
  6
Continuous
370
    -3
390
F
347
3AF8
  0
LAYER
  5
4716
102
{ACAD_XDICTIONARY
360
4717
102
}
330
2
100
AcDbSymbolTableRecord
100
AcDbLayerTableRecord
  2
A-ANNO-LOGO
 70
     0
 62
     8
  6
Continuous
370
    -3
390
F
347
3AF8
  0
ENDTAB
  0
TABLE
  2
STYLE
  5
3
330
0
100
AcDbSymbolTable
 70
     3
  0
STYLE
  5
11
330
3
100
AcDbSymbolTableRecord
100
AcDbTextStyleTableRecord
  2
Standard
 70
     0
 40
0.0
 41
1.0
 50
0.0
 71
     0
 42
0.0649676644074742
  3
cityb___.ttf
  4

1001
ACAD
1000
CityBlueprint
1071
      514
  0
STYLE
  5
A04
330
3
100
AcDbSymbolTableRecord
100
AcDbTextStyleTableRecord
  2
STYLE1
 70
     0
 40
0.0
 41
1.0
 50
0.0
 71
     0
 42
0.0649676644074742
  3
cityb___.ttf
  4

1001
ACAD
1000
CityBlueprint
1071
      514
  0
STYLE
  5
FE1
330
3
100
AcDbSymbolTableRecord
100
AcDbTextStyleTableRecord
  2
ZERO
 70
     0
 40
0.0
 41
1.0
 50
0.0
 71
     0
 42
0.0649676644074742
  3
arial.ttf
  4

1001
ACAD
1000
Arial
1071
       34
  0
ENDTAB
  0
TABLE
  2
VIEW
  5
6
330
0
100
AcDbSymbolTable
 70
     0
  0
ENDTAB
  0
TABLE
  2
UCS
  5
7
330
0
100
AcDbSymbolTable
 70
     0
  0
ENDTAB
  0
TABLE
  2
APPID
  5
9
330
0
100
AcDbSymbolTable
 70
    10
  0
APPID
  5
12
330
9
100
AcDbSymbolTableRecord
100
AcDbRegAppTableRecord
  2
ACAD
 70
     0
  0
APPID
  5
3B3A
330
9
100
AcDbSymbolTableRecord
100
AcDbRegAppTableRecord
  2
ACAD_DSTYLE_DIMJAG
 70
     0
  0
APPID
  5
3B3B
330
9
100
AcDbSymbolTableRecord
100
AcDbRegAppTableRecord
  2
ACAD_DSTYLE_DIMTALN
 70
     0
  0
APPID
  5
3B81
330
9
100
AcDbSymbolTableRecord
100
AcDbRegAppTableRecord
  2
AcadAnnoMonitorAlertIconDisabled
 70
     0
  0
APPID
  5
3B82
330
9
100
AcDbSymbolTableRecord
100
AcDbRegAppTableRecord
  2
ACAD_EXEMPT_FROM_CAD_STANDARDS
 70
     0
  0
APPID
  5
3C6A
330
9
100
AcDbSymbolTableRecord
100
AcDbRegAppTableRecord
  2
ACAD_NAV_VCDISPLAY
 70
     0
  0
APPID
  5
3C6B
330
9
100
AcDbSymbolTableRecord
100
AcDbRegAppTableRecord
  2
ACAD_PSEXT
 70
     0
  0
APPID
  5
3DF1
330
9
100
AcDbSymbolTableRecord
100
AcDbRegAppTableRecord
  2
ACAD_MLEADERVER
 70
     0
  0
APPID
  5
4617
330
9
100
AcDbSymbolTableRecord
100
AcDbRegAppTableRecord
  2
GradientColor1ACI
 70
     0
  0
APPID
  5
4618
330
9
100
AcDbSymbolTableRecord
100
AcDbRegAppTableRecord
  2
GradientColor2ACI
 70
     0
  0
ENDTAB
  0
TABLE
  2
DIMSTYLE
  5
A
330
0
100
AcDbSymbolTable
 70
     2
100
AcDbDimStyleTable
 71
     2
340
34
340
27
  0
DIMSTYLE
105
27
330
A
100
AcDbSymbolTableRecord
100
AcDbDimStyleTableRecord
  2
Standard
 70
     0
340
11
  0
DIMSTYLE
105
34
102
{ACAD_REACTORS
330
43D8
330
43DA
330
43DB
102
}
330
A
100
AcDbSymbolTableRecord
100
AcDbDimStyleTableRecord
  2
dim24
 70
     0
  3
\X
 41
0.075
 42
0.06
 44
0.06
 78
     4
140
0.085
141
0.025
147
0.03125
170
     1
171
     1
176
     5
177
     5
178
     5
271
     3
272
     3
274
     1
277
     3
289
     1
340
FE1
371
     0
372
     0
1001
ACAD_DSTYLE_DIMJAG
1070
   388
1040
1.5
1001
ACAD_DSTYLE_DIMTALN
1070
   392
1070
     0
  0
ENDTAB
  0
TABLE
  2
BLOCK_RECORD
  5
1
330
0
100
AcDbSymbolTable
 70
     7
  0
BLOCK_RECORD
  5
1F
102
{ACAD_XDICTIONARY
360
38DC
102
}
330
1
100
AcDbSymbolTableRecord
100
AcDbBlockTableRecord
  2
*Model_Space
340
22
 70
     0
280
     1
281
     0
  0
BLOCK_RECORD
  5
1B
330
1
100
AcDbSymbolTableRecord
100
AcDbBlockTableRecord
  2
*Paper_Space
340
1E
 70
     0
280
     1
281
     0
  0
BLOCK_RECORD
  5
23
330
1
100
AcDbSymbolTableRecord
100
AcDbBlockTableRecord
  2
*Paper_Space0
340
26
 70
     0
280
     1
281
     0
  0
BLOCK_RECORD
  5
43EB
330
1
100
AcDbSymbolTableRecord
100
AcDbBlockTableRecord
  2
*D1
340
0
 70
     0
280
     1
281
     0
  0
BLOCK_RECORD
  5
43FA
330
1
100
AcDbSymbolTableRecord
100
AcDbBlockTableRecord
  2
*D2
340
0
 70
     0
280
     1
281
     0
  0
BLOCK_RECORD
  5
4408
330
1
100
AcDbSymbolTableRecord
100
AcDbBlockTableRecord
  2
*D3
340
0
 70
     0
280
     1
281
     0
  0
BLOCK_RECORD
  5
45C3
102
{ACAD_XDICTIONARY
360
45DA
102
}
330
1
100
AcDbSymbolTableRecord
100
AcDbBlockTableRecord
  2
A$C5CEC02A8
340
0
102
{BLKREFS
331
45DE
102
}
 70
     1
280
     1
281
     0
  0
BLOCK_RECORD
  5
46CB
102
{ACAD_XDICTIONARY
360
46CC
102
}
330
1
100
AcDbSymbolTableRecord
100
AcDbBlockTableRecord
  2
A$C4B96101F
340
0
102
{BLKREFS
331
4714
102
}
 70
     1
280
     1
281
     0
  0
BLOCK_RECORD
  5
4710
102
{ACAD_XDICTIONARY
360
4711
102
}
330
1
100
AcDbSymbolTableRecord
100
AcDbBlockTableRecord
  2
A$C4B751D3B
340
0
102
{BLKREFS
331
4720
102
}
 70
     1
280
     1
281
     0
  0
ENDTAB
  0
ENDSEC
  0
SECTION
  2
BLOCKS
  0
BLOCK
  5
20
330
1F
100
AcDbEntity
  8
0
100
AcDbBlockBegin
  2
*Model_Space
 70
     0
 10
0.0
 20
0.0
 30
0.0
  3
*Model_Space
  1

  0
ENDBLK
  5
21
330
1F
100
AcDbEntity
  8
0
100
AcDbBlockEnd
  0
BLOCK
  5
1C
330
1B
100
AcDbEntity
 67
     1
  8
0
100
AcDbBlockBegin
  2
*Paper_Space
 70
     0
 10
0.0
 20
0.0
 30
0.0
  3
*Paper_Space
  1

  0
ENDBLK
  5
1D
330
1B
100
AcDbEntity
 67
     1
  8
0
100
AcDbBlockEnd
  0
BLOCK
  5
24
330
23
100
AcDbEntity
 67
     1
  8
0
100
AcDbBlockBegin
  2
*Paper_Space0
 70
     0
 10
0.0
 20
0.0
 30
0.0
  3
*Paper_Space0
  1

  0
VIEWPORT
  5
6B4
330
23
100
AcDbEntity
 67
     1
  8
0
100
AcDbViewport
 10
6.261562742830193
 20
4.438983064915013
 30
0.0
 40
17.40266977019127
 41
10.10651940070114
 68
     0
 69
     0
 12
6.261562742830193
 22
4.438983064915013
 13
0.0
 23
0.0
 14
0.5
 24
0.5
 15
0.5
 25
0.5
 16
0.0
 26
0.0
 36
1.0
 17
0.0
 27
0.0
 37
0.0
 42
50.0
 43
0.0
 44
0.0
 45
10.10651940070114
 50
0.0
 51
0.0
 72
   100
 90
    32800
  1

281
     0
 71
     1
 74
     0
110
0.0
120
0.0
130
0.0
111
1.0
121
0.0
131
0.0
112
0.0
122
1.0
132
0.0
 79
     0
146
0.0
170
     0
 61
     5
348
3B06
292
     1
282
     1
141
0.0
142
0.0
 63
   250
421
  3355443
  0
VIEWPORT
  5
6B6
330
23
100
AcDbEntity
 67
     1
  8
A-DETL-SADL
100
AcDbViewport
 10
5.275208368076113
 20
4.060416700333121
 30
0.0
 40
8.44033338892178
 41
6.496666720532994
 68
     0
 69
     0
 12
0.136986925803912
 22
0.5415224884602364
 13
0.0
 23
0.0
 14
0.5
 24
0.5
 15
0.5
 25
0.5
 16
0.0
 26
0.0
 36
1.0
 17
0.0
 27
0.0
 37
0.0
 42
50.0
 43
0.0
 44
0.0
 45
1.685355686444485
 50
0.0
 51
0.0
 72
   100
 90
    32864
  1

281
     0
 71
     1
 74
     0
110
0.0
120
0.0
130
0.0
111
1.0
121
0.0
131
0.0
112
0.0
122
1.0
132
0.0
 79
     0
146
0.0
170
     0
 61
     5
348
3B06
292
     1
282
     1
141
0.0
142
0.0
 63
   250
421
  3355443
  0
ENDBLK
  5
25
330
23
100
AcDbEntity
 67
     1
  8
0
100
AcDbBlockEnd
  0
BLOCK
  5
43EC
330
43EB
100
AcDbEntity
  8
0
100
AcDbBlockBegin
  2
*D1
 70
     1
 10
0.0
 20
0.0
 30
0.0
  3
*D1
  1

  0
LINE
  5
455A
330
43EB
100
AcDbEntity
  8
A-ANNO-DIMS
 62
     5
440
 16777216
370
     0
100
AcDbLine
 10
1.211219240423365
 20
5.826242169638056
 30
0.0
 11
0.9747474888773798
 21
5.826242169638056
 31
0.0
  0
LINE
  5
455B
330
43EB
100
AcDbEntity
  8
A-ANNO-DIMS
 62
     5
440
 16777216
370
     0
100
AcDbLine
 10
1.211219240423365
 20
6.076242169638056
 30
0.0
 11
0.9747474888773798
 21
6.076242169638056
 31
0.0
  0
LINE
  5
455C
330
43EB
100
AcDbEntity
  8
A-ANNO-DIMS
 62
     5
440
 16777216
370
     0
100
AcDbLine
 10
1.034747488877379
 20
5.751242169638056
 30
0.0
 11
1.034747488877379
 21
5.676242169638055
 31
0.0
  0
LINE
  5
455D
330
43EB
100
AcDbEntity
  8
A-ANNO-DIMS
 62
     5
440
 16777216
370
     0
100
AcDbLine
 10
1.034747488877379
 20
6.151242169638056
 30
0.0
 11
1.034747488877379
 21
6.226242169638056
 31
0.0
  0
LINE
  5
455E
330
43EB
100
AcDbEntity
  8
A-ANNO-DIMS
 62
     5
440
 16777216
370
     0
100
AcDbLine
 10
1.034747488877379
 20
6.226242169638056
 30
0.0
 11
1.109747488877379
 21
6.226242169638056
 31
0.0
  0
SOLID
  5
455F
330
43EB
100
AcDbEntity
  8
A-ANNO-DIMS
 62
     5
440
 16777216
100
AcDbTrace
 10
1.022247488877379
 20
5.751242169638056
 30
0.0
 11
1.047247488877379
 21
5.751242169638056
 31
0.0
 12
1.034747488877379
 22
5.826242169638056
 32
0.0
 13
1.034747488877379
 23
5.826242169638056
 33
0.0
  0
SOLID
  5
4560
330
43EB
100
AcDbEntity
  8
A-ANNO-DIMS
 62
     5
440
 16777216
100
AcDbTrace
 10
1.022247488877379
 20
6.151242169638056
 30
0.0
 11
1.047247488877379
 21
6.151242169638056
 31
0.0
 12
1.034747488877379
 22
6.076242169638056
 32
0.0
 13
1.034747488877379
 23
6.076242169638056
 33
0.0
  0
MTEXT
  5
4561
330
43EB
100
AcDbEntity
  8
A-ANNO-DIMS
 62
     5
440
 16777216
100
AcDbMText
 10
1.269454173734132
 20
6.3008908735944
 30
0.0
 40
0.085
 41
0.0
 46
0.0
 71
     5
 72
     1
  1
\A1;.250"
  7
ZERO
 73
     1
 44
1.0
  0
MTEXT
  5
4562
330
43EB
100
AcDbEntity
  8
A-ANNO-DIMS
 62
     5
440
 16777216
100
AcDbMText
 10
1.269454173734132
 20
6.140519113703541
 30
0.0
 40
0.085
 41
0.0
 46
0.0
 71
     5
 72
     1
  1
\A1;[6.4]
  7
ZERO
 73
     1
 44
1.0
  0
POINT
  5
4563
330
43EB
100
AcDbEntity
  8
Defpoints
 62
     0
440
 16777216
100
AcDbPoint
 10
1.271219240423365
 20
5.826242169638056
 30
0.0
  0
POINT
  5
4564
330
43EB
100
AcDbEntity
  8
Defpoints
 62
     0
440
 16777216
100
AcDbPoint
 10
1.271219240423365
 20
6.076242169638056
 30
0.0
  0
POINT
  5
4565
330
43EB
100
AcDbEntity
  8
Defpoints
 62
     0
440
 16777216
100
AcDbPoint
 10
1.034747488877379
 20
6.076242169638056
 30
0.0
  0
ENDBLK
  5
43ED
330
43EB
100
AcDbEntity
  8
0
100
AcDbBlockEnd
  0
BLOCK
  5
43FB
330
43FA
100
AcDbEntity
  8
0
100
AcDbBlockBegin
  2
*D2
 70
     1
 10
0.0
 20
0.0
 30
0.0
  3
*D2
  1

  0
LINE
  5
4571
330
43FA
100
AcDbEntity
  8
A-ANNO-DIMS
 62
     5
440
 16777216
370
     0
100
AcDbLine
 10
1.271219240423365
 20
5.766242169638056
 30
0.0
 11
1.271219240423365
 21
5.520258417219745
 31
0.0
  0
LINE
  5
4572
330
43FA
100
AcDbEntity
  8
A-ANNO-DIMS
 62
     5
440
 16777216
370
     0
100
AcDbLine
 10
6.271219240423365
 20
5.766242169638056
 30
0.0
 11
6.271219240423365
 21
5.520258417219745
 31
0.0
  0
LINE
  5
4573
330
43FA
100
AcDbEntity
  8
A-ANNO-DIMS
 62
     5
440
 16777216
370
     0
100
AcDbLine
 10
1.346219240423365
 20
5.580258417219744
 30
0.0
 11
3.566287453247376
 21
5.580258417219744
 31
0.0
  0
LINE
  5
4574
330
43FA
100
AcDbEntity
  8
A-ANNO-DIMS
 62
     5
440
 16777216
370
     0
100
AcDbLine
 10
6.196219240423365
 20
5.580258417219744
 30
0.0
 11
3.976151027599355
 21
5.580258417219744
 31
0.0
  0
SOLID
  5
4575
330
43FA
100
AcDbEntity
  8
A-ANNO-DIMS
 62
     5
440
 16777216
100
AcDbTrace
 10
1.346219240423365
 20
5.592758417219744
 30
0.0
 11
1.346219240423365
 21
5.567758417219744
 31
0.0
 12
1.271219240423365
 22
5.580258417219744
 32
0.0
 13
1.271219240423365
 23
5.580258417219744
 33
0.0
  0
SOLID
  5
4576
330
43FA
100
AcDbEntity
  8
A-ANNO-DIMS
 62
     5
440
 16777216
100
AcDbTrace
 10
6.196219240423365
 20
5.592758417219744
 30
0.0
 11
6.196219240423365
 21
5.567758417219744
 31
0.0
 12
6.271219240423365
 22
5.580258417219744
 32
0.0
 13
6.271219240423365
 23
5.580258417219744
 33
0.0
  0
MTEXT
  5
4577
330
43FA
100
AcDbEntity
  8
A-ANNO-DIMS
 62
     5
440
 16777216
100
AcDbMText
 10
3.771219240423365
 20
5.654907121176088
 30
0.0
 40
0.085
 41
0.0
 46
0.0
 71
     5
 72
     1
  1
\A1;5.000"
  7
ZERO
 73
     1
 44
1.0
  0
MTEXT
  5
4578
330
43FA
100
AcDbEntity
  8
A-ANNO-DIMS
 62
     5
440
 16777216
100
AcDbMText
 10
3.771219240423365
 20
5.494535361285229
 30
0.0
 40
0.085
 41
0.0
 46
0.0
 71
     5
 72
     1
  1
\A1;[127.0]
  7
ZERO
 73
     1
 44
1.0
  0
POINT
  5
4579
330
43FA
100
AcDbEntity
  8
Defpoints
 62
     0
440
 16777216
100
AcDbPoint
 10
1.271219240423365
 20
5.826242169638056
 30
0.0
  0
POINT
  5
457A
330
43FA
100
AcDbEntity
  8
Defpoints
 62
     0
440
 16777216
100
AcDbPoint
 10
6.271219240423365
 20
5.826242169638056
 30
0.0
  0
POINT
  5
457B
330
43FA
100
AcDbEntity
  8
Defpoints
 62
     0
440
 16777216
100
AcDbPoint
 10
6.271219240423365
 20
5.580258417219744
 30
0.0
  0
ENDBLK
  5
43FC
330
43FA
100
AcDbEntity
  8
0
100
AcDbBlockEnd
  0
BLOCK
  5
4409
330
4408
100
AcDbEntity
  8
0
100
AcDbBlockBegin
  2
*D3
 70
     1
 10
0.0
 20
0.0
 30
0.0
  3
*D3
  1

  0
LINE
  5
47C5
330
4408
100
AcDbEntity
  8
A-ANNO-DIMS
 62
     5
440
 16777216
370
     0
100
AcDbLine
 10
6.309291615940198
 20
5.826242169638053
 30
0.0
 11
6.584161682513331
 21
5.826242169638053
 31
0.0
  0
LINE
  5
47C6
330
4408
100
AcDbEntity
  8
A-ANNO-DIMS
 62
     5
440
 16777216
370
     0
100
AcDbLine
 10
3.261219240423367
 20
6.451242169638054
 30
0.0
 11
6.584161682513332
 21
6.451242169638053
 31
0.0
  0
LINE
  5
47C7
330
4408
100
AcDbEntity
  8
A-ANNO-DIMS
 62
     5
440
 16777216
370
     0
100
AcDbLine
 10
6.524161682513331
 20
5.901242169638053
 30
0.0
 11
6.524161682513331
 21
5.982011837668976
 31
0.0
  0
LINE
  5
47C8
330
4408
100
AcDbEntity
  8
A-ANNO-DIMS
 62
     5
440
 16777216
370
     0
100
AcDbLine
 10
6.524161682513332
 20
6.376242169638053
 30
0.0
 11
6.524161682513332
 21
6.29547250160713
 31
0.0
  0
SOLID
  5
47C9
330
4408
100
AcDbEntity
  8
A-ANNO-DIMS
 62
     5
440
 16777216
100
AcDbTrace
 10
6.511661682513331
 20
5.901242169638053
 30
0.0
 11
6.536661682513331
 21
5.901242169638053
 31
0.0
 12
6.524161682513331
 22
5.826242169638053
 32
0.0
 13
6.524161682513331
 23
5.826242169638053
 33
0.0
  0
SOLID
  5
47CA
330
4408
100
AcDbEntity
  8
A-ANNO-DIMS
 62
     5
440
 16777216
100
AcDbTrace
 10
6.511661682513332
 20
6.376242169638053
 30
0.0
 11
6.536661682513332
 21
6.376242169638053
 31
0.0
 12
6.524161682513332
 22
6.451242169638053
 32
0.0
 13
6.524161682513332
 23
6.451242169638053
 33
0.0
  0
MTEXT
  5
47CB
330
4408
100
AcDbEntity
  8
A-ANNO-DIMS
 62
     5
440
 16777216
100
AcDbMText
 10
6.52416168251333
 20
6.138742169638055
 30
0.0
 40
0.085
 41
0.0
 46
0.0
 71
     5
 72
     1
  1
\A1;.625"\P [15.9]
  7
ZERO
 73
     1
 44
1.0
  0
POINT
  5
47CC
330
4408
100
AcDbEntity
  8
Defpoints
 62
     0
440
 16777216
100
AcDbPoint
 10
6.249291615940198
 20
5.826242169638053
 30
0.0
  0
POINT
  5
47CD
330
4408
100
AcDbEntity
  8
Defpoints
 62
     0
440
 16777216
100
AcDbPoint
 10
3.201219240423367
 20
6.451242169638054
 30
0.0
  0
POINT
  5
47CE
330
4408
100
AcDbEntity
  8
Defpoints
 62
     0
440
 16777216
100
AcDbPoint
 10
6.524161682513332
 20
6.451242169638053
 30
0.0
  0
ENDBLK
  5
440A
330
4408
100
AcDbEntity
  8
0
100
AcDbBlockEnd
  0
BLOCK
  5
45DC
330
45C3
100
AcDbEntity
  8
0
100
AcDbBlockBegin
  2
A$C5CEC02A8
 70
     0
 10
0.0
 20
0.0
 30
0.0
  3
A$C5CEC02A8
  1

  0
LINE
  5
45C4
330
45C3
100
AcDbEntity
  8
A-DETL-RUBR
100
AcDbLine
 10
-0.8390095631476732
 20
-0.311104421471466
 30
0.0
 11
-0.8390095631476732
 21
-0.1820014992887024
 31
0.0
  0
LINE
  5
45C5
330
45C3
100
AcDbEntity
  8
A-DETL-RUBR
100
AcDbLine
 10
-0.6445095631476719
 20
-0.3216044214714699
 30
0.0
 11
-0.6445095631476719
 21
-0.1861044214714695
 31
0.0
  0
ARC
  5
45C6
330
45C3
100
AcDbEntity
  8
A-DETL-RUBR
100
AcDbCircle
 10
-0.7914119825025097
 20
-0.3111044214714678
 30
0.0
 40
0.1375975806451637
100
AcDbArc
 50
110.237888677608
 51
249.762111322392
  0
ARC
  5
45C7
330
45C3
100
AcDbEntity
  8
A-DETL-RUBR
100
AcDbCircle
 10
-0.7914119825025097
 20
-0.3111044214714678
 30
0.0
 40
0.1825975806451637
100
AcDbArc
 50
98.69292789506491
 51
221.0954933088739
  0
ARC
  5
45C8
330
45C3
100
AcDbEntity
  8
A-DETL-RUBR
100
AcDbCircle
 10
-0.7840095631476736
 20
-0.1916044214714709
 30
0.0
 40
0.3
100
AcDbArc
 50
180.0
 51
268.0897868282902
  0
ARC
  5
45C9
330
45C3
100
AcDbEntity
  8
A-DETL-RUBR
100
AcDbCircle
 10
-0.7840095631476736
 20
-0.1916044214714709
 30
0.0
 40
0.28
100
AcDbArc
 50
180.0
 51
238.8088151339337
  0
LINE
  5
45CA
330
45C3
100
AcDbEntity
  8
A-DETL-RUBR
100
AcDbLine
 10
-0.6445095631476719
 20
-0.1861044214714695
 30
0.0
 11
-0.7245095631476719
 21
-0.1861044214714695
 31
0.0
  0
ARC
  5
45CB
330
45C3
100
AcDbEntity
  8
A-DETL-RUBR
100
AcDbCircle
 10
-1.074009563147672
 20
-0.1406044214714655
 30
0.0
 40
0.01
100
AcDbArc
 50
0.0
 51
180.0
  0
LINE
  5
45CC
330
45C3
100
AcDbEntity
  8
A-DETL-RUBR
100
AcDbLine
 10
-1.084009563147672
 20
-0.1916044214714709
 30
0.0
 11
-1.084009563147672
 21
-0.186104421471466
 31
0.0
  0
LINE
  5
45CD
330
45C3
100
AcDbEntity
  8
A-DETL-RUBR
100
AcDbLine
 10
-1.084009563147672
 20
-0.1916044214714709
 30
0.0
 11
-1.084009563147672
 21
-0.1406044214714655
 31
0.0
  0
LINE
  5
45CE
330
45C3
100
AcDbEntity
  8
A-DETL-RUBR
100
AcDbLine
 10
-1.064009563147672
 20
-0.1916044214714709
 30
0.0
 11
-1.064009563147672
 21
-0.1406044214714655
 31
0.0
  0
LINE
  5
45CF
330
45C3
100
AcDbEntity
  8
A-DETL-RUBR
100
AcDbLine
 10
-0.7940095631476716
 20
-0.1306044214714657
 30
0.0
 11
-0.8190095631476719
 21
-0.1306044214714657
 31
0.0
  0
LINE
  5
45D0
330
45C3
100
AcDbEntity
  8
A-DETL-RUBR
100
AcDbLine
 10
-0.7245095631476719
 20
-0.2566044214714687
 30
0.0
 11
-0.7245095631476719
 21
-0.1861044214714695
 31
0.0
  0
LINE
  5
45D1
330
45C3
100
AcDbEntity
  8
A-DETL-RUBR
100
AcDbLine
 10
-0.7940095631476716
 20
-0.2566044214714687
 30
0.0
 11
-0.7940095631476716
 21
-0.1861044214714695
 31
0.0
  0
LINE
  5
45D2
330
45C3
100
AcDbEntity
  8
A-DETL-RUBR
100
AcDbLine
 10
-0.7940095631476716
 20
-0.2566044214714687
 30
0.0
 11
-0.7940095631476716
 21
-0.1306044214714657
 31
0.0
  0
LINE
  5
45D3
330
45C3
100
AcDbEntity
  8
A-DETL-RUBR
100
AcDbLine
 10
-0.7245095631476719
 20
-0.2566044214714687
 30
0.0
 11
-0.7940095631476716
 21
-0.2566044214714687
 31
0.0
  0
LINE
  5
45D4
330
45C3
100
AcDbEntity
  8
A-DETL-RUBR
100
AcDbLine
 10
-0.7245095631476719
 20
-0.4361044214714696
 30
0.0
 11
-0.6445095631476719
 21
-0.4361044214714696
 31
0.0
  0
LINE
  5
45D5
330
45C3
100
AcDbEntity
  8
A-DETL-RUBR
100
AcDbLine
 10
-0.7940095631476716
 20
-0.3656044214714704
 30
0.0
 11
-0.7940095631476716
 21
-0.4916044214714699
 31
0.0
  0
LINE
  5
45D6
330
45C3
100
AcDbEntity
  8
A-DETL-RUBR
100
AcDbLine
 10
-0.8390095631476732
 20
-0.311104421471466
 30
0.0
 11
-0.8390095631476732
 21
-0.4402073436542349
 31
0.0
  0
LINE
  5
45D7
330
45C3
100
AcDbEntity
  8
A-DETL-RUBR
100
AcDbLine
 10
-0.7245095631476719
 20
-0.3656044214714704
 30
0.0
 11
-0.7245095631476719
 21
-0.4361044214714696
 31
0.0
  0
LINE
  5
45D8
330
45C3
100
AcDbEntity
  8
A-DETL-RUBR
100
AcDbLine
 10
-0.7245095631476719
 20
-0.3656044214714704
 30
0.0
 11
-0.7940095631476716
 21
-0.3656044214714704
 31
0.0
  0
LINE
  5
45D9
330
45C3
100
AcDbEntity
  8
A-DETL-RUBR
100
AcDbLine
 10
-0.6445095631476719
 20
-0.3111044214714695
 30
0.0
 11
-0.6445095631476719
 21
-0.4361044214714696
 31
0.0
  0
ENDBLK
  5
45DD
330
45C3
100
AcDbEntity
  8
0
100
AcDbBlockEnd
  0
BLOCK
  5
46CE
330
46CB
100
AcDbEntity
  8
0
100
AcDbBlockBegin
  2
A$C4B96101F
 70
     0
 10
0.0
 20
0.0
 30
0.0
  3
A$C4B96101F
  1

  0
HATCH
  5
46CF
330
46CB
100
AcDbEntity
  8
A-ANNO-LOGO
100
AcDbHatch
 10
0.0
 20
0.0
 30
0.0
210
0.0
220
0.0
230
1.0
  2
SOLID
 70
     1
 71
     1
 91
        2
 92
        7
 72
     1
 73
     1
 93
        2
 10
0.5166708586199597
 20
-2.157011628285421
 42
1.0
 10
0.60979662334909
 20
-2.157011628285421
 42
1.0
 97
        1
330
46D1
 92
       22
 72
     1
 73
     1
 93
        2
 10
0.58879662334909
 20
-2.157011628285421
 42
-1.0
 10
0.5376708586199597
 20
-2.157011628285421
 42
-1.0
 97
        1
330
46E6
 75
     1
 76
     1
 47
0.0008634572683766
 98
        2
 10
0.5776793396032672
 20
-2.119797506363615
 10
0.5776793396032672
 20
-2.119797506363615
450
        0
451
        0
460
0.0
461
0.0
452
        0
462
0.0
453
        0
470

1001
GradientColor1ACI
1070
     5
1001
GradientColor2ACI
1070
     2
1001
ACAD
1010
0.0
1020
0.0
1030
0.0
  0
HATCH
  5
46D0
330
46CB
100
AcDbEntity
  8
A-ANNO-LOGO
100
AcDbHatch
 10
0.0
 20
0.0
 30
0.0
210
0.0
220
0.0
230
1.0
  2
SOLID
 70
     1
 71
     1
 91
        1
 92
        7
 72
     0
 73
     1
 93
       10
 10
-0.0574546916874503
 20
-2.203574510649986
 10
-0.0364546916874504
 20
-2.203574510649986
 10
-0.0364546916874504
 20
-2.110448745920856
 10
-0.0574546916874503
 20
-2.110448745920856
 10
-0.0574546916874503
 20
-2.163914166483698
 10
-0.0908028357964916
 20
-2.110448745920856
 10
-0.1131957910509529
 20
-2.110448745920856
 10
-0.1131957910509529
 20
-2.203574510649986
 10
-0.092195791050953
 20
-2.203574510649986
 10
-0.0921957910509526
 20
-2.147875834219548
 97
        1
330
46D2
 75
     1
 76
     1
 47
0.0008634572683766
 98
        1
 10
-0.0594836718751966
 20
-2.169014542970541
450
        0
451
        0
460
0.0
461
0.0
452
        0
462
0.0
453
        0
470

1001
GradientColor1ACI
1070
     5
1001
GradientColor2ACI
1070
     2
1001
ACAD
1010
0.0
1020
0.0
1030
0.0
  0
CIRCLE
  5
46D1
102
{ACAD_REACTORS
330
46CF
102
}
330
46CB
100
AcDbEntity
  8
A-ANNO-LOGO
100
AcDbCircle
 10
0.5632337409845248
 20
-2.157011628285421
 30
0.0
 40
0.0465628823645652
  0
LWPOLYLINE
  5
46D2
102
{ACAD_REACTORS
330
46D0
102
}
330
46CB
100
AcDbEntity
  8
A-ANNO-LOGO
100
AcDbPolyline
 90
       10
 70
     1
 43
0.0
 10
-0.0574546916874503
 20
-2.203574510649986
 10
-0.0364546916874504
 20
-2.203574510649986
 10
-0.0364546916874504
 20
-2.110448745920856
 10
-0.0574546916874503
 20
-2.110448745920856
 10
-0.0574546916874503
 20
-2.163914166483698
 10
-0.0908028357964916
 20
-2.110448745920856
 10
-0.1131957910509529
 20
-2.110448745920856
 10
-0.1131957910509529
 20
-2.203574510649986
 10
-0.092195791050953
 20
-2.203574510649986
 10
-0.0921957910509526
 20
-2.147875834219548
  0
LWPOLYLINE
  5
46D3
102
{ACAD_REACTORS
330
46D4
102
}
330
46CB
100
AcDbEntity
  8
A-ANNO-LOGO
100
AcDbPolyline
 90
        9
 70
     0
 43
0.0
 10
0.0231075124763676
 20
-2.131448745920855
 10
0.0514362523679806
 20
-2.131448745920855
 10
0.0514362523679806
 20
-2.110448745920856
 10
-0.0258767194879273
 20
-2.110448745920856
 10
-0.0258767194879273
 20
-2.131448745920855
 10
0.0024520204036858
 20
-2.131448745920855
 10
0.0024520204036858
 20
-2.203574510649986
 10
0.0231075124763676
 20
-2.203574510649986
 10
0.0231075124763676
 20
-2.131448745920855
  0
HATCH
  5
46D4
330
46CB
100
AcDbEntity
  8
A-ANNO-LOGO
100
AcDbHatch
 10
0.0
 20
0.0
 30
0.0
210
0.0
220
0.0
230
1.0
  2
SOLID
 70
     1
 71
     1
 91
        1
 92
        7
 72
     0
 73
     1
 93
        8
 10
-0.0258767194879273
 20
-2.110448745920856
 10
-0.0258767194879273
 20
-2.131448745920855
 10
0.0024520204036858
 20
-2.131448745920855
 10
0.0024520204036858
 20
-2.203574510649986
 10
0.0231075124763676
 20
-2.203574510649986
 10
0.0231075124763676
 20
-2.131448745920855
 10
0.0514362523679806
 20
-2.131448745920855
 10
0.0514362523679806
 20
-2.110448745920856
 97
        1
330
46D3
 75
     1
 76
     1
 47
0.0008634572683766
 98
        1
 10
0.0018984357547565
 20
-2.118070591994684
450
        0
451
        0
460
0.0
461
0.0
452
        0
462
0.0
453
        0
470

1001
GradientColor1ACI
1070
     5
1001
GradientColor2ACI
1070
     2
1001
ACAD
1010
0.0
1020
0.0
1030
0.0
  0
HATCH
  5
46D5
330
46CB
100
AcDbEntity
  8
A-ANNO-LOGO
100
AcDbHatch
 10
0.0
 20
0.0
 30
0.0
210
0.0
220
0.0
230
1.0
  2
SOLID
 70
     1
 71
     1
 91
        1
 92
        7
 72
     0
 73
     1
 93
       12
 10
0.0615810165903126
 20
-2.110448745920856
 10
0.0615810165903126
 20
-2.203574510649986
 10
0.1283163801865115
 20
-2.203574510649986
 10
0.1283163801865115
 20
-2.182574510649986
 10
0.0822365086629944
 20
-2.182574510649986
 10
0.0822365086629944
 20
-2.165985517277426
 10
0.1283163801865115
 20
-2.165985517277426
 10
0.1283163801865115
 20
-2.145330025204745
 10
0.0822365086629944
 20
-2.145330025204745
 10
0.0822365086629944
 20
-2.131104237993537
 10
0.1283163801865115
 20
-2.131104237993537
 10
0.1283163801865115
 20
-2.110448745920856
 97
        2
330
46D8
330
470E
 75
     1
 76
     1
 47
0.0008634572683766
 98
        1
 10
0.08662290956332
 20
-2.118934026271522
450
        0
451
        0
460
0.0
461
0.0
452
        0
462
0.0
453
        0
470

1001
GradientColor1ACI
1070
     5
1001
GradientColor2ACI
1070
     2
1001
ACAD
1010
0.0
1020
0.0
1030
0.0
  0
HATCH
  5
46D6
330
46CB
100
AcDbEntity
  8
A-ANNO-LOGO
100
AcDbHatch
 10
0.0
 20
0.0
 30
0.0
210
0.0
220
0.0
230
1.0
  2
SOLID
 70
     1
 71
     1
 91
        1
 92
        7
 72
     0
 73
     1
 93
        4
 10
0.4837963981920367
 20
-2.110448745920856
 10
0.4837963981920367
 20
-2.203574510649986
 10
0.5047963981920365
 20
-2.203574510649986
 10
0.5047963981920365
 20
-2.110448745920856
 97
        1
330
46D7
 75
     1
 76
     1
 47
0.0008634572683766
 98
        1
 10
0.4929547221281636
 20
-2.118070591994684
450
        0
451
        0
460
0.0
461
0.0
452
        0
462
0.0
453
        0
470

1001
GradientColor1ACI
1070
     5
1001
GradientColor2ACI
1070
     2
1001
ACAD
1010
0.0
1020
0.0
1030
0.0
  0
LWPOLYLINE
  5
46D7
102
{ACAD_REACTORS
330
46D6
102
}
330
46CB
100
AcDbEntity
  8
A-ANNO-LOGO
100
AcDbPolyline
 90
        4
 70
     1
 43
0.0
 10
0.4837963981920367
 20
-2.203574510649986
 10
0.4837963981920367
 20
-2.110448745920856
 10
0.5047963981920365
 20
-2.110448745920856
 10
0.5047963981920365
 20
-2.203574510649986
  0
LWPOLYLINE
  5
46D8
102
{ACAD_REACTORS
330
46D5
102
}
330
46CB
100
AcDbEntity
  8
A-ANNO-LOGO
100
AcDbPolyline
 90
        6
 70
     0
 43
0.0
 10
0.0822365086629944
 20
-2.131104237993537
 10
0.1283163801865115
 20
-2.131104237993537
 10
0.1283163801865115
 20
-2.110448745920856
 10
0.0615810165903126
 20
-2.110448745920856
 10
0.0615810165903126
 20
-2.203574510649986
 10
0.1283163801865115
 20
-2.203574510649986
  0
HATCH
  5
46D9
330
46CB
100
AcDbEntity
  8
A-ANNO-LOGO
100
AcDbHatch
 10
0.0
 20
0.0
 30
0.0
210
0.0
220
0.0
230
1.0
  2
SOLID
 70
     1
 71
     1
 91
        2
 92
        7
 72
     1
 73
     1
 93
       11
 10
0.1426836483469769
 20
-2.110448745920856
 42
0.0
 10
0.1426836483469769
 20
-2.203574510649986
 42
0.0
 10
0.1636836483469768
 20
-2.203574510649986
 42
0.0
 10
0.1636836483469772
 20
-2.168854511171726
 42
0.0
 10
0.1876549189685801
 20
-2.168854511171726
 42
-0.2118304314644434
 10
0.1976456629316239
 20
-2.190522363046302
 42
0.0
 10
0.1976456629316239
 20
-2.203574510649986
 42
0.0
 10
0.2186456629316238
 20
-2.203574510649986
 42
0.0
 10
0.2186456629316238
 20
-2.190522363046302
 42
0.183992667234255
 10
0.2074481865178486
 20
-2.161123352123079
 42
0.6829802986775917
 10
0.1876549189685798
 20
-2.110448745920856
 42
0.0
 97
        1
330
46DC
 92
       22
 72
     1
 73
     1
 93
        4
 10
0.1636836483469763
 20
-2.131104237993537
 42
0.0
 10
0.1850606842194516
 20
-2.131104237993539
 42
-1.0
 10
0.1876549189685797
 20
-2.150104237993538
 42
0.0
 10
0.1636836483469768
 20
-2.150104237993538
 42
0.0
 97
        1
330
470A
 75
     1
 76
     1
 47
0.0008634572683766
 98
        2
 10
0.1644311320473575
 20
-2.118934026271522
 10
0.1644311320473575
 20
-2.118934026271522
450
        0
451
        0
460
0.0
461
0.0
452
        0
462
0.0
453
        0
470

1001
GradientColor1ACI
1070
     5
1001
GradientColor2ACI
1070
     2
1001
ACAD
1010
0.0
1020
0.0
1030
0.0
  0
LWPOLYLINE
  5
46DA
102
{ACAD_REACTORS
330
46DB
102
}
330
46CB
100
AcDbEntity
  8
A-ANNO-LOGO
100
AcDbPolyline
 90
        6
 70
     1
 43
0.0
 10
0.8242753451653204
 20
-2.182574510649986
 10
0.8242753451653204
 20
-2.110448745920856
 10
0.8032753451653205
 20
-2.110448745920856
 10
0.8032753451653205
 20
-2.203574510649986
 10
0.8669032243553287
 20
-2.203574510649986
 10
0.8669032243553287
 20
-2.182574510649986
  0
HATCH
  5
46DB
330
46CB
100
AcDbEntity
  8
A-ANNO-LOGO
100
AcDbHatch
 10
0.0
 20
0.0
 30
0.0
210
0.0
220
0.0
230
1.0
  2
SOLID
 70
     1
 71
     1
 91
        1
 92
        7
 72
     0
 73
     1
 93
        6
 10
0.8032753451653205
 20
-2.203574510649986
 10
0.8669032243553287
 20
-2.203574510649986
 10
0.8669032243553287
 20
-2.182574510649986
 10
0.8242753451653204
 20
-2.182574510649986
 10
0.8242753451653204
 20
-2.110448745920856
 10
0.8032753451653205
 20
-2.110448745920856
 97
        1
330
46DA
 75
     1
 76
     1
 47
0.0008634572683766
 98
        1
 10
0.8136976192604119
 20
-2.126705163839344
450
        0
451
        0
460
0.0
461
0.0
452
        0
462
0.0
453
        0
470

1001
GradientColor1ACI
1070
     5
1001
GradientColor2ACI
1070
     2
1001
ACAD
1010
0.0
1020
0.0
1030
0.0
  0
LWPOLYLINE
  5
46DC
102
{ACAD_REACTORS
330
46D9
102
}
330
46CB
100
AcDbEntity
  8
A-ANNO-LOGO
100
AcDbPolyline
 90
       11
 70
     1
 43
0.0
 10
0.1876549189685792
 20
-2.110448745920856
 42
-0.6829802986775995
 10
0.2074481865178486
 20
-2.161123352123079
 42
-0.1839926672342562
 10
0.2186456629316238
 20
-2.190522363046302
 10
0.2186456629316238
 20
-2.203574510649986
 10
0.1976456629316239
 20
-2.203574510649986
 10
0.1976456629316239
 20
-2.190522363046302
 42
0.2118304314644454
 10
0.1876549189685801
 20
-2.168854511171726
 10
0.1636836483469772
 20
-2.168854511171726
 10
0.1636836483469768
 20
-2.203574510649986
 10
0.1426836483469769
 20
-2.203574510649986
 10
0.1426836483469769
 20
-2.110448745920856
  0
HATCH
  5
46DD
330
46CB
100
AcDbEntity
  8
A-ANNO-LOGO
100
AcDbHatch
 10
0.0
 20
0.0
 30
0.0
210
0.0
220
0.0
230
1.0
  2
SOLID
 70
     1
 71
     1
 91
        1
 92
        7
 72
     0
 73
     1
 93
        4
 10
-0.1275686307964938
 20
-2.110448745920856
 10
-0.1485686307964942
 20
-2.110448745920856
 10
-0.1485686307964942
 20
-2.203574510649986
 10
-0.1275686307964938
 20
-2.203574510649986
 97
        1
330
46E1
 75
     1
 76
     1
 47
0.0022136608298671
 98
        1
 10
-0.1357668739440188
 20
-2.139138553284464
450
        0
451
        0
460
0.0
461
0.0
452
        0
462
0.0
453
        0
470

1001
GradientColor1ACI
1070
     5
1001
GradientColor2ACI
1070
     2
1001
ACAD
1010
0.0
1020
0.0
1030
0.0
  0
LINE
  5
46DE
330
46CB
100
AcDbEntity
  8
A-ANNO-LOGO
100
AcDbLine
 10
0.3106777210013289
 20
-1.975676822882286
 30
0.0
 11
0.3106777210013289
 21
-1.910753149460654
 31
0.0
  0
HATCH
  5
46DF
330
46CB
100
AcDbEntity
  8
A-ANNO-LOGO
100
AcDbHatch
 10
0.0
 20
0.0
 30
0.0
210
0.0
220
0.0
230
1.0
  2
SOLID
 70
     1
 71
     1
 91
        2
 92
        5
 93
        1
 72
     3
 10
0.7206920257911973
 20
-1.94321498617147
 11
-0.1414815393865219
 21
0.0
 40
0.9614367438642062
 50
0.0
 51
360.0
 73
     1
 97
        1
330
46E9
 92
       22
 72
     1
 73
     1
 93
        2
 10
0.7727838746890284
 20
-1.94321498617147
 42
-1.0
 10
0.6686001768933663
 20
-1.94321498617147
 42
-1.0
 97
        1
330
46E0
 75
     1
 76
     1
 47
0.0021181088382083
 98
        2
 10
0.6887104514913487
 20
-1.849542073745245
 10
0.6887104514913487
 20
-1.849542073745245
450
        0
451
        0
460
0.0
461
0.0
452
        0
462
0.0
453
        0
470

1001
GradientColor1ACI
1070
     5
1001
GradientColor2ACI
1070
     2
1001
ACAD
1010
0.0
1020
0.0
1030
0.0
  0
CIRCLE
  5
46E0
102
{ACAD_REACTORS
330
46DF
102
}
330
46CB
100
AcDbEntity
  8
A-ANNO-LOGO
100
AcDbCircle
 10
0.7206920257911973
 20
-1.94321498617147
 30
0.0
 40
0.052091848897831
  0
LWPOLYLINE
  5
46E1
102
{ACAD_REACTORS
330
46DD
102
}
330
46CB
100
AcDbEntity
  8
A-ANNO-LOGO
100
AcDbPolyline
 90
        4
 70
     1
 43
0.0
 10
-0.1275686307964938
 20
-2.110448745920856
 10
-0.1485686307964942
 20
-2.110448745920856
 10
-0.1485686307964942
 20
-2.203574510649986
 10
-0.1275686307964938
 20
-2.203574510649986
  0
HATCH
  5
46E2
330
46CB
100
AcDbEntity
  8
A-ANNO-LOGO
100
AcDbHatch
 10
0.0
 20
0.0
 30
0.0
210
0.0
220
0.0
230
1.0
  2
SOLID
 70
     1
 71
     1
 91
        1
 92
        7
 72
     0
 73
     1
 93
        8
 10
0.3948533180579763
 20
-2.110448745920856
 10
0.3948533180579763
 20
-2.131448745920855
 10
0.4231820579495893
 20
-2.131448745920855
 10
0.4231820579495893
 20
-2.203574510649986
 10
0.4438375500222711
 20
-2.203574510649986
 10
0.4438375500222711
 20
-2.131448745920855
 10
0.4721662899138841
 20
-2.131448745920855
 10
0.4721662899138841
 20
-2.110448745920856
 97
        1
330
46E3
 75
     1
 76
     1
 47
0.0008634572683766
 98
        1
 10
0.4393535947798199
 20
-2.119797506363615
450
        0
451
        0
460
0.0
461
0.0
452
        0
462
0.0
453
        0
470

1001
GradientColor1ACI
1070
     5
1001
GradientColor2ACI
1070
     2
1001
ACAD
1010
0.0
1020
0.0
1030
0.0
  0
LWPOLYLINE
  5
46E3
102
{ACAD_REACTORS
330
46E2
102
}
330
46CB
100
AcDbEntity
  8
A-ANNO-LOGO
100
AcDbPolyline
 90
        9
 70
     0
 43
0.0
 10
0.4438375500222711
 20
-2.131448745920855
 10
0.4721662899138841
 20
-2.131448745920855
 10
0.4721662899138841
 20
-2.110448745920856
 10
0.3948533180579763
 20
-2.110448745920856
 10
0.3948533180579763
 20
-2.131448745920855
 10
0.4231820579495893
 20
-2.131448745920855
 10
0.4231820579495893
 20
-2.203574510649986
 10
0.4438375500222711
 20
-2.203574510649986
 10
0.4438375500222711
 20
-2.131448745920855
  0
HATCH
  5
46E4
330
46CB
100
AcDbEntity
  8
A-ANNO-LOGO
100
AcDbHatch
 10
0.0
 20
0.0
 30
0.0
210
0.0
220
0.0
230
1.0
  2
SOLID
 70
     1
 71
     1
 91
        1
 92
        7
 72
     0
 73
     1
 93
       10
 10
0.2515263538011276
 20
-2.147875834219548
 10
0.2862674531646299
 20
-2.203574510649986
 10
0.3072674531646298
 20
-2.203574510649986
 10
0.3072674531646298
 20
-2.110448745920856
 10
0.2862674531646299
 20
-2.110448745920856
 10
0.2862674531646299
 20
-2.163914166483698
 10
0.2529193090555886
 20
-2.110448745920856
 10
0.2305263538011273
 20
-2.110448745920856
 10
0.2305263538011273
 20
-2.203574510649986
 10
0.2515263538011272
 20
-2.203574510649986
 97
        1
330
46E5
 75
     1
 76
     1
 47
0.0008634572683766
 98
        1
 10
0.2491556058559494
 20
-2.135339735684004
450
        0
451
        0
460
0.0
461
0.0
452
        0
462
0.0
453
        0
470

1001
GradientColor1ACI
1070
     5
1001
GradientColor2ACI
1070
     2
1001
ACAD
1010
0.0
1020
0.0
1030
0.0
  0
LWPOLYLINE
  5
46E5
102
{ACAD_REACTORS
330
46E4
102
}
330
46CB
100
AcDbEntity
  8
A-ANNO-LOGO
100
AcDbPolyline
 90
       10
 70
     1
 43
0.0
 10
0.2862674531646299
 20
-2.203574510649986
 10
0.3072674531646298
 20
-2.203574510649986
 10
0.3072674531646298
 20
-2.110448745920856
 10
0.2862674531646299
 20
-2.110448745920856
 10
0.2862674531646299
 20
-2.163914166483698
 10
0.2529193090555886
 20
-2.110448745920856
 10
0.2305263538011273
 20
-2.110448745920856
 10
0.2305263538011273
 20
-2.203574510649986
 10
0.2515263538011272
 20
-2.203574510649986
 10
0.2515263538011276
 20
-2.147875834219548
  0
CIRCLE
  5
46E6
102
{ACAD_REACTORS
330
46CF
102
}
330
46CB
100
AcDbEntity
  8
A-ANNO-LOGO
100
AcDbCircle
 10
0.5632337409845248
 20
-2.157011628285421
 30
0.0
 40
0.0255628823645652
  0
HATCH
  5
46E7
330
46CB
100
AcDbEntity
  8
A-ANNO-LOGO
100
AcDbHatch
 10
0.0
 20
0.0
 30
0.0
210
0.0
220
0.0
230
1.0
  2
SOLID
 70
     1
 71
     1
 91
        1
 92
        7
 72
     0
 73
     1
 93
       10
 10
0.619545684268469
 20
-2.203574510649986
 10
0.640545684268469
 20
-2.203574510649986
 10
0.6405456842684694
 20
-2.147875834219548
 10
0.6752867836319716
 20
-2.203574510649986
 10
0.6962867836319715
 20
-2.203574510649986
 10
0.6962867836319715
 20
-2.110448745920856
 10
0.6752867836319716
 20
-2.110448745920856
 10
0.6752867836319716
 20
-2.163914166483698
 10
0.6419386395229303
 20
-2.110448745920856
 10
0.619545684268469
 20
-2.110448745920856
 97
        1
330
46E8
 75
     1
 76
     1
 47
0.0008634572683766
 98
        1
 10
0.6269578278320891
 20
-2.128432078208274
450
        0
451
        0
460
0.0
461
0.0
452
        0
462
0.0
453
        0
470

1001
GradientColor1ACI
1070
     5
1001
GradientColor2ACI
1070
     2
1001
ACAD
1010
0.0
1020
0.0
1030
0.0
  0
LWPOLYLINE
  5
46E8
102
{ACAD_REACTORS
330
46E7
102
}
330
46CB
100
AcDbEntity
  8
A-ANNO-LOGO
100
AcDbPolyline
 90
       10
 70
     1
 43
0.0
 10
0.640545684268469
 20
-2.203574510649986
 10
0.6405456842684694
 20
-2.147875834219548
 10
0.6752867836319716
 20
-2.203574510649986
 10
0.6962867836319715
 20
-2.203574510649986
 10
0.6962867836319715
 20
-2.110448745920856
 10
0.6752867836319716
 20
-2.110448745920856
 10
0.6752867836319716
 20
-2.163914166483698
 10
0.6419386395229303
 20
-2.110448745920856
 10
0.619545684268469
 20
-2.110448745920856
 10
0.619545684268469
 20
-2.203574510649986
  0
ELLIPSE
  5
46E9
102
{ACAD_REACTORS
330
46DF
102
}
330
46CB
100
AcDbEntity
  8
A-ANNO-LOGO
100
AcDbEllipse
 10
0.7206920257911973
 20
-1.94321498617147
 30
0.0
 11
-0.1414815393865219
 21
0.0
 31
0.0
210
0.0
220
0.0
230
1.0
 40
0.9614367438642062
 41
0.0
 42
6.283185307179585
  0
HATCH
  5
46EA
330
46CB
100
AcDbEntity
  8
A-ANNO-LOGO
100
AcDbHatch
 10
0.0
 20
0.0
 30
0.0
210
0.0
220
0.0
230
1.0
  2
SOLID
 70
     1
 71
     0
 91
        7
 92
        7
 72
     1
 73
     1
 93
       26
 10
-0.0714174291592453
 20
-1.768459266301243
 42
0.0
 10
-0.0577735622328719
 20
-1.768459266301243
 42
-0.0895717096735409
 10
0.0520200545389926
 20
-1.633019047972954
 42
0.0
 10
0.1360290566603552
 20
-1.633019047972954
 42
0.0819330152891599
 10
0.035731123069263
 20
-1.768459266301244
 42
0.0
 10
0.049259827150165
 20
-1.768459266301244
 42
-0.0851019684147975
 10
0.1534925664962512
 20
-1.633019047972954
 42
0.0
 10
0.2365277072049801
 20
-1.633019047972955
 42
0.0637112230171931
 10
0.1587437249633741
 20
-1.768459266301244
 42
0.0
 10
0.1717621987794171
 20
-1.768459266301244
 42
-0.0654378434854366
 10
0.2516720753386727
 20
-1.633019047972954
 42
0.0
 10
0.3661120947463021
 20
-1.633019047972955
 42
0.0
 10
0.3661120947463021
 20
-1.768459266301243
 42
0.0
 10
0.3781120947463017
 20
-1.768459266301243
 42
0.0
 10
0.3781120947463017
 20
-1.633019047972955
 42
0.0
 10
0.4925521141539293
 20
-1.633019047972954
 42
-0.0654378434854368
 10
0.5724619907131867
 20
-1.768459266301243
 42
0.0
 10
0.5854804645292281
 20
-1.768459266301243
 42
0.0637112230171933
 10
0.5076964822876234
 20
-1.633019047972954
 42
0.0
 10
0.5907316229963519
 20
-1.633019047972954
 42
-0.0851019684147977
 10
0.6949643623424389
 20
-1.768459266301243
 42
0.0
 10
0.7084930664233422
 20
-1.768459266301244
 42
0.0819330152891599
 10
0.6081951328322499
 20
-1.633019047972954
 42
0.0
 10
0.6922041349536108
 20
-1.633019047972954
 42
-0.0895717096735411
 10
0.8019977517254757
 20
-1.768459266301243
 42
0.0
 10
0.8156416186518487
 20
-1.768459266301244
 42
0.6003429994360621
 97
        0
 92
       22
 72
     1
 73
     1
 93
        3
 10
0.3661120947463026
 20
-1.521145668494741
 42
0.0
 10
0.3661120947463012
 20
-1.621019047972954
 42
0.0
 10
0.2613062947073104
 20
-1.621019047972954
 42
-0.0602033015766125
 97
        0
 92
       22
 72
     1
 73
     1
 93
        3
 10
0.3781120947463017
 20
-1.521145668494741
 42
-0.0602033015766119
 10
0.4829178947852923
 20
-1.621019047972954
 42
0.0
 10
0.3781120947463017
 20
-1.621019047972954
 42
0.0
 97
        0
 92
       22
 72
     1
 73
     1
 93
        3
 10
0.3450572339208557
 20
-1.522194264624965
 42
0.0570724262882732
 10
0.2458585471053274
 20
-1.621019047972954
 42
0.0
 10
0.166976451599786
 20
-1.621019047972954
 42
-0.1017271122417996
 97
        0
 92
       22
 72
     1
 73
     1
 93
        3
 10
0.3991669555717498
 20
-1.522194264624965
 42
-0.1017271122417986
 10
0.5772477378928187
 20
-1.621019047972954
 42
0.0
 10
0.4983656423872751
 20
-1.621019047972954
 42
0.0570724262882723
 97
        0
 92
       22
 72
     1
 73
     1
 93
        3
 10
0.3240386952253575
 20
-1.516550765143905
 42
0.0994813346018977
 10
0.1488347219033872
 20
-1.621019047972954
 42
0.0
 10
0.066507669487093
 20
-1.621019047972954
 42
-0.1446004228248279
 97
        0
 92
       22
 72
     1
 73
     1
 93
        3
 10
0.4162338096299277
 20
-1.515173691467643
 42
-0.1473645445980726
 10
0.679319074017553
 20
-1.621019047972954
 42
0.0
 10
0.5953894675892181
 20
-1.621019047972954
 42
0.1015226081398143
 97
        0
 75
     1
 76
     1
 47
0.0021181088382083
 98
        7
 10
0.3621726204477254
 20
-1.514123055583032
 10
0.3621726204477254
 20
-1.514123055583032
 10
0.3621726204477254
 20
-1.514123055583032
 10
0.3621726204477254
 20
-1.514123055583032
 10
0.3621726204477254
 20
-1.514123055583032
 10
0.3621726204477254
 20
-1.514123055583032
 10
0.3621726204477254
 20
-1.514123055583032
450
        0
451
        0
460
0.0
461
0.0
452
        0
462
0.0
453
        0
470

1001
GradientColor1ACI
1070
     5
1001
GradientColor2ACI
1070
     2
1001
ACAD
1010
0.0
1020
0.0
1030
0.0
  0
LWPOLYLINE
  5
46EB
330
46CB
100
AcDbEntity
  8
A-ANNO-LOGO
100
AcDbPolyline
 90
       10
 70
     0
 43
0.0
 10
0.0357311230692625
 20
-1.768459266301244
 10
0.049259827150165
 20
-1.768459266301244
 42
-0.0851019684147975
 10
0.1534925664962512
 20
-1.633019047972954
 10
0.2365277072049801
 20
-1.633019047972955
 42
0.0637112230171932
 10
0.1587437249633741
 20
-1.768459266301244
 10
0.1717621987794171
 20
-1.768459266301244
 42
-0.0654378434854365
 10
0.2516720753386727
 20
-1.633019047972954
 10
0.3661120947463021
 20
-1.633019047972955
 10
0.3661120947463021
 20
-1.768459266301243
 10
0.3781120947463017
 20
-1.768459266301243
  0
LWPOLYLINE
  5
46EC
330
46CB
100
AcDbEntity
  8
A-ANNO-LOGO
100
AcDbPolyline
 90
        6
 70
     0
 43
0.0
 10
0.8156416186518487
 20
-1.768459266301244
 42
0.6003429994360621
 10
-0.0714174291592453
 20
-1.768459266301243
 10
-0.0577735622328719
 20
-1.768459266301243
 42
-0.0895717096735409
 10
0.0520200545389926
 20
-1.633019047972954
 10
0.1360290566603552
 20
-1.633019047972954
 42
0.0819330152891599
 10
0.035731123069263
 20
-1.768459266301244
  0
LWPOLYLINE
  5
46ED
330
46CB
100
AcDbEntity
  8
A-ANNO-LOGO
100
AcDbPolyline
 90
        3
 70
     1
 43
0.0
 10
0.066507669487093
 20
-1.621019047972954
 10
0.1488347219033872
 20
-1.621019047972954
 42
-0.0994813346018974
 10
0.3240386952253571
 20
-1.516550765143905
 42
0.1446004228248277
  0
LWPOLYLINE
  5
46EE
330
46CB
100
AcDbEntity
  8
A-ANNO-LOGO
100
AcDbPolyline
 90
        3
 70
     1
 43
0.0
 10
0.3450572339208553
 20
-1.522194264624965
 42
0.1017271122417993
 10
0.166976451599786
 20
-1.621019047972954
 10
0.2458585471053274
 20
-1.621019047972954
 42
-0.057072426288273
  0
LWPOLYLINE
  5
46EF
330
46CB
100
AcDbEntity
  8
A-ANNO-LOGO
100
AcDbPolyline
 90
        3
 70
     1
 43
0.0
 10
0.3661120947463026
 20
-1.521145668494741
 42
0.0602033015766125
 10
0.2613062947073104
 20
-1.621019047972954
 10
0.3661120947463012
 20
-1.621019047972954
  0
LWPOLYLINE
  5
46F0
330
46CB
100
AcDbEntity
  8
A-ANNO-LOGO
100
AcDbPolyline
 90
        7
 70
     0
 43
0.0
 10
0.3781120947463017
 20
-1.768459266301243
 10
0.3781120947463017
 20
-1.633019047972955
 10
0.4925521141539293
 20
-1.633019047972954
 42
-0.0654378434854368
 10
0.5724619907131867
 20
-1.768459266301243
 10
0.5854804645292281
 20
-1.768459266301243
 42
0.0637112230171933
 10
0.5076964822876234
 20
-1.633019047972954
 10
0.5911221907122198
 20
-1.633019047972954
  0
LWPOLYLINE
  5
46F1
330
46CB
100
AcDbEntity
  8
A-ANNO-LOGO
100
AcDbPolyline
 90
        3
 70
     1
 43
0.0
 10
0.5772477378928187
 20
-1.621019047972954
 10
0.4983656423872751
 20
-1.621019047972954
 42
0.0570724262882728
 10
0.3991669555717485
 20
-1.522194264624965
 42
-0.1017271122417995
  0
LWPOLYLINE
  5
46F2
330
46CB
100
AcDbEntity
  8
A-ANNO-LOGO
100
AcDbPolyline
 90
        3
 70
     1
 43
0.0
 10
0.4829178947852923
 20
-1.621019047972954
 42
0.0602033015766117
 10
0.3781120947463021
 20
-1.521145668494741
 10
0.3781120947463017
 20
-1.621019047972954
  0
LWPOLYLINE
  5
46F3
330
46CB
100
AcDbEntity
  8
A-ANNO-LOGO
100
AcDbPolyline
 90
        7
 70
     0
 43
0.0
 10
0.5904447248810092
 20
-1.632754602218092
 42
-0.085296262402735
 10
0.6949643623424389
 20
-1.768459266301243
 10
0.7084930664233422
 20
-1.768459266301244
 42
0.0819330152891599
 10
0.6081951328322499
 20
-1.633019047972954
 10
0.6922041349536108
 20
-1.633019047972954
 42
-0.0895717096735411
 10
0.8019977517254757
 20
-1.768459266301243
 10
0.8156416186518491
 20
-1.768459266301244
  0
LWPOLYLINE
  5
46F4
330
46CB
100
AcDbEntity
  8
A-ANNO-LOGO
100
AcDbPolyline
 90
        3
 70
     1
 43
0.0
 10
0.41623380962993
 20
-1.515173691467643
 42
-0.1015226081398132
 10
0.5953894675892181
 20
-1.621019047972954
 10
0.679319074017553
 20
-1.621019047972954
 42
0.1473645445980714
  0
HATCH
  5
46F5
330
46CB
100
AcDbEntity
  8
A-ANNO-LOGO
100
AcDbHatch
 10
0.0
 20
0.0
 30
0.0
210
0.0
220
0.0
230
1.0
  2
SOLID
 70
     1
 71
     0
 91
        7
 92
        7
 72
     1
 73
     1
 93
       26
 10
0.3781120947463017
 20
-2.249982951816855
 42
0.0
 10
0.3661120947463021
 20
-2.249982951816855
 42
0.0
 10
0.3661120947463021
 20
-2.385423170145143
 42
0.0
 10
0.2516720753386727
 20
-2.385423170145144
 42
-0.0654378434854364
 10
0.1717621987794167
 20
-2.249982951816853
 42
0.0
 10
0.1587437249633741
 20
-2.249982951816853
 42
0.0637112230171933
 10
0.2365277072049801
 20
-2.385423170145143
 42
0.0
 10
0.1534925664962512
 20
-2.385423170145144
 42
-0.0851019684147975
 10
0.049259827150165
 20
-2.249982951816853
 42
0.0
 10
0.0357311230692625
 20
-2.249982951816853
 42
0.0819330152891599
 10
0.1360290566603552
 20
-2.385423170145144
 42
0.0
 10
0.0520200545389926
 20
-2.385423170145144
 42
-0.089571709673541
 10
-0.0577735622328719
 20
-2.249982951816853
 42
0.0
 10
-0.0714174291592453
 20
-2.249982951816855
 42
0.6003429994360622
 10
0.8156416186518487
 20
-2.249982951816853
 42
0.0
 10
0.8019977517254757
 20
-2.249982951816853
 42
-0.089571709673541
 10
0.6922041349536108
 20
-2.385423170145144
 42
0.0
 10
0.6081951328322499
 20
-2.385423170145144
 42
0.0819330152891597
 10
0.7084930664233422
 20
-2.249982951816853
 42
0.0
 10
0.6949643623424389
 20
-2.249982951816855
 42
-0.085101968414798
 10
0.5907316229963509
 20
-2.385423170145144
 42
0.0
 10
0.5076964822876234
 20
-2.385423170145143
 42
0.0637112230171933
 10
0.5854804645292281
 20
-2.249982951816855
 42
0.0
 10
0.5724619907131867
 20
-2.249982951816855
 42
-0.0654378434854369
 10
0.4925521141539293
 20
-2.385423170145144
 42
0.0
 10
0.3781120947463017
 20
-2.385423170145143
 42
0.0
 97
        0
 92
       22
 72
     1
 73
     1
 93
        3
 10
0.3781120947463017
 20
-2.397423170145144
 42
0.0
 10
0.4829178947852923
 20
-2.397423170145144
 42
-0.0602033015766116
 10
0.3781120947463021
 20
-2.497296549623354
 42
0.0
 97
        0
 92
       22
 72
     1
 73
     1
 93
        3
 10
0.3661120947463012
 20
-2.397423170145143
 42
0.0
 10
0.3661120947463021
 20
-2.497296549623354
 42
-0.0602033015766124
 10
0.2613062947073104
 20
-2.397423170145143
 42
0.0
 97
        0
 92
       22
 72
     1
 73
     1
 93
        3
 10
0.4983656423872751
 20
-2.397423170145143
 42
0.0
 10
0.5772477378928193
 20
-2.397423170145143
 42
-0.1017271122417997
 10
0.3991669555717481
 20
-2.496247953493131
 42
0.0570724262882729
 97
        0
 92
       22
 72
     1
 73
     1
 93
        3
 10
0.3450572339208557
 20
-2.496247953493131
 42
-0.1017271122417996
 10
0.166976451599786
 20
-2.397423170145143
 42
0.0
 10
0.2458585471053274
 20
-2.397423170145143
 42
0.0570724262882732
 97
        0
 92
       22
 72
     1
 73
     1
 93
        3
 10
0.4162338096299294
 20
-2.503268526650453
 42
0.1015226081398132
 10
0.5953894675892181
 20
-2.397423170145144
 42
0.0
 10
0.679319074017553
 20
-2.397423170145143
 42
-0.1473645445980713
 97
        0
 92
       22
 72
     1
 73
     1
 93
        3
 10
0.3240386952253571
 20
-2.501891452974192
 42
-0.1446004228248276
 10
0.066507669487093
 20
-2.397423170145144
 42
0.0
 10
0.1488347219033872
 20
-2.397423170145143
 42
0.0994813346018974
 97
        0
 75
     1
 76
     1
 47
0.0021181088382083
 98
        7
 10
0.3727181761273952
 20
-2.385423628272304
 10
0.3727181761273952
 20
-2.385423628272304
 10
0.3727181761273952
 20
-2.385423628272304
 10
0.3727181761273952
 20
-2.385423628272304
 10
0.3727181761273952
 20
-2.385423628272304
 10
0.3727181761273952
 20
-2.385423628272304
 10
0.3727181761273952
 20
-2.385423628272304
450
        0
451
        0
460
0.0
461
0.0
452
        0
462
0.0
453
        0
470

1001
GradientColor1ACI
1070
     5
1001
GradientColor2ACI
1070
     2
1001
ACAD
1010
0.0
1020
0.0
1030
0.0
  0
LWPOLYLINE
  5
46F6
330
46CB
100
AcDbEntity
  8
A-ANNO-LOGO
100
AcDbPolyline
 90
        3
 70
     1
 43
0.0
 10
0.066507669487093
 20
-2.397423170145144
 10
0.1488347219033872
 20
-2.397423170145143
 42
0.0994813346018974
 10
0.3240386952253571
 20
-2.501891452974192
 42
-0.1446004228248277
  0
LWPOLYLINE
  5
46F7
330
46CB
100
AcDbEntity
  8
A-ANNO-LOGO
100
AcDbPolyline
 90
        3
 70
     1
 43
0.0
 10
0.3450572339208557
 20
-2.496247953493131
 42
-0.1017271122417995
 10
0.166976451599786
 20
-2.397423170145143
 10
0.2458585471053274
 20
-2.397423170145143
 42
0.0570724262882731
  0
LWPOLYLINE
  5
46F8
330
46CB
100
AcDbEntity
  8
A-ANNO-LOGO
100
AcDbPolyline
 90
        3
 70
     1
 43
0.0
 10
0.3661120947463021
 20
-2.497296549623354
 42
-0.0602033015766124
 10
0.2613062947073104
 20
-2.397423170145143
 10
0.3661120947463012
 20
-2.397423170145143
  0
LWPOLYLINE
  5
46F9
330
46CB
100
AcDbEntity
  8
A-ANNO-LOGO
100
AcDbPolyline
 90
        3
 70
     1
 43
0.0
 10
0.3991669555717485
 20
-2.496247953493131
 42
0.0570724262882728
 10
0.4983656423872751
 20
-2.397423170145143
 10
0.5772477378928187
 20
-2.397423170145143
 42
-0.1017271122417995
  0
LWPOLYLINE
  5
46FA
330
46CB
100
AcDbEntity
  8
A-ANNO-LOGO
100
AcDbPolyline
 90
        3
 70
     1
 43
0.0
 10
0.3781120947463017
 20
-2.397423170145144
 10
0.3781120947463021
 20
-2.497296549623354
 42
0.0602033015766117
 10
0.4829178947852923
 20
-2.397423170145144
  0
LWPOLYLINE
  5
46FB
330
46CB
100
AcDbEntity
  8
A-ANNO-LOGO
100
AcDbPolyline
 90
       27
 70
     0
 43
0.0
 10
0.5904447248810089
 20
-2.385687615900004
 42
0.0852962624027352
 10
0.6949643623424389
 20
-2.249982951816855
 10
0.7084930664233422
 20
-2.249982951816853
 42
-0.0819330152891598
 10
0.6081951328322499
 20
-2.385423170145144
 10
0.6922041349536108
 20
-2.385423170145144
 42
0.089571709673541
 10
0.8019977517254757
 20
-2.249982951816853
 10
0.8156416186518487
 20
-2.249982951816853
 42
-0.6003429994360621
 10
-0.0714174291592453
 20
-2.249982951816855
 10
-0.0577735622328719
 20
-2.249982951816853
 42
0.089571709673541
 10
0.0520200545389926
 20
-2.385423170145144
 10
0.1360290566603552
 20
-2.385423170145144
 42
-0.0819330152891599
 10
0.0357311230692625
 20
-2.249982951816853
 10
0.049259827150165
 20
-2.249982951816853
 42
0.0851019684147975
 10
0.1534925664962512
 20
-2.385423170145144
 10
0.2365277072049801
 20
-2.385423170145143
 42
-0.0637112230171933
 10
0.1587437249633741
 20
-2.249982951816853
 10
0.1717621987794167
 20
-2.249982951816853
 42
0.0654378434854364
 10
0.2516720753386727
 20
-2.385423170145144
 10
0.3661120947463021
 20
-2.385423170145143
 10
0.3661120947463021
 20
-2.249982951816855
 10
0.3781120947463017
 20
-2.249982951816855
 10
0.3781120947463017
 20
-2.385423170145143
 10
0.4925521141539293
 20
-2.385423170145144
 42
0.0654378434854369
 10
0.5724619907131867
 20
-2.249982951816855
 10
0.5854804645292281
 20
-2.249982951816855
 42
-0.0637112230171933
 10
0.5076964822876234
 20
-2.385423170145143
 10
0.5911221907122198
 20
-2.385423170145144
  0
LWPOLYLINE
  5
46FC
330
46CB
100
AcDbEntity
  8
A-ANNO-LOGO
100
AcDbPolyline
 90
        3
 70
     1
 43
0.0
 10
0.4162338096299294
 20
-2.503268526650453
 42
0.1015226081398132
 10
0.5953894675892181
 20
-2.397423170145144
 10
0.679319074017553
 20
-2.397423170145143
 42
-0.1473645445980714
  0
HATCH
  5
46FD
330
46CB
100
AcDbEntity
  8
A-ANNO-LOGO
100
AcDbHatch
 10
0.0
 20
0.0
 30
0.0
210
0.0
220
0.0
230
1.0
  2
SOLID
 70
     1
 71
     1
 91
        1
 92
        7
 72
     0
 73
     1
 93
       12
 10
0.2325800557498021
 20
-1.876584177689036
 10
0.3152202890712301
 20
-1.876584177689035
 10
0.3152202890712301
 20
-1.807189435626796
 10
0.1360310504063689
 20
-1.807189435626796
 10
0.1360310504063689
 20
-2.079240536716143
 10
0.3152202890712301
 20
-2.079240536716143
 10
0.3152202890712301
 20
-2.009845794653904
 10
0.2325800557498026
 20
-2.009845794653904
 10
0.2325800557498021
 20
-1.978412357202589
 10
0.3106777210013289
 20
-1.978412357202589
 10
0.3106777210013294
 20
-1.90801761514035
 10
0.2325800557498026
 20
-1.90801761514035
 97
        2
330
46FF
330
46FE
 75
     1
 76
     1
 47
0.0021181088382083
 98
        1
 10
0.2009369457574364
 20
-1.862250767051639
450
        0
451
        0
460
0.0
461
0.0
452
        0
462
0.0
453
        0
470

1001
GradientColor1ACI
1070
     5
1001
GradientColor2ACI
1070
     2
1001
ACAD
1010
0.0
1020
0.0
1030
0.0
  0
LWPOLYLINE
  5
46FE
102
{ACAD_REACTORS
330
46FD
102
}
330
46CB
100
AcDbEntity
  8
A-ANNO-LOGO
100
AcDbPolyline
 90
        7
 70
     0
 43
0.0
 10
0.2325800557498021
 20
-1.978412357202589
 10
0.3106777210013289
 20
-1.978412357202589
 10
0.3106777210013294
 20
-1.90801761514035
 10
0.2325800557498026
 20
-1.90801761514035
 10
0.2325800557498021
 20
-1.876584177689036
 10
0.3152202890712301
 20
-1.876584177689035
 10
0.3152202890712301
 20
-1.807189435626796
  0
LWPOLYLINE
  5
46FF
102
{ACAD_REACTORS
330
46FD
102
}
330
46CB
100
AcDbEntity
  8
A-ANNO-LOGO
100
AcDbPolyline
 90
        7
 70
     0
 43
0.0
 10
0.3152202890712301
 20
-1.807189435626796
 10
0.1360310504063689
 20
-1.807189435626796
 10
0.1360310504063689
 20
-2.079240536716143
 10
0.3152202890712301
 20
-2.079240536716143
 10
0.3152202890712301
 20
-2.009845794653904
 10
0.2325800557498026
 20
-2.009845794653904
 10
0.2325800557498021
 20
-1.978412357202589
  0
HATCH
  5
4700
330
46CB
100
AcDbEntity
  8
A-ANNO-LOGO
100
AcDbHatch
 10
0.0
 20
0.0
 30
0.0
210
0.0
220
0.0
230
1.0
  2
SOLID
 70
     1
 71
     1
 91
        1
 92
        7
 72
     0
 73
     1
 93
        8
 10
0.1209910798968132
 20
-1.807189435626796
 10
-0.1278178412869879
 20
-1.807189435626796
 10
-0.1278178412869879
 20
-1.891328970533813
 10
-0.032383150408724
 20
-1.891328970533813
 10
-0.1530799484922881
 20
-2.079240536716143
 10
0.1079620169371891
 20
-2.079240536716143
 10
0.1079620169371891
 20
-1.997905695240941
 10
-0.0015071906756647
 20
-1.997905695240941
 97
        1
330
4701
 75
     1
 76
     1
 47
0.0021181088382083
 98
        1
 10
0.0397595996859392
 20
-1.860132636228824
450
        0
451
        0
460
0.0
461
0.0
452
        0
462
0.0
453
        0
470

1001
GradientColor1ACI
1070
     5
1001
GradientColor2ACI
1070
     2
1001
ACAD
1010
0.0
1020
0.0
1030
0.0
  0
LWPOLYLINE
  5
4701
102
{ACAD_REACTORS
330
4700
102
}
330
46CB
100
AcDbEntity
  8
A-ANNO-LOGO
100
AcDbPolyline
 90
        8
 70
     1
 43
0.0
 10
-0.1278178412869879
 20
-1.807189435626796
 10
-0.1278178412869879
 20
-1.891328970533813
 10
-0.032383150408724
 20
-1.891328970533813
 10
-0.1530799484922882
 20
-2.079240536716143
 10
0.1079620169371891
 20
-2.079240536716143
 10
0.1079620169371891
 20
-1.997905695240941
 10
-0.0015071906756647
 20
-1.997905695240941
 10
0.1209910798968132
 20
-1.807189435626796
  0
HATCH
  5
4702
330
46CB
100
AcDbEntity
  8
A-ANNO-LOGO
100
AcDbHatch
 10
0.0
 20
0.0
 30
0.0
210
0.0
220
0.0
230
1.0
  2
SOLID
 70
     1
 71
     1
 91
        2
 92
        7
 72
     1
 73
     1
 93
        8
 10
0.3391543585814203
 20
-1.807189435626796
 42
0.0
 10
0.3391543585814203
 20
-2.079240536716143
 42
0.0
 10
0.4250355427444134
 20
-2.079240536716143
 42
0.0
 10
0.4250355427444134
 20
-1.988681645858792
 42
0.0
 10
0.4822401744963658
 20
-2.079240536716143
 42
0.0
 10
0.5799032434378142
 20
-2.079240536716143
 42
0.0
 10
0.5148774158326286
 20
-1.976300151564446
 42
0.782139668254454
 10
0.4729037677033889
 20
-1.807189435626791
 42
0.0
 97
        3
330
4704
330
4703
330
4705
 92
       22
 72
     1
 73
     1
 93
        4
 10
0.4250355427444134
 20
-1.878280241719897
 42
0.0
 10
0.444042008023323
 20
-1.878280241719897
 42
-1.0
 10
0.444042008023323
 20
-1.929408989155545
 42
0.0
 10
0.4250355427444134
 20
-1.929408989155545
 42
0.0
 97
        1
330
4706
 75
     1
 76
     1
 47
0.0021181088382083
 98
        2
 10
0.3727181761273952
 20
-1.830479125416158
 10
0.3727181761273952
 20
-1.830479125416158
450
        0
451
        0
460
0.0
461
0.0
452
        0
462
0.0
453
        0
470

1001
GradientColor1ACI
1070
     5
1001
GradientColor2ACI
1070
     2
1001
ACAD
1010
0.0
1020
0.0
1030
0.0
  0
LWPOLYLINE
  5
4703
102
{ACAD_REACTORS
330
4702
102
}
330
46CB
100
AcDbEntity
  8
A-ANNO-LOGO
100
AcDbPolyline
 90
        6
 70
     0
 43
0.0
 10
0.4822401744963658
 20
-2.079240536716143
 10
0.4250355427444134
 20
-1.988681645858792
 10
0.4250355427444134
 20
-2.079240536716143
 10
0.3391543585814203
 20
-2.079240536716143
 10
0.3391543585814203
 20
-1.807189435626796
 10
0.4799431982271997
 20
-1.807189435626796
  0
LWPOLYLINE
  5
4704
102
{ACAD_REACTORS
330
4702
102
}
330
46CB
100
AcDbEntity
  8
A-ANNO-LOGO
100
AcDbPolyline
 90
        3
 70
     0
 43
0.0
 10
0.5149200047384546
 20
-1.97627760771669
 42
0.7819233858869678
 10
0.4729037677033913
 20
-1.807189435626791
 10
0.3391543585814203
 20
-1.807189435626796
  0
LWPOLYLINE
  5
4705
102
{ACAD_REACTORS
330
4702
102
}
330
46CB
100
AcDbEntity
  8
A-ANNO-LOGO
100
AcDbPolyline
 90
        3
 70
     0
 43
0.0
 10
0.4822401744963658
 20
-2.079240536716143
 10
0.5799032434378142
 20
-2.079240536716143
 10
0.5149568562634337
 20
-1.976425911264012
  0
LWPOLYLINE
  5
4706
102
{ACAD_REACTORS
330
4702
102
}
330
46CB
100
AcDbEntity
  8
A-ANNO-LOGO
100
AcDbPolyline
 90
        4
 70
     1
 43
0.0
 10
0.4250355427444134
 20
-1.929408989155545
 10
0.444042008023323
 20
-1.929408989155545
 42
0.9999999999999998
 10
0.444042008023323
 20
-1.878280241719897
 10
0.4250355427444134
 20
-1.878280241719897
  0
HATCH
  5
4707
330
46CB
100
AcDbEntity
  8
A-ANNO-LOGO
100
AcDbHatch
 10
0.0
 20
0.0
 30
0.0
210
0.0
220
0.0
230
1.0
  2
SOLID
 70
     1
 71
     1
 91
        2
 92
        7
 72
     0
 73
     1
 93
        8
 10
0.7378172777351311
 20
-2.110448745920856
 10
0.7027859642686707
 20
-2.203574510649986
 10
0.7252226284438521
 20
-2.203574510649986
 10
0.7318687177819019
 20
-2.185906827345545
 10
0.768339327023083
 20
-2.185906827345545
 10
0.7749854163611328
 20
-2.203574510649986
 10
0.7974220805363143
 20
-2.203574510649986
 10
0.7623907670698538
 20
-2.110448745920856
 97
        1
330
4708
 92
       22
 72
     0
 73
     1
 93
        3
 10
0.7501040224024922
 20
-2.1374308634201
 10
0.7604397131521479
 20
-2.164906827345546
 10
0.7397683316528371
 20
-2.164906827345546
 97
        1
330
4709
 75
     1
 76
     1
 47
0.0008634572683766
 98
        2
 10
0.7497218994254551
 20
-2.126705163839344
 10
0.7497218994254551
 20
-2.126705163839344
450
        0
451
        0
460
0.0
461
0.0
452
        0
462
0.0
453
        0
470

1001
GradientColor1ACI
1070
     5
1001
GradientColor2ACI
1070
     2
1001
ACAD
1010
0.0
1020
0.0
1030
0.0
  0
LWPOLYLINE
  5
4708
102
{ACAD_REACTORS
330
4707
102
}
330
46CB
100
AcDbEntity
  8
A-ANNO-LOGO
100
AcDbPolyline
 90
        8
 70
     1
 43
0.0
 10
0.7318687177819019
 20
-2.185906827345545
 10
0.7252226284438521
 20
-2.203574510649986
 10
0.7027859642686707
 20
-2.203574510649986
 10
0.7378172777351311
 20
-2.110448745920856
 10
0.7623907670698538
 20
-2.110448745920856
 10
0.7974220805363143
 20
-2.203574510649986
 10
0.7749854163611328
 20
-2.203574510649986
 10
0.768339327023083
 20
-2.185906827345545
  0
LWPOLYLINE
  5
4709
102
{ACAD_REACTORS
330
4707
102
}
330
46CB
100
AcDbEntity
  8
A-ANNO-LOGO
100
AcDbPolyline
 90
        3
 70
     1
 43
0.0
 10
0.7604397131521479
 20
-2.164906827345546
 10
0.7501040224024922
 20
-2.1374308634201
 10
0.7397683316528371
 20
-2.164906827345546
  0
LWPOLYLINE
  5
470A
102
{ACAD_REACTORS
330
46D9
102
}
330
46CB
100
AcDbEntity
  8
A-ANNO-LOGO
100
AcDbPolyline
 90
        4
 70
     1
 43
0.0
 10
0.1876549189685788
 20
-2.13110423799354
 42
-0.8727396893478717
 10
0.1876549189685797
 20
-2.150104237993538
 10
0.1636836483469768
 20
-2.150104237993538
 10
0.1636836483469763
 20
-2.131104237993537
  0
HATCH
  5
470B
330
46CB
100
AcDbEntity
  8
A-ANNO-LOGO
100
AcDbHatch
 10
0.0
 20
0.0
 30
0.0
210
0.0
220
0.0
230
1.0
  2
SOLID
 70
     1
 71
     1
 91
        1
 92
        7
 72
     0
 73
     1
 93
        8
 10
0.3781674517909836
 20
-2.110448745920856
 10
0.353593962456261
 20
-2.110448745920856
 10
0.3185626489898006
 20
-2.203574510649986
 10
0.340999313164982
 20
-2.203574510649986
 10
0.3476454025030318
 20
-2.185906827345545
 10
0.3841160117442128
 20
-2.185906827345545
 10
0.3907621010822626
 20
-2.203574510649986
 10
0.4131987652574442
 20
-2.203574510649986
 97
        1
330
470C
 75
     1
 76
     1
 47
0.0008634572683766
 98
        1
 10
0.3693262089108229
 20
-2.131885906946136
450
        0
451
        0
460
0.0
461
0.0
452
        0
462
0.0
453
        0
470

1001
GradientColor1ACI
1070
     5
1001
GradientColor2ACI
1070
     2
1001
ACAD
1010
0.0
1020
0.0
1030
0.0
  0
LWPOLYLINE
  5
470C
102
{ACAD_REACTORS
330
470B
102
}
330
46CB
100
AcDbEntity
  8
A-ANNO-LOGO
100
AcDbPolyline
 90
        8
 70
     1
 43
0.0
 10
0.3476454025030318
 20
-2.185906827345545
 10
0.340999313164982
 20
-2.203574510649986
 10
0.3185626489898006
 20
-2.203574510649986
 10
0.353593962456261
 20
-2.110448745920856
 10
0.3781674517909836
 20
-2.110448745920856
 10
0.4131987652574442
 20
-2.203574510649986
 10
0.3907621010822626
 20
-2.203574510649986
 10
0.3841160117442128
 20
-2.185906827345545
  0
LWPOLYLINE
  5
470D
330
46CB
100
AcDbEntity
  8
A-ANNO-LOGO
100
AcDbPolyline
 90
        3
 70
     1
 43
0.0
 10
0.3762163978732778
 20
-2.164906827345546
 10
0.3658807071236221
 20
-2.1374308634201
 10
0.3555450163739668
 20
-2.164906827345546
  0
LWPOLYLINE
  5
470E
102
{ACAD_REACTORS
330
46D5
102
}
330
46CB
100
AcDbEntity
  8
A-ANNO-LOGO
100
AcDbPolyline
 90
        8
 70
     0
 43
0.0
 10
0.0822365086629944
 20
-2.131104237993537
 10
0.0822365086629944
 20
-2.145330025204745
 10
0.1283163801865115
 20
-2.145330025204745
 10
0.1283163801865115
 20
-2.165985517277426
 10
0.0822365086629944
 20
-2.165985517277426
 10
0.0822365086629944
 20
-2.182574510649986
 10
0.1283163801865115
 20
-2.182574510649986
 10
0.1283163801865115
 20
-2.203574510649986
  0
ENDBLK
  5
470F
330
46CB
100
AcDbEntity
  8
0
100
AcDbBlockEnd
  0
BLOCK
  5
4713
330
4710
100
AcDbEntity
  8
0
100
AcDbBlockBegin
  2
A$C4B751D3B
 70
     0
 10
0.0
 20
0.0
 30
0.0
  3
A$C4B751D3B
  1

  0
INSERT
  5
4714
330
4710
100
AcDbEntity
  8
A-ANNO-LOGO
100
AcDbBlockReference
  2
A$C4B96101F
 10
1.713741706443869
 20
5.819428362862194
 30
0.0
  0
ENDBLK
  5
4715
330
4710
100
AcDbEntity
  8
0
100
AcDbBlockEnd
  0
ENDSEC
  0
SECTION
  2
ENTITIES
  0
MTEXT
  5
493
330
1F
100
AcDbEntity
  8
A-DETL-PAT1
100
AcDbMText
 10
-0.5393257792700794
 20
0.2330525910033749
 30
0.0
 40
0.0597022604264557
 41
0.375
 46
0.0
 71
     1
 72
     5
  1

 73
     1
 44
1.0
  0
MTEXT
  5
AAD
330
1F
100
AcDbEntity
  8
A-ANNO-DIMS
100
AcDbMText
 10
-0.3197287970646645
 20
-0.3962247248759976
 30
0.0
 40
0.0649676644074742
 41
1.853
 46
0.0
 71
     1
 72
     5
  1

  7
STYLE1
 73
     1
 44
1.0
  0
MTEXT
  5
1A55
330
1F
100
AcDbEntity
  8
A-ANNO-TEXT
100
AcDbMText
 10
4.628419389742727
 20
1.971483592590491
 30
0.0
 40
0.2
 41
2.063
 46
0.0
 71
     1
 72
     5
  1

  7
ZERO
 73
     1
 44
1.0
  0
DIMENSION
  5
43D8
330
1F
100
AcDbEntity
  8
A-ANNO-DIMS
100
AcDbDimension
  2
*D1
 10
1.034747488877379
 20
6.076242169638056
 30
0.0
 11
1.269454173734132
 21
6.226242169638056
 31
0.0
 70
    32
 71
     5
 42
0.25
 73
     0
 74
     0
 75
     0
  3
dim24
100
AcDbAlignedDimension
 13
1.271219240423365
 23
5.826242169638056
 33
0.0
 14
1.271219240423365
 24
6.076242169638056
 34
0.0
 50
90.0
100
AcDbRotatedDimension
  0
DIMENSION
  5
43DA
330
1F
100
AcDbEntity
  8
A-ANNO-DIMS
100
AcDbDimension
  2
*D2
 10
6.271219240423365
 20
5.580258417219744
 30
0.0
 11
3.771219240423365
 21
5.580258417219744
 31
0.0
 70
    32
 71
     5
 42
5.0
 73
     0
 74
     0
 75
     0
  3
dim24
100
AcDbAlignedDimension
 13
1.271219240423365
 23
5.826242169638056
 33
0.0
 14
6.271219240423365
 24
5.826242169638056
 34
0.0
100
AcDbRotatedDimension
  0
DIMENSION
  5
43DB
330
1F
100
AcDbEntity
  8
A-ANNO-DIMS
100
AcDbDimension
  2
*D3
 10
6.524161682513332
 20
6.451242169638053
 30
0.0
 11
6.52416168251333
 21
6.138742169638055
 31
0.0
 70
   160
 71
     5
 42
0.625
 73
     0
 74
     0
 75
     0
  3
dim24
100
AcDbAlignedDimension
 13
6.249291615940198
 23
5.826242169638053
 33
0.0
 14
3.201219240423367
 24
6.451242169638054
 34
0.0
 50
90.0
100
AcDbRotatedDimension
  0
INSERT
  5
45DE
102
{ACAD_REACTORS
330
47B0
102
}
330
1F
100
AcDbEntity
  8
A-ANNO-TEXT
100
AcDbBlockReference
  2
A$C5CEC02A8
 10
3.985479416192827
 20
5.952637748166586
 30
0.0
 41
-1.0
 50
180.0
  0
HATCH
  5
4619
330
1F
100
AcDbEntity
  8
A-DETL-PAT2
100
AcDbHatch
 10
0.0
 20
0.0
 30
0.0
210
0.0
220
0.0
230
1.0
  2
SOLID
 70
     1
 71
     0
 91
        2
 92
        7
 72
     1
 73
     1
 93
       19
 10
3.191469853045155
 20
6.444075456649356
 42
0.4044820182102959
 10
2.901469853045153
 20
6.144242169638057
 42
0.0
 10
2.901469853045154
 20
6.138742169638052
 42
0.0
 10
2.901469853045154
 20
6.093242169638052
 42
1.0
 10
2.921469853045154
 20
6.093242169638052
 42
0.0
 10
2.921469853045153
 20
6.144242169638057
 42
-0.2623861998181185
 10
3.056459140263954
 20
6.383766475667087
 42
0.5914134602582704
 10
3.166469853045153
 20
6.083242169638052
 42
0.0
 10
3.191469853045155
 20
6.083242169638052
 42
0.0
 10
3.191469853045155
 20
6.201242169638056
 42
0.0
 10
3.191469853045155
 20
6.209242169638055
 42
0.0
 10
3.260969853045155
 20
6.209242169638055
 42
0.0
 10
3.260969853045155
 20
6.138742169638056
 42
0.0
 10
3.340969853045155
 20
6.138742169638056
 42
0.0
 10
3.340969853045155
 20
6.274242169638056
 42
0.0
 10
3.340969853045155
 20
6.388742169638056
 42
0.0
 10
3.260969853045155
 20
6.388742169638056
 42
0.0
 10
3.260969853045155
 20
6.318242169638057
 42
0.0
 10
3.191469853045155
 20
6.318242169638057
 42
0.0
 97
        0
 92
       22
 72
     1
 73
     1
 93
        3
 10
3.146469853045153
 20
6.39284509182082
 42
0.0
 10
3.146469853045153
 20
6.263742169638052
 42
0.0
 10
3.146469853045153
 20
6.134639247455288
 42
-0.6971182253534919
 97
        0
 75
     1
 76
     1
 47
0.0014633958991305
 98
        2
 10
3.123195761772104
 20
6.385023487973985
 10
3.123195761772104
 20
6.385023487973985
450
        0
451
        0
460
0.0
461
0.0
452
        0
462
0.0
453
        0
470

1001
GradientColor1ACI
1070
     5
1001
GradientColor2ACI
1070
     2
1001
ACAD
1010
0.0
1020
0.0
1030
0.0
  0
INSERT
  5
4720
330
1F
100
AcDbEntity
  8
A-ANNO-LOGO
100
AcDbBlockReference
  2
A$C4B751D3B
 10
0.0
 20
-1.082866338684642
 30
0.0
  0
MTEXT
  5
4721
330
1F
100
AcDbEntity
  8
A-ANNO-TEXT
100
AcDbMText
 10
3.166465940831279
 20
2.918647947101586
 30
0.0
 40
0.125
 41
2.452042771811406
 46
0.0
 71
     1
 72
     5
  1
265\PRabetted Threshold\P- Latch track hardware
  7
ZERO
 73
     1
 44
1.0
  0
LWPOLYLINE
  5
474D
102
{ACAD_REACTORS
330
47B0
102
}
330
1F
100
AcDbEntity
  8
A-DETL-SADL
100
AcDbPolyline
 90
       65
 70
     1
 43
0.0
 10
3.413643563736736
 20
6.451242169662251
 10
3.212925138817187
 20
6.451242169662251
 42
0.4142135623730882
 10
3.197925138817187
 20
6.436242169662249
 10
3.197925138817189
 20
6.341242169662249
 42
0.4142135623731022
 10
3.212925138817189
 20
6.326242169662251
 10
3.244925138817189
 20
6.326242169662252
 42
0.4142135623730815
 10
3.259925138817188
 20
6.341242169662252
 10
3.259925138817181
 20
6.384242169662249
 42
-0.4142135623730816
 10
3.274925138817182
 20
6.399242169662247
 10
3.334925138819075
 20
6.39924216966225
 42
-0.4142135623731086
 10
3.349925138819076
 20
6.38424216966225
 10
3.349925138819091
 20
6.144242169549025
 42
-0.4142135623730815
 10
3.334925138819091
 20
6.129242169549025
 10
3.274925138817199
 20
6.129242169549019
 42
-0.4142135623731088
 10
3.259925138817198
 20
6.144242169549021
 10
3.259925138817198
 20
6.186242169662254
 42
0.4142135623731086
 10
3.244925138817198
 20
6.201242169662252
 10
3.212925139325488
 20
6.201242169662251
 42
0.4142135623730882
 10
3.197925139325487
 20
6.186242169662249
 10
3.197925139325493
 20
6.090302094699766
 42
-0.3953946512657154
 10
3.183894610702765
 20
6.075333456643863
 10
1.412379178490655
 20
5.960598001119519
 42
0.3218742415053484
 10
1.271725363786035
 20
5.845105787116772
 42
0.4927451109658154
 10
1.286219240423314
 20
5.826242169638056
 10
1.331425139114228
 20
5.826242169637899
 10
1.362425139114239
 20
5.857242169637912
 10
1.393425139114249
 20
5.826242169637899
 10
1.424425139114264
 20
5.857242169637912
 10
1.455425139114274
 20
5.826242169637896
 10
1.486425139114286
 20
5.857242169637912
 10
1.5174251391143
 20
5.826242169637899
 10
1.54842513911431
 20
5.857242169637912
 10
1.579425139114355
 20
5.826242169637871
 10
1.628350551175652
 20
5.826242169637874
 42
0.3656490766967652
 10
1.643137845144964
 20
5.838725040903548
 42
-0.3474243106731659
 10
1.656955667737003
 20
5.851176550225125
 10
1.782946047077003
 20
5.859336548892034
 42
-0.9999999999999998
 10
1.802904231151542
 20
5.860629177395062
 10
3.242955667736993
 20
5.95389675754185
 42
-0.4332862736616315
 10
3.258925139114267
 20
5.938928119485947
 10
3.258925139114267
 20
5.893455373073414
 42
0.1989123673796439
 10
3.26331853739647
 20
5.882848771355616
 10
3.30392513911412
 20
5.842242169637969
 10
3.344531740832066
 20
5.882848771355918
 42
0.1989123673796377
 10
3.348925139114268
 20
5.893455373073716
 10
3.348925139114266
 20
5.947656290658685
 42
-0.4280455038743714
 10
3.364629777955775
 20
5.962639730988031
 10
5.878629777955787
 20
5.844411740044711
 42
-0.287296076402551
 10
5.891713109210054
 20
5.835335234676742
 42
0.3000577352300139
 10
5.905501079305835
 20
5.826242169638117
 10
5.956425139114278
 20
5.826242169638119
 10
5.987425139114278
 20
5.857242169638119
 10
6.018425139114277
 20
5.826242169638119
 10
6.049425139114278
 20
5.857242169638119
 10
6.080425139114278
 20
5.826242169638119
 10
6.111425139114276
 20
5.857242169638119
 10
6.142425139114278
 20
5.826242169638119
 10
6.173425139111104
 20
5.857242169634948
 10
6.20442513910792
 20
5.826242169638134
 10
6.249291615940196
 20
5.826242169638123
 42
0.4987151455949498
 10
6.263708771369242
 20
5.845382897754618
 42
0.3214642985031397
 10
6.121098598858876
 20
5.958147104768315
 10
3.618716501042037
 20
6.075828730861159
 42
-0.2717107788266327
 10
3.605997580427908
 20
6.084118289540751
 10
3.427067123192377
 20
6.442936051312003
 42
0.2843674062638837
  0
HATCH
  5
47B0
330
1F
100
AcDbEntity
  8
A-DETL-PAT1
100
AcDbHatch
 10
0.0
 20
0.0
 30
0.0
210
0.0
220
0.0
230
1.0
  2
SOLID
 70
     1
 71
     1
 91
        1
 92
        7
 72
     1
 73
     1
 93
       66
 10
3.618716501042037
 20
6.075828730861159
 42
-0.2717107788266295
 10
3.605997580427909
 20
6.08411828954075
 42
0.0
 10
3.427067123192377
 20
6.442936051312003
 42
0.2843674062639053
 10
3.413643563736735
 20
6.451242169662251
 42
0.0
 10
3.212925138817188
 20
6.451242169662251
 42
0.4142135623731003
 10
3.197925138817187
 20
6.43624216966225
 42
0.0
 10
3.197925138817189
 20
6.341242169662249
 42
0.4142135623731064
 10
3.212925138817189
 20
6.326242169662251
 42
0.0
 10
3.244925138817189
 20
6.326242169662252
 42
0.4142135623731275
 10
3.259925138817188
 20
6.341242169662255
 42
0.0
 10
3.25992513881718
 20
6.388742169638056
 42
0.0
 10
3.260616050788319
 20
6.388742169638056
 42
-0.3275382221865339
 10
3.27492513881718
 20
6.399242169662247
 42
0.0
 10
3.334925138819075
 20
6.39924216966225
 42
-0.4142135623730896
 10
3.349925138819076
 20
6.384242169662251
 42
0.0
 10
3.349925138819091
 20
6.144242169549026
 42
-0.4142135623730872
 10
3.334925138819091
 20
6.129242169549025
 42
0.0
 10
3.2749251388172
 20
6.129242169549019
 42
-0.4142135623731203
 10
3.259925138817198
 20
6.14424216954902
 42
0.0
 10
3.259925138817198
 20
6.186242169662253
 42
0.4142135623731119
 10
3.244925138817198
 20
6.201242169662252
 42
0.0
 10
3.212925139325488
 20
6.201242169662251
 42
0.4142135623730974
 10
3.197925139325487
 20
6.186242169662248
 42
0.0
 10
3.197925139325493
 20
6.090302094699767
 42
-0.3953946512657297
 10
3.183894610702765
 20
6.075333456643863
 42
0.0
 10
1.412379178490655
 20
5.960598001119519
 42
0.3218742415053482
 10
1.271725363786035
 20
5.845105787116772
 42
0.4927451109658106
 10
1.286219240423313
 20
5.826242169638056
 42
0.0
 10
1.331425139114227
 20
5.826242169637899
 42
0.0
 10
1.362425139114238
 20
5.857242169637912
 42
0.0
 10
1.393425139114249
 20
5.826242169637899
 42
0.0
 10
1.424425139114264
 20
5.857242169637912
 42
0.0
 10
1.455425139114275
 20
5.826242169637896
 42
0.0
 10
1.486425139114286
 20
5.857242169637912
 42
0.0
 10
1.5174251391143
 20
5.826242169637899
 42
0.0
 10
1.548425139114309
 20
5.857242169637912
 42
0.0
 10
1.579425139114355
 20
5.826242169637871
 42
0.0
 10
1.628350551175652
 20
5.826242169637874
 42
0.3656490766967637
 10
1.643137845144964
 20
5.838725040903549
 42
-0.347424310673163
 10
1.656955667737003
 20
5.851176550225125
 42
0.0
 10
1.782946047077003
 20
5.859336548892034
 42
-1.0
 10
1.802904231151542
 20
5.860629177395062
 42
0.0
 10
3.242955667736995
 20
5.95389675754185
 42
-0.4332862736616291
 10
3.258925139114267
 20
5.938928119485946
 42
0.0
 10
3.258925139114267
 20
5.893455373073416
 42
0.1989123673796664
 10
3.263318537396469
 20
5.882848771355617
 42
0.0
 10
3.30392513911412
 20
5.842242169637969
 42
0.0
 10
3.344531740832066
 20
5.882848771355918
 42
0.1989123673796552
 10
3.348925139114268
 20
5.893455373073717
 42
0.0
 10
3.348925139114266
 20
5.947656290658686
 42
-0.4280455038743784
 10
3.364629777955776
 20
5.962639730988031
 42
0.0
 10
5.878629777955788
 20
5.844411740044711
 42
-0.287296076402523
 10
5.891713109210053
 20
5.835335234676743
 42
0.3000577352300265
 10
5.905501079305835
 20
5.826242169638117
 42
0.0
 10
5.956425139114278
 20
5.826242169638119
 42
0.0
 10
5.987425139114277
 20
5.857242169638119
 42
0.0
 10
6.018425139114276
 20
5.826242169638119
 42
0.0
 10
6.049425139114278
 20
5.857242169638119
 42
0.0
 10
6.080425139114278
 20
5.826242169638119
 42
0.0
 10
6.111425139114276
 20
5.857242169638119
 42
0.0
 10
6.142425139114278
 20
5.826242169638119
 42
0.0
 10
6.173425139111104
 20
5.857242169634948
 42
0.0
 10
6.20442513910792
 20
5.826242169638134
 42
0.0
 10
6.249291615940194
 20
5.826242169638123
 42
0.4987151455948743
 10
6.263708771369244
 20
5.845382897754612
 42
0.3214642985032168
 10
6.121098598858838
 20
5.958147104768316
 42
0.0
 97
        2
330
474D
330
45DE
 75
     1
 76
     1
 47
0.006381544874677
 98
        1
 10
3.447011263475744
 20
6.020082997526117
450
        0
451
        0
460
0.0
461
0.0
452
        0
462
1.0
453
        2
463
0.0
 63
     5
421
      255
463
1.0
 63
     2
421
 16776960
470
LINEAR
1001
GradientColor1ACI
1070
     5
1001
GradientColor2ACI
1070
     2
1001
ACAD
1010
0.0
1020
0.0
1030
0.0
  0
VIEWPORT
  5
7FF
330
1B
100
AcDbEntity
 67
     1
  8
0
100
AcDbViewport
 10
50.89172625842993
 20
32.3574773131307
 30
0.0
 40
128.0650764641688
 41
78.85110865097444
 68
     1
 69
     1
 12
50.89172625842993
 22
32.3574773131307
 13
0.0
 23
0.0
 14
0.5
 24
0.5
 15
0.5
 25
0.5
 16
0.0
 26
0.0
 36
1.0
 17
0.0
 27
0.0
 37
0.0
 42
50.0
 43
0.0
 44
0.0
 45
78.85110865097444
 50
0.0
 51
0.0
 72
   100
 90
    32800
  1

281
     0
 71
     1
 74
     0
110
0.0
120
0.0
130
0.0
111
1.0
121
0.0
131
0.0
112
0.0
122
1.0
132
0.0
 79
     0
146
0.0
170
     0
 61
     5
348
3B06
292
     1
282
     1
141
0.0
142
0.0
 63
   250
421
  3355443
  0
VIEWPORT
  5
801
330
1B
100
AcDbEntity
 67
     1
  8
Defpoints
100
AcDbViewport
 10
8.128226426172055
 20
10.78449441835579
 30
0.0
 40
15.01067934375719
 41
20.01844399871442
 68
     2
 69
     2
 12
3.521570094889961
 22
4.8155887297466
 13
0.0
 23
0.0
 14
0.5
 24
0.5
 15
0.5
 25
0.5
 16
0.0
 26
0.0
 36
1.0
 17
0.0
 27
0.0
 37
0.0
 42
50.0
 43
0.0
 44
0.0
 45
10.00922199935721
 50
0.0
 51
0.0
 72
   100
 90
    32864
  1

281
     0
 71
     1
 74
     0
110
0.0
120
0.0
130
0.0
111
1.0
121
0.0
131
0.0
112
0.0
122
1.0
132
0.0
 79
     0
146
0.0
170
     0
 61
     5
348
3B06
292
     1
282
     1
141
0.0
142
0.0
 63
   250
421
  3355443
  0
ENDSEC
  0
SECTION
  2
OBJECTS
  0
DICTIONARY
  5
C
330
0
100
AcDbDictionary
281
     1
  3
ACAD_CIP_PREVIOUS_PRODUCT_INFO
350
3B39
  3
ACAD_COLOR
350
3B19
  3
ACAD_DETAILVIEWSTYLE
350
3B32
  3
ACAD_GROUP
350
D
  3
ACAD_IMAGE_VARS
350
D4D
  3
ACAD_LAYOUT
350
1A
  3
ACAD_MATERIAL
350
3AE7
  3
ACAD_MLEADERSTYLE
350
3B2E
  3
ACAD_MLINESTYLE
350
17
  3
ACAD_PLOTSETTINGS
350
19
  3
ACAD_PLOTSTYLENAME
350
E
  3
ACAD_SCALELIST
350
3B1C
  3
ACAD_SECTIONVIEWSTYLE
350
3B30
  3
ACAD_TABLESTYLE
350
3B1A
  3
ACAD_VISUALSTYLE
350
3B00
  3
ACDB_RECOMPOSE_DATA
350
4818
  3
AcDbVariableDictionary
350
1C9
  0
DICTIONARY
  5
3DAD
330
8
100
AcDbDictionary
280
     1
281
     1
  0
DICTIONARY
  5
3C6C
330
2
100
AcDbDictionary
280
     1
281
     1
  3
ACAD_LAYERSTATES
360
3C6D
  0
DICTIONARY
  5
3D7F
330
10
100
AcDbDictionary
280
     1
281
     1
  3
ADSK_XREC_LAYER_RECONCILED
360
3D80
  0
DICTIONARY
  5
3D81
330
1C4
100
AcDbDictionary
280
     1
281
     1
  3
ADSK_XREC_LAYER_RECONCILED
360
3D82
  0
DICTIONARY
  5
3D83
330
1C8
100
AcDbDictionary
280
     1
281
     1
  3
ADSK_XREC_LAYER_RECONCILED
360
3D84
  0
DICTIONARY
  5
3D85
330
382
100
AcDbDictionary
280
     1
281
     1
  3
ADSK_XREC_LAYER_RECONCILED
360
3D86
  0
DICTIONARY
  5
3D87
330
6C4
100
AcDbDictionary
280
     1
281
     1
  3
ADSK_XREC_LAYER_RECONCILED
360
3D88
  0
DICTIONARY
  5
4717
330
4716
100
AcDbDictionary
280
     1
281
     1
  0
DICTIONARY
  5
38DC
330
1F
100
AcDbDictionary
280
     1
281
     1
  3
ACAD_SORTENTS
360
38DD
  0
DICTIONARY
  5
45DA
330
45C3
100
AcDbDictionary
280
     1
281
     1
  3
ACAD_SORTENTS
360
45DB
  0
DICTIONARY
  5
46CC
330
46CB
100
AcDbDictionary
280
     1
281
     1
  3
ACAD_SORTENTS
360
46CD
  0
DICTIONARY
  5
4711
330
4710
100
AcDbDictionary
280
     1
281
     1
  3
ACAD_SORTENTS
360
4712
  0
XRECORD
  5
3B39
102
{ACAD_REACTORS
330
C
102
}
330
C
100
AcDbXrecord
280
     1
300
ACDLT
300
2014
300
86127INVLTS_2014_0F
  0
DICTIONARY
  5
3B19
102
{ACAD_REACTORS
330
C
102
}
330
C
100
AcDbDictionary
281
     1
  0
DICTIONARY
  5
3B32
102
{ACAD_REACTORS
330
C
102
}
330
C
100
AcDbDictionary
281
     1
  3
Imperial24
350
3B33
  0
DICTIONARY
  5
D
102
{ACAD_REACTORS
330
C
102
}
330
C
100
AcDbDictionary
281
     1
  0
RASTERVARIABLES
  5
D4D
102
{ACAD_REACTORS
330
C
102
}
330
C
100
AcDbRasterVariables
 90
        0
 70
     1
 71
     1
 72
     5
  0
DICTIONARY
  5
1A
102
{ACAD_REACTORS
330
C
102
}
330
C
100
AcDbDictionary
281
     1
  3
Layout1
350
1E
  3
Layout2
350
26
  3
Model
350
22
  0
DICTIONARY
  5
3AE7
102
{ACAD_REACTORS
330
C
102
}
330
C
100
AcDbDictionary
281
     1
  3
ByBlock
350
3AF0
  3
ByLayer
350
3AE8
  3
Global
350
3AF8
  0
DICTIONARY
  5
3B2E
102
{ACAD_REACTORS
330
C
102
}
330
C
100
AcDbDictionary
281
     1
  3
Standard
350
3B2F
  0
DICTIONARY
  5
17
102
{ACAD_REACTORS
330
C
102
}
330
C
100
AcDbDictionary
281
     1
  3
Standard
350
18
  0
DICTIONARY
  5
19
102
{ACAD_REACTORS
330
C
102
}
330
C
100
AcDbDictionary
281
     1
  0
ACDBDICTIONARYWDFLT
  5
E
102
{ACAD_REACTORS
330
C
102
}
330
C
100
AcDbDictionary
281
     1
  3
Normal
350
F
100
AcDbDictionaryWithDefault
340
F
  0
DICTIONARY
  5
3B1C
102
{ACAD_REACTORS
330
C
102
}
330
C
100
AcDbDictionary
281
     1
  3
A0
350
3B1D
  3
A1
350
3B1E
  3
A2
350
3B1F
  3
A3
350
3B20
  3
A4
350
3B21
  3
A5
350
3B22
  3
A6
350
3B23
  3
A7
350
3B24
  3
A8
350
3B25
  3
A9
350
3B26
  3
B0
350
3B27
  3
B1
350
3B28
  3
B2
350
3B29
  3
B3
350
3B2A
  3
B4
350
3B2B
  3
B5
350
3B2C
  3
B6
350
3B2D
  0
DICTIONARY
  5
3B30
102
{ACAD_REACTORS
330
C
102
}
330
C
100
AcDbDictionary
281
     1
  3
Imperial24
350
3B31
  0
DICTIONARY
  5
3B1A
102
{ACAD_REACTORS
330
C
102
}
330
C
100
AcDbDictionary
281
     1
  3
Standard
350
3B1B
  0
DICTIONARY
  5
3B00
102
{ACAD_REACTORS
330
C
102
}
330
C
100
AcDbDictionary
281
     1
  3
2dWireframe
350
3B06
  3
Basic
350
3B05
  3
Brighten
350
3B0C
  3
ColorChange
350
3B10
  3
Conceptual
350
3B09
  3
Dim
350
3B0B
  3
EdgeColorOff
350
3B18
  3
Facepattern
350
3B0F
  3
Flat
350
3B01
  3
FlatWithEdges
350
3B02
  3
Gouraud
350
3B03
  3
GouraudWithEdges
350
3B04
  3
Hidden
350
3B08
  3
JitterOff
350
3B16
  3
Linepattern
350
3B0E
  3
OverhangOff
350
3B17
  3
Realistic
350
3B0A
  3
Shaded
350
3B15
  3
Shaded with edges
350
3B14
  3
Shades of Gray
350
3B11
  3
Sketchy
350
3B12
  3
Thicken
350
3B0D
  3
Wireframe
350
3B07
  3
X-Ray
350
3B13
  0
XRECORD
  5
4818
102
{ACAD_REACTORS
330
C
102
}
330
C
100
AcDbXrecord
280
     1
 90
        1
330
3B1B
  0
DICTIONARY
  5
1C9
102
{ACAD_REACTORS
330
C
102
}
330
C
100
AcDbDictionary
281
     1
  3
CANNOSCALE
350
3DFC
  3
CMLEADERSTYLE
350
3DF9
  3
CTABLESTYLE
350
3DF8
  3
CVIEWDETAILSTYLE
350
3DFA
  3
CVIEWSECTIONSTYLE
350
3DFB
  3
DIMASSOC
350
3DFE
  3
INDEXCTL
350
3DFD
  3
LAYEREVAL
350
4809
  3
LAYERNOTIFY
350
480A
  3
LIGHTINGUNITS
350
4808
  3
MSLTSCALE
350
4807
  3
SORTENTS
350
1CA
  3
XCLIPFRAME
350
4816
  0
DICTIONARY
  5
3C6D
102
{ACAD_REACTORS
330
3C6C
102
}
330
3C6C
100
AcDbDictionary
281
     1
  0
XRECORD
  5
3D80
102
{ACAD_REACTORS
330
3D7F
102
}
330
3D7F
100
AcDbXrecord
280
     1
290
     1
  0
XRECORD
  5
3D82
102
{ACAD_REACTORS
330
3D81
102
}
330
3D81
100
AcDbXrecord
280
     1
290
     1
  0
XRECORD
  5
3D84
102
{ACAD_REACTORS
330
3D83
102
}
330
3D83
100
AcDbXrecord
280
     1
290
     1
  0
XRECORD
  5
3D86
102
{ACAD_REACTORS
330
3D85
102
}
330
3D85
100
AcDbXrecord
280
     1
290
     1
  0
XRECORD
  5
3D88
102
{ACAD_REACTORS
330
3D87
102
}
330
3D87
100
AcDbXrecord
280
     1
290
     1
  0
SORTENTSTABLE
  5
38DD
102
{ACAD_REACTORS
330
38DC
102
}
330
38DC
100
AcDbSortentsTable
330
1F
331
43D8
  5
43DB
331
1A55
  5
4122
331
4619
  5
43A8
331
4721
  5
4750
331
47B0
  5
4720
331
4720
  5
474D
331
493
  5
335A
331
AAD
  5
3D7E
331
45DE
  5
4721
331
43DB
  5
457C
331
474D
  5
4752
331
43DA
  5
43DC
  0
SORTENTSTABLE
  5
45DB
102
{ACAD_REACTORS
330
45DA
102
}
330
45DA
100
AcDbSortentsTable
330
45C3
  0
SORTENTSTABLE
  5
46CD
102
{ACAD_REACTORS
330
46CC
102
}
330
46CC
100
AcDbSortentsTable
330
46CB
  0
SORTENTSTABLE
  5
4712
102
{ACAD_REACTORS
330
4711
102
}
330
4711
100
AcDbSortentsTable
330
4710
  0
ACDBDETAILVIEWSTYLE
  5
3B33
102
{ACAD_XDICTIONARY
360
484D
102
}
102
{ACAD_REACTORS
330
3B32
102
}
330
3B32
100
AcDbModelDocViewStyle
 70
     0
  3
Imperial24
290
     0
100
AcDbDetailViewStyle
 70
     0
 71
     0
 90
        3
 71
     1
340
11
 62
   256
 40
0.24
340
0
 62
   256
 40
0.24
300

 40
0.36
280
     3
 71
     2
340
16
 90
       25
 62
   256
 71
     3
340
11
 62
   256
 40
0.24
 90
        1
 40
0.75
 90
        1
300
%<\AcVar ViewType \f "%tc1">% %<\AcVar ViewDetailId>%\PSCALE %<\AcVar ViewScale \f "%sn">%
 71
     4
340
16
 90
       25
 62
   256
340
16
 90
       25
 62
   256
280
     0
  0
LAYOUT
  5
1E
102
{ACAD_REACTORS
330
1A
102
}
330
1A
100
AcDbPlotSettings
  1

  2
HP LaserJet 2100 Series PS
  4
Letter
  6

 40
5.365749835968017
 41
5.386905193328857
 42
5.386917114257812
 43
5.365753173828125
 44
215.8999938964844
 45
279.3999938964844
 46
0.0
 47
0.0
 48
0.0
 49
0.0
140
0.0
141
0.0
142
1.0
143
2.0
 70
   688
 72
     0
 73
     0
 74
     5
  7
Zero.ctb
 75
    17
147
0.5
 76
     0
 77
     2
 78
   300
148
0.0
149
0.0
100
AcDbLayout
  1
Layout1
 70
     1
 71
     1
 10
-0.4224999870840959
 20
-0.4241657632542407
 11
16.57749953232412
 21
21.57583375615398
 12
0.0
 22
0.0
 32
0.0
 14
0.6223608640189156
 24
0.7752666362099987
 34
-0.0015258207003583
 15
15.63380452912571
 25
20.79433968291374
 35
0.0000000349246037
146
0.0
 13
0.0
 23
0.0
 33
0.0
 16
1.0
 26
0.0
 36
0.0
 17
0.0
 27
1.0
 37
0.0
 76
     0
330
1B
331
7FF
  0
LAYOUT
  5
26
102
{ACAD_REACTORS
330
1A
102
}
330
1A
100
AcDbPlotSettings
  1

  2
Canon MultiPASS L6000 Printer
  4
Letter
  6

 40
4.773083209991455
 41
8.244421005249023
 42
4.857742309570312
 43
3.17498779296875
 44
215.8999938964844
 45
279.3999938964844
 46
0.0
 47
0.0
 48
0.0
 49
0.0
140
0.0
141
0.0
142
1.0
143
1.0
 70
   688
 72
     0
 73
     1
 74
     5
  7
Zero.ctb
 75
    16
147
1.0
 76
     0
 77
     2
 78
   300
148
0.0
149
0.0
100
AcDbLayout
  1
Layout2
 70
     1
 71
     2
 10
-0.1249995194082185
 20
-0.1879166618106872
 11
10.87500024029589
 21
8.31208309789342
 12
0.0
 22
0.0
 32
0.0
 14
1.055041673615223
 24
0.812083340066624
 34
0.0
 15
9.495375062537004
 25
7.308750060599618
 35
0.0
146
0.0
 13
0.0
 23
0.0
 33
0.0
 16
1.0
 26
0.0
 36
0.0
 17
0.0
 27
1.0
 37
0.0
 76
     0
330
23
331
6B4
  0
LAYOUT
  5
22
102
{ACAD_REACTORS
330
1A
102
}
330
1A
100
AcDbPlotSettings
  1

  2
HP LaserJet P3011/P3015 PCL6 Class Driver
  4
Letter
  6

 40
6.805083274841308
 41
5.027099609375
 42
6.805068969726562
 43
5.027069091796875
 44
215.8999938964844
 45
279.3999938964844
 46
13.03867082595814
 47
14.02291259765634
 48
0.0
 49
0.0
140
6.937500000000008
141
9.499999999999992
142
1.0
143
1.0
 70
 11940
 72
     0
 73
     0
 74
     4
  7
Zero.ctb
 75
     0
147
0.8548245684911842
 76
     0
 77
     2
 78
   300
148
0.0
149
0.0
100
AcDbLayout
  1
Model
 70
     1
 71
     0
 10
0.0
 20
0.0
 11
12.0
 21
9.0
 12
0.0
 22
0.0
 32
0.0
 14
0.0
 24
0.0
 34
0.0
 15
0.0
 25
0.0
 35
0.0
146
0.0
 13
0.0
 23
0.0
 33
0.0
 16
1.0
 26
0.0
 36
0.0
 17
0.0
 27
1.0
 37
0.0
 76
     0
330
1F
331
3AE5
1001
ACAD_PSEXT
1000
HP LaserJet P3011/P3015 PCL6 Class Driver
1000
HP LaserJet P3011/P3015 PCL6 Class Driver
1000
192.168.1.40
1000

1070
     0
  0
MATERIAL
  5
3AF0
102
{ACAD_XDICTIONARY
360
3AF1
102
}
102
{ACAD_REACTORS
330
3AE7
102
}
330
3AE7
100
AcDbMaterial
  1
ByBlock
 72
     0
 43
0.0208333333333333
 43
0.0
 43
0.0
 43
0.0
 43
0.0
 43
0.0208333333333333
 43
0.0
 43
0.0
 43
0.0
 43
0.0
 43
1.0
 43
0.0
 43
0.0
 43
0.0
 43
0.0
 43
1.0
 77
     0
 47
0.0208333333333333
 47
0.0
 47
0.0
 47
0.0
 47
0.0
 47
0.0208333333333333
 47
0.0
 47
0.0
 47
0.0
 47
0.0
 47
1.0
 47
0.0
 47
0.0
 47
0.0
 47
0.0
 47
1.0
171
     0
 49
0.0208333333333333
 49
0.0
 49
0.0
 49
0.0
 49
0.0
 49
0.0208333333333333
 49
0.0
 49
0.0
 49
0.0
 49
0.0
 49
1.0
 49
0.0
 49
0.0
 49
0.0
 49
0.0
 49
1.0
175
     0
142
0.0208333333333333
142
0.0
142
0.0
142
0.0
142
0.0
142
0.0208333333333333
142
0.0
142
0.0
142
0.0
142
0.0
142
1.0
142
0.0
142
0.0
142
0.0
142
0.0
142
1.0
179
     0
144
0.0208333333333333
144
0.0
144
0.0
144
0.0
144
0.0
144
0.0208333333333333
144
0.0
144
0.0
144
0.0
144
0.0
144
1.0
144
0.0
144
0.0
144
0.0
144
0.0
144
1.0
147
0.0208333333333333
147
0.0
147
0.0
147
0.0
147
0.0
147
0.0208333333333333
147
0.0
147
0.0
147
0.0
147
0.0
147
1.0
147
0.0
147
0.0
147
0.0
147
0.0
147
1.0
  0
MATERIAL
  5
3AE8
102
{ACAD_XDICTIONARY
360
3AE9
102
}
102
{ACAD_REACTORS
330
3AE7
102
}
330
3AE7
100
AcDbMaterial
  1
ByLayer
 72
     0
 43
0.0208333333333333
 43
0.0
 43
0.0
 43
0.0
 43
0.0
 43
0.0208333333333333
 43
0.0
 43
0.0
 43
0.0
 43
0.0
 43
1.0
 43
0.0
 43
0.0
 43
0.0
 43
0.0
 43
1.0
 77
     0
 47
0.0208333333333333
 47
0.0
 47
0.0
 47
0.0
 47
0.0
 47
0.0208333333333333
 47
0.0
 47
0.0
 47
0.0
 47
0.0
 47
1.0
 47
0.0
 47
0.0
 47
0.0
 47
0.0
 47
1.0
171
     0
 49
0.0208333333333333
 49
0.0
 49
0.0
 49
0.0
 49
0.0
 49
0.0208333333333333
 49
0.0
 49
0.0
 49
0.0
 49
0.0
 49
1.0
 49
0.0
 49
0.0
 49
0.0
 49
0.0
 49
1.0
175
     0
142
0.0208333333333333
142
0.0
142
0.0
142
0.0
142
0.0
142
0.0208333333333333
142
0.0
142
0.0
142
0.0
142
0.0
142
1.0
142
0.0
142
0.0
142
0.0
142
0.0
142
1.0
179
     0
144
0.0208333333333333
144
0.0
144
0.0
144
0.0
144
0.0
144
0.0208333333333333
144
0.0
144
0.0
144
0.0
144
0.0
144
1.0
144
0.0
144
0.0
144
0.0
144
0.0
144
1.0
147
0.0208333333333333
147
0.0
147
0.0
147
0.0
147
0.0
147
0.0208333333333333
147
0.0
147
0.0
147
0.0
147
0.0
147
1.0
147
0.0
147
0.0
147
0.0
147
0.0
147
1.0
  0
MATERIAL
  5
3AF8
102
{ACAD_XDICTIONARY
360
3AF9
102
}
102
{ACAD_REACTORS
330
3AE7
102
}
330
3AE7
100
AcDbMaterial
  1
Global
 72
     0
 43
0.0208333333333333
 43
0.0
 43
0.0
 43
0.0
 43
0.0
 43
0.0208333333333333
 43
0.0
 43
0.0
 43
0.0
 43
0.0
 43
1.0
 43
0.0
 43
0.0
 43
0.0
 43
0.0
 43
1.0
 77
     0
 47
0.0208333333333333
 47
0.0
 47
0.0
 47
0.0
 47
0.0
 47
0.0208333333333333
 47
0.0
 47
0.0
 47
0.0
 47
0.0
 47
1.0
 47
0.0
 47
0.0
 47
0.0
 47
0.0
 47
1.0
171
     0
 49
0.0208333333333333
 49
0.0
 49
0.0
 49
0.0
 49
0.0
 49
0.0208333333333333
 49
0.0
 49
0.0
 49
0.0
 49
0.0
 49
1.0
 49
0.0
 49
0.0
 49
0.0
 49
0.0
 49
1.0
175
     0
142
0.0208333333333333
142
0.0
142
0.0
142
0.0
142
0.0
142
0.0208333333333333
142
0.0
142
0.0
142
0.0
142
0.0
142
1.0
142
0.0
142
0.0
142
0.0
142
0.0
142
1.0
179
     0
144
0.0208333333333333
144
0.0
144
0.0
144
0.0
144
0.0
144
0.0208333333333333
144
0.0
144
0.0
144
0.0
144
0.0
144
1.0
144
0.0
144
0.0
144
0.0
144
0.0
144
1.0
147
0.0208333333333333
147
0.0
147
0.0
147
0.0
147
0.0
147
0.0208333333333333
147
0.0
147
0.0
147
0.0
147
0.0
147
1.0
147
0.0
147
0.0
147
0.0
147
0.0
147
1.0
  0
MLEADERSTYLE
  5
3B2F
102
{ACAD_XDICTIONARY
360
4849
102
}
102
{ACAD_REACTORS
330
3B2E
102
}
330
3B2E
100
AcDbMLeaderStyle
170
     2
171
     1
172
     0
 90
        2
 40
0.0
 41
0.0
173
     1
 91
-1056964608
340
14
 92
       -2
290
     1
 42
0.09
291
     1
 43
0.36
  3
Standard
 44
0.18
300

342
11
174
     1
178
     6
175
     1
176
     0
 93
-1056964608
 45
0.18
292
     0
297
     0
 46
0.18
 94
-1056964608
 47
1.0
 49
1.0
140
1.0
293
     1
141
0.0
294
     1
177
     0
142
1.0
295
     0
296
     0
143
0.125
1001
ACAD_MLEADERVER
1070
     2
  0
MLINESTYLE
  5
18
102
{ACAD_REACTORS
330
17
102
}
330
17
100
AcDbMlineStyle
  2
STANDARD
 70
     0
  3

 62
   256
 51
90.0
 52
90.0
 71
     2
 49
0.5
 62
   256
  6
BYLAYER
 49
-0.5
 62
   256
  6
BYLAYER
  0
ACDBPLACEHOLDER
  5
F
102
{ACAD_REACTORS
330
E
102
}
330
E
  0
SCALE
  5
3B1D
102
{ACAD_REACTORS
330
3B1C
102
}
330
3B1C
100
AcDbScale
 70
     0
300
1:1
140
1.0
141
1.0
290
     1
  0
SCALE
  5
3B1E
102
{ACAD_REACTORS
330
3B1C
102
}
330
3B1C
100
AcDbScale
 70
     0
300
1/128" = 1'-0"
140
0.0078125
141
12.0
290
     0
  0
SCALE
  5
3B1F
102
{ACAD_REACTORS
330
3B1C
102
}
330
3B1C
100
AcDbScale
 70
     0
300
1/64" = 1'-0"
140
0.015625
141
12.0
290
     0
  0
SCALE
  5
3B20
102
{ACAD_REACTORS
330
3B1C
102
}
330
3B1C
100
AcDbScale
 70
     0
300
1/32" = 1'-0"
140
0.03125
141
12.0
290
     0
  0
SCALE
  5
3B21
102
{ACAD_REACTORS
330
3B1C
102
}
330
3B1C
100
AcDbScale
 70
     0
300
1/16" = 1'-0"
140
0.0625
141
12.0
290
     0
  0
SCALE
  5
3B22
102
{ACAD_REACTORS
330
3B1C
102
}
330
3B1C
100
AcDbScale
 70
     0
300
3/32" = 1'-0"
140
0.09375
141
12.0
290
     0
  0
SCALE
  5
3B23
102
{ACAD_REACTORS
330
3B1C
102
}
330
3B1C
100
AcDbScale
 70
     0
300
1/8" = 1'-0"
140
0.125
141
12.0
290
     0
  0
SCALE
  5
3B24
102
{ACAD_REACTORS
330
3B1C
102
}
330
3B1C
100
AcDbScale
 70
     0
300
3/16" = 1'-0"
140
0.1875
141
12.0
290
     0
  0
SCALE
  5
3B25
102
{ACAD_REACTORS
330
3B1C
102
}
330
3B1C
100
AcDbScale
 70
     0
300
1/4" = 1'-0"
140
0.25
141
12.0
290
     0
  0
SCALE
  5
3B26
102
{ACAD_REACTORS
330
3B1C
102
}
330
3B1C
100
AcDbScale
 70
     0
300
3/8" = 1'-0"
140
0.375
141
12.0
290
     0
  0
SCALE
  5
3B27
102
{ACAD_REACTORS
330
3B1C
102
}
330
3B1C
100
AcDbScale
 70
     0
300
1/2" = 1'-0"
140
0.5
141
12.0
290
     0
  0
SCALE
  5
3B28
102
{ACAD_REACTORS
330
3B1C
102
}
330
3B1C
100
AcDbScale
 70
     0
300
3/4" = 1'-0"
140
0.75
141
12.0
290
     0
  0
SCALE
  5
3B29
102
{ACAD_REACTORS
330
3B1C
102
}
330
3B1C
100
AcDbScale
 70
     0
300
1" = 1'-0"
140
1.0
141
12.0
290
     0
  0
SCALE
  5
3B2A
102
{ACAD_REACTORS
330
3B1C
102
}
330
3B1C
100
AcDbScale
 70
     0
300
1-1/2" = 1'-0"
140
1.5
141
12.0
290
     0
  0
SCALE
  5
3B2B
102
{ACAD_REACTORS
330
3B1C
102
}
330
3B1C
100
AcDbScale
 70
     0
300
3" = 1'-0"
140
3.0
141
12.0
290
     0
  0
SCALE
  5
3B2C
102
{ACAD_REACTORS
330
3B1C
102
}
330
3B1C
100
AcDbScale
 70
     0
300
6" = 1'-0"
140
6.0
141
12.0
290
     0
  0
SCALE
  5
3B2D
102
{ACAD_REACTORS
330
3B1C
102
}
330
3B1C
100
AcDbScale
 70
     0
300
1'-0" = 1'-0"
140
12.0
141
12.0
290
     0
  0
ACDBSECTIONVIEWSTYLE
  5
3B31
102
{ACAD_XDICTIONARY
360
484B
102
}
102
{ACAD_REACTORS
330
3B30
102
}
330
3B30
100
AcDbModelDocViewStyle
 70
     0
  3
Imperial24
290
     0
100
AcDbSectionViewStyle
 70
     0
 71
     0
 90
       78
 71
     1
340
11
 62
   256
 40
0.24
340
0
340
0
 62
   256
 40
0.24
300
I, O, Q, S, X, Z
 40
0.48
 90
        3
 40
0.18
 90
        1
 71
     2
340
16
 90
       25
 62
   256
340
16
 90
       50
 62
   256
 40
0.24
 40
0.0
 40
0.24
 71
     3
340
11
 62
   256
 40
0.24
 90
        1
 40
0.75
 90
        1
300
%<\AcVar ViewType \f "%tc1">% %<\AcVar ViewSectionStartId>%-%<\AcVar ViewSectionEndId>%\PSCALE %<\AcVar ViewScale \f "%sn">%
 71
     4
 62
   256
 62
   257
300
ANSI31
 40
1.0
 90
        0
290
     0
290
     0
 90
        6
 40
0.0
 40
1.570796326794896
 40
0.2617993877991494
 40
1.308996938995747
 40
-0.2617993877991494
 40
1.832595714594046
  0
TABLESTYLE
  5
3B1B
102
{ACAD_XDICTIONARY
360
3DA9
102
}
102
{ACAD_REACTORS
330
3B1A
102
}
330
3B1A
100
AcDbTableStyle
  3
Standard
 70
     0
 71
     0
 40
0.06
 41
0.06
280
     0
281
     0
  7
Standard
140
0.18
170
     2
 62
     0
 63
     7
283
     0
 90
      512
 91
        0
  1

274
    -2
284
     1
 64
     0
275
    -2
285
     1
 65
     0
276
    -2
286
     1
 66
     0
277
    -2
287
     1
 67
     0
278
    -2
288
     1
 68
     0
279
    -2
289
     1
 69
     0
  7
Standard
140
0.25
170
     5
 62
     0
 63
     7
283
     0
 90
      512
 91
        0
  1

274
    -2
284
     1
 64
     0
275
    -2
285
     1
 65
     0
276
    -2
286
     1
 66
     0
277
    -2
287
     1
 67
     0
278
    -2
288
     1
 68
     0
279
    -2
289
     1
 69
     0
  7
Standard
140
0.18
170
     5
 62
     0
 63
     7
283
     0
 90
      512
 91
        0
  1

274
    -2
284
     1
 64
     0
275
    -2
285
     1
 65
     0
276
    -2
286
     1
 66
     0
277
    -2
287
     1
 67
     0
278
    -2
288
     1
 68
     0
279
    -2
289
     1
 69
     0
  0
VISUALSTYLE
  5
3B06
102
{ACAD_XDICTIONARY
360
4823
102
}
102
{ACAD_REACTORS
330
3B00
102
}
330
3B00
100
AcDbVisualStyle
  2
2dWireframe
 70
     4
 71
     0
 72
     2
 73
     0
 90
        0
 40
-0.6
 41
-30.0
 62
     5
 63
     7
 74
     1
 91
        4
 64
     7
 65
   257
 75
     1
175
     1
 42
1.0
 92
        0
 66
   257
 43
1.0
 76
     1
 77
     6
 78
     2
 67
     7
 79
     5
170
     0
171
     0
290
     0
174
     0
 93
        1
 44
0.0
173
     0
291
     0
 45
0.0
1001
ACAD
1000
AcDbSavedByObjectVersion
1070
     0
  0
VISUALSTYLE
  5
3B05
102
{ACAD_XDICTIONARY
360
4821
102
}
102
{ACAD_REACTORS
330
3B00
102
}
330
3B00
100
AcDbVisualStyle
  2
Basic
 70
     7
 71
     1
 72
     0
 73
     1
 90
        0
 40
-0.6
 41
-30.0
 62
     5
 63
     7
 74
     0
 91
        4
 64
     7
 65
   257
 75
     1
175
     1
 42
1.0
 92
        8
 66
     7
 43
1.0
 76
     1
 77
     6
 78
     2
 67
     7
 79
     5
170
     0
171
     0
290
     0
174
     0
 93
        1
 44
0.0
173
     0
291
     1
 45
0.0
1001
ACAD
1000
AcDbSavedByObjectVersion
1070
     0
  0
VISUALSTYLE
  5
3B0C
102
{ACAD_XDICTIONARY
360
482F
102
}
102
{ACAD_REACTORS
330
3B00
102
}
330
3B00
100
AcDbVisualStyle
  2
Brighten
 70
    12
 71
     2
 72
     2
 73
     0
 90
        0
 40
-0.6
 41
-30.0
 62
     5
 63
     7
 74
     1
 91
        4
 64
     7
 65
   257
 75
     1
175
     1
 42
1.0
 92
        8
 66
     7
 43
1.0
 76
     1
 77
     6
 78
     2
 67
     7
 79
     5
170
     0
171
     0
290
     0
174
     0
 93
        1
 44
50.0
173
     0
291
     1
 45
0.0
1001
ACAD
1000
AcDbSavedByObjectVersion
1070
     0
  0
VISUALSTYLE
  5
3B10
102
{ACAD_XDICTIONARY
360
4837
102
}
102
{ACAD_REACTORS
330
3B00
102
}
330
3B00
100
AcDbVisualStyle
  2
ColorChange
 70
    16
 71
     2
 72
     2
 73
     3
 90
        0
 40
-0.6
 41
-30.0
 62
     5
 63
     8
 74
     1
 91
        4
 64
     7
 65
   257
 75
     1
175
     1
 42
1.0
 92
        8
 66
     8
 43
1.0
 76
     1
 77
     6
 78
     2
 67
     7
 79
     5
170
     0
171
     0
290
     0
174
     0
 93
        1
 44
0.0
173
     0
291
     1
 45
0.0
1001
ACAD
1000
AcDbSavedByObjectVersion
1070
     0
  0
VISUALSTYLE
  5
3B09
102
{ACAD_XDICTIONARY
360
4829
102
}
102
{ACAD_REACTORS
330
3B00
102
}
330
3B00
100
AcDbVisualStyle
  2
Conceptual
 70
     9
 71
     3
 72
     2
 73
     0
 90
        0
 40
-0.6
 41
-30.0
 62
     5
 63
     7
 74
     2
 91
        2
 64
     7
 65
   257
 75
     1
175
     1
 42
179.0
 92
        8
 66
     7
 43
1.0
 76
     1
 77
     6
 78
     2
 67
     7
 79
     3
170
     0
171
     0
290
     0
174
     0
 93
        1
 44
0.0
173
     0
291
     0
 45
0.0
1001
ACAD
1000
AcDbSavedByObjectVersion
1070
     0
  0
VISUALSTYLE
  5
3B0B
102
{ACAD_XDICTIONARY
360
482D
102
}
102
{ACAD_REACTORS
330
3B00
102
}
330
3B00
100
AcDbVisualStyle
  2
Dim
 70
    11
 71
     2
 72
     2
 73
     0
 90
        0
 40
-0.6
 41
-30.0
 62
     5
 63
     7
 74
     1
 91
        4
 64
     7
 65
   257
 75
     1
175
     1
 42
1.0
 92
        8
 66
     7
 43
1.0
 76
     1
 77
     6
 78
     2
 67
     7
 79
     5
170
     0
171
     0
290
     0
174
     0
 93
        1
 44
-50.0
173
     0
291
     1
 45
0.0
1001
ACAD
1000
AcDbSavedByObjectVersion
1070
     0
  0
VISUALSTYLE
  5
3B18
102
{ACAD_XDICTIONARY
360
4847
102
}
102
{ACAD_REACTORS
330
3B00
102
}
330
3B00
100
AcDbVisualStyle
  2
EdgeColorOff
 70
    22
 71
     2
 72
     2
 73
     0
 90
        0
 40
-0.6
 41
-30.0
 62
     5
 63
     7
 74
     1
 91
        4
 64
     7
 65
   257
 75
     1
175
     1
 42
1.0
 92
        8
 66
     7
 43
1.0
 76
     1
 77
     6
 78
     2
 67
     7
 79
     5
170
     0
171
     0
290
     0
174
     0
 93
        1
 44
0.0
173
     0
291
     1
 45
0.0
1001
ACAD
1000
AcDbSavedByObjectVersion
1070
     0
  0
VISUALSTYLE
  5
3B0F
102
{ACAD_XDICTIONARY
360
4835
102
}
102
{ACAD_REACTORS
330
3B00
102
}
330
3B00
100
AcDbVisualStyle
  2
Facepattern
 70
    15
 71
     2
 72
     2
 73
     0
 90
        0
 40
-0.6
 41
-30.0
 62
     5
 63
     7
 74
     1
 91
        4
 64
     7
 65
   257
 75
     1
175
     1
 42
1.0
 92
        8
 66
     7
 43
1.0
 76
     1
 77
     6
 78
     2
 67
     7
 79
     5
170
     0
171
     0
290
     0
174
     0
 93
        1
 44
0.0
173
     0
291
     1
 45
0.0
1001
ACAD
1000
AcDbSavedByObjectVersion
1070
     0
  0
VISUALSTYLE
  5
3B01
102
{ACAD_XDICTIONARY
360
4819
102
}
102
{ACAD_REACTORS
330
3B00
102
}
330
3B00
100
AcDbVisualStyle
  2
Flat
 70
     0
 71
     2
 72
     1
 73
     1
 90
        2
 40
-0.6
 41
30.0
 62
     5
 63
     7
 74
     0
 91
        0
 64
     7
 65
   257
 75
     1
175
     1
 42
1.0
 92
        8
 66
     7
 43
1.0
 76
     1
 77
     6
 78
     2
 67
     7
 79
     5
170
     0
171
     0
290
     0
174
     0
 93
       13
 44
0.0
173
     0
291
     1
 45
0.0
1001
ACAD
1000
AcDbSavedByObjectVersion
1070
     0
  0
VISUALSTYLE
  5
3B02
102
{ACAD_XDICTIONARY
360
481B
102
}
102
{ACAD_REACTORS
330
3B00
102
}
330
3B00
100
AcDbVisualStyle
  2
FlatWithEdges
 70
     1
 71
     2
 72
     1
 73
     1
 90
        2
 40
-0.6
 41
30.0
 62
     5
 63
     7
 74
     1
 91
        0
 64
     7
 65
   257
 75
     1
175
     1
 42
1.0
 92
        0
 66
   257
 43
1.0
 76
     1
 77
     6
 78
     2
 67
     7
 79
     5
170
     0
171
     0
290
     0
174
     0
 93
       13
 44
0.0
173
     0
291
     1
 45
0.0
1001
ACAD
1000
AcDbSavedByObjectVersion
1070
     0
  0
VISUALSTYLE
  5
3B03
102
{ACAD_XDICTIONARY
360
481D
102
}
102
{ACAD_REACTORS
330
3B00
102
}
330
3B00
100
AcDbVisualStyle
  2
Gouraud
 70
     2
 71
     2
 72
     2
 73
     1
 90
        2
 40
-0.6
 41
30.0
 62
     5
 63
     7
 74
     0
 91
        0
 64
     7
 65
   257
 75
     1
175
     1
 42
1.0
 92
        0
 66
     7
 43
1.0
 76
     1
 77
     6
 78
     2
 67
     7
 79
     5
170
     0
171
     0
290
     0
174
     0
 93
       13
 44
0.0
173
     0
291
     1
 45
0.0
1001
ACAD
1000
AcDbSavedByObjectVersion
1070
     0
  0
VISUALSTYLE
  5
3B04
102
{ACAD_XDICTIONARY
360
481F
102
}
102
{ACAD_REACTORS
330
3B00
102
}
330
3B00
100
AcDbVisualStyle
  2
GouraudWithEdges
 70
     3
 71
     2
 72
     2
 73
     1
 90
        2
 40
-0.6
 41
30.0
 62
     5
 63
     7
 74
     1
 91
        0
 64
     7
 65
   257
 75
     1
175
     1
 42
1.0
 92
        0
 66
   257
 43
1.0
 76
     1
 77
     6
 78
     2
 67
     7
 79
     5
170
     0
171
     0
290
     0
174
     0
 93
       13
 44
0.0
173
     0
291
     1
 45
0.0
1001
ACAD
1000
AcDbSavedByObjectVersion
1070
     0
  0
VISUALSTYLE
  5
3B08
102
{ACAD_XDICTIONARY
360
4827
102
}
102
{ACAD_REACTORS
330
3B00
102
}
330
3B00
100
AcDbVisualStyle
  2
Hidden
 70
     6
 71
     1
 72
     2
 73
     2
 90
        0
 40
-0.6
 41
-30.0
 62
     5
 63
     7
 74
     2
 91
        2
 64
     7
 65
   257
 75
     2
175
     1
 42
40.0
 92
        0
 66
   257
 43
1.0
 76
     1
 77
     6
 78
     2
 67
     7
 79
     3
170
     0
171
     0
290
     0
174
     0
 93
        1
 44
0.0
173
     0
291
     0
 45
0.0
1001
ACAD
1000
AcDbSavedByObjectVersion
1070
     0
  0
VISUALSTYLE
  5
3B16
102
{ACAD_XDICTIONARY
360
4843
102
}
102
{ACAD_REACTORS
330
3B00
102
}
330
3B00
100
AcDbVisualStyle
  2
JitterOff
 70
    20
 71
     2
 72
     2
 73
     0
 90
        0
 40
-0.6
 41
-30.0
 62
     5
 63
     7
 74
     1
 91
        4
 64
     7
 65
   257
 75
     1
175
     1
 42
1.0
 92
       10
 66
     7
 43
1.0
 76
     1
 77
     6
 78
     2
 67
     7
 79
     5
170
     0
171
     0
290
     0
174
     0
 93
        1
 44
0.0
173
     0
291
     1
 45
0.0
1001
ACAD
1000
AcDbSavedByObjectVersion
1070
     0
  0
VISUALSTYLE
  5
3B0E
102
{ACAD_XDICTIONARY
360
4833
102
}
102
{ACAD_REACTORS
330
3B00
102
}
330
3B00
100
AcDbVisualStyle
  2
Linepattern
 70
    14
 71
     2
 72
     2
 73
     0
 90
        0
 40
-0.6
 41
-30.0
 62
     5
 63
     7
 74
     1
 91
        4
 64
     7
 65
   257
 75
     7
175
     7
 42
1.0
 92
        8
 66
     7
 43
1.0
 76
     1
 77
     6
 78
     2
 67
     7
 79
     5
170
     0
171
     0
290
     0
174
     0
 93
        1
 44
0.0
173
     0
291
     1
 45
0.0
1001
ACAD
1000
AcDbSavedByObjectVersion
1070
     0
  0
VISUALSTYLE
  5
3B17
102
{ACAD_XDICTIONARY
360
4845
102
}
102
{ACAD_REACTORS
330
3B00
102
}
330
3B00
100
AcDbVisualStyle
  2
OverhangOff
 70
    21
 71
     2
 72
     2
 73
     0
 90
        0
 40
-0.6
 41
-30.0
 62
     5
 63
     7
 74
     1
 91
        4
 64
     7
 65
   257
 75
     1
175
     1
 42
1.0
 92
        9
 66
     7
 43
1.0
 76
     1
 77
     6
 78
     2
 67
     7
 79
     5
170
     0
171
     0
290
     0
174
     0
 93
        1
 44
0.0
173
     0
291
     1
 45
0.0
1001
ACAD
1000
AcDbSavedByObjectVersion
1070
     0
  0
VISUALSTYLE
  5
3B0A
102
{ACAD_XDICTIONARY
360
482B
102
}
102
{ACAD_REACTORS
330
3B00
102
}
330
3B00
100
AcDbVisualStyle
  2
Realistic
 70
     8
 71
     2
 72
     2
 73
     0
 90
        2
 40
-0.6
 41
30.0
 62
     5
 63
     7
 74
     0
 91
        0
 64
     7
 65
   257
 75
     1
175
     1
 42
1.0
 92
        8
 66
   257
 43
1.0
 76
     1
 77
     6
 78
     2
 67
     7
 79
     3
170
     0
171
     0
290
     0
174
     0
 93
       13
 44
0.0
173
     0
291
     0
 45
0.0
1001
ACAD
1000
AcDbSavedByObjectVersion
1070
     0
  0
VISUALSTYLE
  5
3B15
102
{ACAD_XDICTIONARY
360
4841
102
}
102
{ACAD_REACTORS
330
3B00
102
}
330
3B00
100
AcDbVisualStyle
  2
Shaded
 70
    27
 71
     2
 72
     2
 73
     1
 90
        2
 40
-0.6
 41
30.0
 62
     5
 63
     7
 74
     0
 91
        4
 64
     7
 65
   257
 75
     1
175
     1
 42
1.0
 92
        8
 66
   257
 43
1.0
 76
     1
 77
     6
 78
     2
 67
     8
 79
     3
170
     0
171
     0
290
     0
174
     0
 93
        5
 44
0.0
173
     0
291
     0
 45
0.0
1001
ACAD
1000
AcDbSavedByObjectVersion
1070
     0
  0
VISUALSTYLE
  5
3B14
102
{ACAD_XDICTIONARY
360
483F
102
}
102
{ACAD_REACTORS
330
3B00
102
}
330
3B00
100
AcDbVisualStyle
  2
Shaded with edges
 70
    26
 71
     2
 72
     2
 73
     1
 90
        2
 40
-0.6
 41
30.0
 62
     5
 63
     7
 74
     1
 91
       10
 64
     7
 65
   257
 75
     2
175
     1
 42
1.0
 92
        8
 66
   257
 43
1.0
 76
     1
 77
     6
 78
     2
 67
     7
 79
     3
170
     0
171
     0
290
     0
174
     0
 93
        5
 44
0.0
173
     0
291
     0
 45
0.0
1001
ACAD
1000
AcDbSavedByObjectVersion
1070
     0
  0
VISUALSTYLE
  5
3B11
102
{ACAD_XDICTIONARY
360
4839
102
}
102
{ACAD_REACTORS
330
3B00
102
}
330
3B00
100
AcDbVisualStyle
  2
Shades of Gray
 70
    23
 71
     2
 72
     2
 73
     3
 90
        0
 40
-0.6
 41
-30.0
 62
     5
 63
     7
 74
     2
 91
        2
 64
     7
 65
     7
 75
     1
175
     1
 42
40.0
 92
        8
 66
     7
 43
1.0
 76
     1
 77
     6
 78
     2
 67
     7
 79
     3
170
     0
171
     0
290
     0
174
     0
 93
        1
 44
0.0
173
     0
291
     0
 45
0.0
1001
ACAD
1000
AcDbSavedByObjectVersion
1070
     0
  0
VISUALSTYLE
  5
3B12
102
{ACAD_XDICTIONARY
360
483B
102
}
102
{ACAD_REACTORS
330
3B00
102
}
330
3B00
100
AcDbVisualStyle
  2
Sketchy
 70
    24
 71
     1
 72
     2
 73
     2
 90
        0
 40
-0.6
 41
-30.0
 62
     5
 63
     7
 74
     2
 91
        2
 64
     7
 65
     7
 75
     1
175
     1
 42
40.0
 92
       11
 66
     7
 43
1.0
 76
     1
 77
     6
 78
     2
 67
     7
 79
     6
170
     0
171
     0
290
     0
174
     0
 93
        1
 44
0.0
173
     0
291
     0
 45
0.0
1001
ACAD
1000
AcDbSavedByObjectVersion
1070
     0
  0
VISUALSTYLE
  5
3B0D
102
{ACAD_XDICTIONARY
360
4831
102
}
102
{ACAD_REACTORS
330
3B00
102
}
330
3B00
100
AcDbVisualStyle
  2
Thicken
 70
    13
 71
     2
 72
     2
 73
     0
 90
        0
 40
-0.6
 41
-30.0
 62
     5
 63
     7
 74
     1
 91
        4
 64
     7
 65
   257
 75
     1
175
     1
 42
1.0
 92
       12
 66
     7
 43
1.0
 76
     1
 77
     6
 78
     2
 67
     7
 79
     5
170
     0
171
     0
290
     0
174
     0
 93
        1
 44
0.0
173
     0
291
     1
 45
0.0
1001
ACAD
1000
AcDbSavedByObjectVersion
1070
     0
  0
VISUALSTYLE
  5
3B07
102
{ACAD_XDICTIONARY
360
4825
102
}
102
{ACAD_REACTORS
330
3B00
102
}
330
3B00
100
AcDbVisualStyle
  2
Wireframe
 70
     5
 71
     0
 72
     2
 73
     0
 90
        0
 40
-0.6
 41
-30.0
 62
     5
 63
     7
 74
     1
 91
        4
 64
     7
 65
   257
 75
     1
175
     1
 42
1.0
 92
        0
 66
   257
 43
1.0
 76
     1
 77
     6
 78
     2
 67
     7
 79
     3
170
     0
171
     0
290
     0
174
     0
 93
        1
 44
0.0
173
     0
291
     0
 45
0.0
1001
ACAD
1000
AcDbSavedByObjectVersion
1070
     0
  0
VISUALSTYLE
  5
3B13
102
{ACAD_XDICTIONARY
360
483D
102
}
102
{ACAD_REACTORS
330
3B00
102
}
330
3B00
100
AcDbVisualStyle
  2
X-Ray
 70
    25
 71
     2
 72
     2
 73
     1
 90
        1
 40
0.5
 41
-30.0
 62
     5
 63
     7
 74
     1
 91
        0
 64
     7
 65
   257
 75
     1
175
     1
 42
1.0
 92
        8
 66
     7
 43
1.0
 76
     1
 77
     6
 78
     2
 67
     7
 79
     3
170
     0
171
     0
290
     0
174
     0
 93
       13
 44
0.0
173
     0
291
     0
 45
0.0
1001
ACAD
1000
AcDbSavedByObjectVersion
1070
     0
  0
DICTIONARYVAR
  5
3DFC
102
{ACAD_REACTORS
330
1C9
102
}
330
1C9
100
DictionaryVariables
280
     0
  1
1:1
  0
DICTIONARYVAR
  5
3DF9
102
{ACAD_REACTORS
330
1C9
102
}
330
1C9
100
DictionaryVariables
280
     0
  1
STANDARD
  0
DICTIONARYVAR
  5
3DF8
102
{ACAD_REACTORS
330
1C9
102
}
330
1C9
100
DictionaryVariables
280
     0
  1
STANDARD
  0
DICTIONARYVAR
  5
3DFA
102
{ACAD_REACTORS
330
1C9
102
}
330
1C9
100
DictionaryVariables
280
     0
  1
Imperial24
  0
DICTIONARYVAR
  5
3DFB
102
{ACAD_REACTORS
330
1C9
102
}
330
1C9
100
DictionaryVariables
280
     0
  1
Imperial24
  0
DICTIONARYVAR
  5
3DFE
102
{ACAD_REACTORS
330
1C9
102
}
330
1C9
100
DictionaryVariables
280
     0
  1
1
  0
DICTIONARYVAR
  5
3DFD
102
{ACAD_REACTORS
330
1C9
102
}
330
1C9
100
DictionaryVariables
280
     0
  1
0
  0
DICTIONARYVAR
  5
4809
102
{ACAD_REACTORS
330
1C9
102
}
330
1C9
100
DictionaryVariables
280
     0
  1
1
  0
DICTIONARYVAR
  5
480A
102
{ACAD_REACTORS
330
1C9
102
}
330
1C9
100
DictionaryVariables
280
     0
  1
15
  0
DICTIONARYVAR
  5
4808
102
{ACAD_REACTORS
330
1C9
102
}
330
1C9
100
DictionaryVariables
280
     0
  1
0
  0
DICTIONARYVAR
  5
4807
102
{ACAD_REACTORS
330
1C9
102
}
330
1C9
100
DictionaryVariables
280
     0
  1
0
  0
DICTIONARYVAR
  5
1CA
102
{ACAD_REACTORS
330
1C9
102
}
330
1C9
100
DictionaryVariables
280
     0
  1
127
  0
DICTIONARYVAR
  5
4816
102
{ACAD_REACTORS
330
1C9
102
}
330
1C9
100
DictionaryVariables
280
     0
  1
2
  0
DICTIONARY
  5
484D
330
3B33
100
AcDbDictionary
280
     1
281
     1
  3
ACAD_XREC_ROUNDTRIP
360
484E
  0
DICTIONARY
  5
3AF1
330
3AF0
100
AcDbDictionary
280
     1
281
     1
  3
BUMPTILE
360
3AF3
  3
DIFFUSETILE
360
3AF2
  3
OPACITYTILE
360
3AF6
  3
REFLECTIONTILE
360
3AF5
  3
REFRACTIONTILE
360
3AF7
  3
SPECULARTILE
360
3AF4
  0
DICTIONARY
  5
3AE9
330
3AE8
100
AcDbDictionary
280
     1
281
     1
  3
BUMPTILE
360
3AEB
  3
DIFFUSETILE
360
3AEA
  3
OPACITYTILE
360
3AEE
  3
REFLECTIONTILE
360
3AED
  3
REFRACTIONTILE
360
3AEF
  3
SPECULARTILE
360
3AEC
  0
DICTIONARY
  5
3AF9
330
3AF8
100
AcDbDictionary
280
     1
281
     1
  3
BUMPTILE
360
3AFB
  3
DIFFUSETILE
360
3AFA
  3
OPACITYTILE
360
3AFE
  3
REFLECTIONTILE
360
3AFD
  3
REFRACTIONTILE
360
3AFF
  3
SPECULARTILE
360
3AFC
  0
DICTIONARY
  5
4849
330
3B2F
100
AcDbDictionary
280
     1
281
     1
  3
ACAD_XREC_ROUNDTRIP
360
484A
  0
DICTIONARY
  5
484B
330
3B31
100
AcDbDictionary
280
     1
281
     1
  3
ACAD_XREC_ROUNDTRIP
360
484C
  0
DICTIONARY
  5
3DA9
330
3B1B
100
AcDbDictionary
280
     1
281
     1
  3
ACAD_ROUNDTRIP_2008_TABLESTYLE_CELLSTYLEMAP
360
4817
  0
DICTIONARY
  5
4823
330
3B06
100
AcDbDictionary
280
     1
281
     1
  3
ACAD_XREC_ROUNDTRIP
360
4824
  0
DICTIONARY
  5
4821
330
3B05
100
AcDbDictionary
280
     1
281
     1
  3
ACAD_XREC_ROUNDTRIP
360
4822
  0
DICTIONARY
  5
482F
330
3B0C
100
AcDbDictionary
280
     1
281
     1
  3
ACAD_XREC_ROUNDTRIP
360
4830
  0
DICTIONARY
  5
4837
330
3B10
100
AcDbDictionary
280
     1
281
     1
  3
ACAD_XREC_ROUNDTRIP
360
4838
  0
DICTIONARY
  5
4829
330
3B09
100
AcDbDictionary
280
     1
281
     1
  3
ACAD_XREC_ROUNDTRIP
360
482A
  0
DICTIONARY
  5
482D
330
3B0B
100
AcDbDictionary
280
     1
281
     1
  3
ACAD_XREC_ROUNDTRIP
360
482E
  0
DICTIONARY
  5
4847
330
3B18
100
AcDbDictionary
280
     1
281
     1
  3
ACAD_XREC_ROUNDTRIP
360
4848
  0
DICTIONARY
  5
4835
330
3B0F
100
AcDbDictionary
280
     1
281
     1
  3
ACAD_XREC_ROUNDTRIP
360
4836
  0
DICTIONARY
  5
4819
330
3B01
100
AcDbDictionary
280
     1
281
     1
  3
ACAD_XREC_ROUNDTRIP
360
481A
  0
DICTIONARY
  5
481B
330
3B02
100
AcDbDictionary
280
     1
281
     1
  3
ACAD_XREC_ROUNDTRIP
360
481C
  0
DICTIONARY
  5
481D
330
3B03
100
AcDbDictionary
280
     1
281
     1
  3
ACAD_XREC_ROUNDTRIP
360
481E
  0
DICTIONARY
  5
481F
330
3B04
100
AcDbDictionary
280
     1
281
     1
  3
ACAD_XREC_ROUNDTRIP
360
4820
  0
DICTIONARY
  5
4827
330
3B08
100
AcDbDictionary
280
     1
281
     1
  3
ACAD_XREC_ROUNDTRIP
360
4828
  0
DICTIONARY
  5
4843
330
3B16
100
AcDbDictionary
280
     1
281
     1
  3
ACAD_XREC_ROUNDTRIP
360
4844
  0
DICTIONARY
  5
4833
330
3B0E
100
AcDbDictionary
280
     1
281
     1
  3
ACAD_XREC_ROUNDTRIP
360
4834
  0
DICTIONARY
  5
4845
330
3B17
100
AcDbDictionary
280
     1
281
     1
  3
ACAD_XREC_ROUNDTRIP
360
4846
  0
DICTIONARY
  5
482B
330
3B0A
100
AcDbDictionary
280
     1
281
     1
  3
ACAD_XREC_ROUNDTRIP
360
482C
  0
DICTIONARY
  5
4841
330
3B15
100
AcDbDictionary
280
     1
281
     1
  3
ACAD_XREC_ROUNDTRIP
360
4842
  0
DICTIONARY
  5
483F
330
3B14
100
AcDbDictionary
280
     1
281
     1
  3
ACAD_XREC_ROUNDTRIP
360
4840
  0
DICTIONARY
  5
4839
330
3B11
100
AcDbDictionary
280
     1
281
     1
  3
ACAD_XREC_ROUNDTRIP
360
483A
  0
DICTIONARY
  5
483B
330
3B12
100
AcDbDictionary
280
     1
281
     1
  3
ACAD_XREC_ROUNDTRIP
360
483C
  0
DICTIONARY
  5
4831
330
3B0D
100
AcDbDictionary
280
     1
281
     1
  3
ACAD_XREC_ROUNDTRIP
360
4832
  0
DICTIONARY
  5
4825
330
3B07
100
AcDbDictionary
280
     1
281
     1
  3
ACAD_XREC_ROUNDTRIP
360
4826
  0
DICTIONARY
  5
483D
330
3B13
100
AcDbDictionary
280
     1
281
     1
  3
ACAD_XREC_ROUNDTRIP
360
483E
  0
XRECORD
  5
484E
102
{ACAD_REACTORS
330
484D
102
}
330
484D
100
AcDbXrecord
280
     1
102
DISPLAYNAME
  1
Imperial24
102
FLAGS
 90
        0
  0
XRECORD
  5
3AF3
102
{ACAD_REACTORS
330
3AF1
102
}
330
3AF1
100
AcDbXrecord
280
     1
270
     1
271
     1
  0
XRECORD
  5
3AF2
102
{ACAD_REACTORS
330
3AF1
102
}
330
3AF1
100
AcDbXrecord
280
     1
270
     1
271
     1
  0
XRECORD
  5
3AF6
102
{ACAD_REACTORS
330
3AF1
102
}
330
3AF1
100
AcDbXrecord
280
     1
270
     1
271
     1
  0
XRECORD
  5
3AF5
102
{ACAD_REACTORS
330
3AF1
102
}
330
3AF1
100
AcDbXrecord
280
     1
270
     1
271
     1
  0
XRECORD
  5
3AF7
102
{ACAD_REACTORS
330
3AF1
102
}
330
3AF1
100
AcDbXrecord
280
     1
270
     1
271
     1
  0
XRECORD
  5
3AF4
102
{ACAD_REACTORS
330
3AF1
102
}
330
3AF1
100
AcDbXrecord
280
     1
270
     1
271
     1
  0
XRECORD
  5
3AEB
102
{ACAD_REACTORS
330
3AE9
102
}
330
3AE9
100
AcDbXrecord
280
     1
270
     1
271
     1
  0
XRECORD
  5
3AEA
102
{ACAD_REACTORS
330
3AE9
102
}
330
3AE9
100
AcDbXrecord
280
     1
270
     1
271
     1
  0
XRECORD
  5
3AEE
102
{ACAD_REACTORS
330
3AE9
102
}
330
3AE9
100
AcDbXrecord
280
     1
270
     1
271
     1
  0
XRECORD
  5
3AED
102
{ACAD_REACTORS
330
3AE9
102
}
330
3AE9
100
AcDbXrecord
280
     1
270
     1
271
     1
  0
XRECORD
  5
3AEF
102
{ACAD_REACTORS
330
3AE9
102
}
330
3AE9
100
AcDbXrecord
280
     1
270
     1
271
     1
  0
XRECORD
  5
3AEC
102
{ACAD_REACTORS
330
3AE9
102
}
330
3AE9
100
AcDbXrecord
280
     1
270
     1
271
     1
  0
XRECORD
  5
3AFB
102
{ACAD_REACTORS
330
3AF9
102
}
330
3AF9
100
AcDbXrecord
280
     1
270
     1
271
     1
  0
XRECORD
  5
3AFA
102
{ACAD_REACTORS
330
3AF9
102
}
330
3AF9
100
AcDbXrecord
280
     1
270
     1
271
     1
  0
XRECORD
  5
3AFE
102
{ACAD_REACTORS
330
3AF9
102
}
330
3AF9
100
AcDbXrecord
280
     1
270
     1
271
     1
  0
XRECORD
  5
3AFD
102
{ACAD_REACTORS
330
3AF9
102
}
330
3AF9
100
AcDbXrecord
280
     1
270
     1
271
     1
  0
XRECORD
  5
3AFF
102
{ACAD_REACTORS
330
3AF9
102
}
330
3AF9
100
AcDbXrecord
280
     1
270
     1
271
     1
  0
XRECORD
  5
3AFC
102
{ACAD_REACTORS
330
3AF9
102
}
330
3AF9
100
AcDbXrecord
280
     1
270
     1
271
     1
  0
XRECORD
  5
484A
102
{ACAD_REACTORS
330
4849
102
}
330
4849
100
AcDbXrecord
280
     1
102
ACAD_ROUNDTRIP_2012_MLEADER_STYLE
298
     1
  0
XRECORD
  5
484C
102
{ACAD_REACTORS
330
484B
102
}
330
484B
100
AcDbXrecord
280
     1
102
DISPLAYNAME
  1
Imperial24
102
FLAGS
 90
        0
  0
CELLSTYLEMAP
  5
4817
102
{ACAD_REACTORS
330
3DA9
102
}
330
3DA9
100
AcDbCellStyleMap
 90
        3
300
CELLSTYLE
  1
TABLEFORMAT_BEGIN
 90
        5
170
     1
 91
        0
 92
    32768
 62
   257
 93
        1
300
CONTENTFORMAT
  1
CONTENTFORMAT_BEGIN
 90
        0
 91
        0
 92
      512
 93
        0
300

 40
0.0
140
1.0
 94
        5
 62
     0
340
11
144
0.25
309
CONTENTFORMAT_END
171
     0
 94
        0
309
TABLEFORMAT_END
  1
CELLSTYLE_BEGIN
 90
        1
 91
        1
300
_TITLE
309
CELLSTYLE_END
300
CELLSTYLE
  1
TABLEFORMAT_BEGIN
 90
        5
170
     1
 91
        0
 92
        0
 62
   257
 93
        1
300
CONTENTFORMAT
  1
CONTENTFORMAT_BEGIN
 90
        0
 91
        0
 92
      512
 93
        0
300

 40
0.0
140
1.0
 94
        5
 62
     0
340
11
144
0.18
309
CONTENTFORMAT_END
171
     0
 94
        0
309
TABLEFORMAT_END
  1
CELLSTYLE_BEGIN
 90
        2
 91
        1
300
_HEADER
309
CELLSTYLE_END
300
CELLSTYLE
  1
TABLEFORMAT_BEGIN
 90
        5
170
     1
 91
        0
 92
        0
 62
   257
 93
        1
300
CONTENTFORMAT
  1
CONTENTFORMAT_BEGIN
 90
        0
 91
        0
 92
      512
 93
        0
300

 40
0.0
140
1.0
 94
        2
 62
     0
340
11
144
0.18
309
CONTENTFORMAT_END
171
     0
 94
        0
309
TABLEFORMAT_END
  1
CELLSTYLE_BEGIN
 90
        3
 91
        2
300
_DATA
309
CELLSTYLE_END
  0
XRECORD
  5
4824
102
{ACAD_REACTORS
330
4823
102
}
330
4823
100
AcDbXrecord
280
     1
102
RTVSPost2010Prop28
280
     1
102
RTVSPost2010PropOp28
 70
     1
102
RTVSPost2010Prop29
280
     1
102
RTVSPost2010PropOp29
 70
     1
102
RTVSPost2010Prop30
280
     0
102
RTVSPost2010PropOp30
 70
     1
102
RTVSPost2010Prop31
280
     0
102
RTVSPost2010PropOp31
 70
     1
102
RTVSPost2010Prop32
280
     0
102
RTVSPost2010PropOp32
 70
     1
102
RTVSPost2010Prop33
280
     0
102
RTVSPost2010PropOp33
 70
     1
102
RTVSPost2010Prop34
280
     0
102
RTVSPost2010PropOp34
 70
     1
102
RTVSPost2010Prop35
280
     0
102
RTVSPost2010PropOp35
 70
     1
102
RTVSPost2010Prop36
280
     0
102
RTVSPost2010PropOp36
 70
     1
102
RTVSPost2010Prop37
 90
       50
102
RTVSPost2010PropOp37
 70
     1
102
RTVSPost2010Prop38
140
0.0
102
RTVSPost2010PropOp38
 70
     1
102
RTVSPost2010Prop39
140
1.0
102
RTVSPost2010PropOp39
 70
     1
102
RTVSPost2010Prop40
 90
        0
102
RTVSPost2010PropOp40
 70
     1
102
RTVSPost2010Prop41ColorIndex
 90
       18
102
RTVSPost2010Prop41ColorRGB
 90
        0
102
RTVSPost2010PropOp41
 70
     1
102
RTVSPost2010Prop42
 90
       50
102
RTVSPost2010PropOp42
 70
     1
102
RTVSPost2010Prop43
 90
        3
102
RTVSPost2010PropOp43
 70
     1
102
RTVSPost2010Prop44ColorIndex
 90
        5
102
RTVSPost2010Prop44ColorRGB
 90
      255
102
RTVSPost2010PropOp44
 70
     1
102
RTVSPost2010Prop45
280
     0
102
RTVSPost2010PropOp45
 70
     1
102
RTVSPost2010Prop46
 90
       50
102
RTVSPost2010PropOp46
 70
     1
102
RTVSPost2010Prop47
 90
       50
102
RTVSPost2010PropOp47
 70
     1
102
RTVSPost2010Prop48
 90
       50
102
RTVSPost2010PropOp48
 70
     1
102
RTVSPost2010Prop49
280
     0
102
RTVSPost2010PropOp49
 70
     1
102
RTVSPost2010Prop50
 90
       50
102
RTVSPost2010PropOp50
 70
     1
102
RTVSPost2010Prop51ColorIndex
 90
      256
102
RTVSPost2010Prop51ColorRGB
 90
-16777216
102
RTVSPost2010PropOp51
 70
     0
102
RTVSPost2010Prop52
140
1.0
102
RTVSPost2010PropOp52
 70
     0
102
RTVSPost2010Prop53
 90
        2
102
RTVSPost2010PropOp53
 70
     1
102
RTVSPost2010Prop54
  1
strokes_ogs.tif
102
RTVSPost2010PropOp54
 70
     1
102
RTVSPost2010Prop55
280
     0
102
RTVSPost2010PropOp55
 70
     1
102
RTVSPost2010Prop56
140
1.0
102
RTVSPost2010PropOp56
 70
     1
102
RTVSPost2010Prop57
140
1.0
102
RTVSPost2010PropOp57
 70
     1
102
RTVSPropertyOp0
 70
     1
102
RTVSPropertyOp1
 70
     1
102
RTVSPropertyOp2
 70
     1
102
RTVSPropertyOp3
 70
     1
102
RTVSPropertyOp4
 70
     1
102
RTVSPropertyOp5
 70
     1
102
RTVSPropertyOp6
 70
     1
102
RTVSPropertyOp7
 70
     1
102
RTVSPropertyOp8
 70
     1
102
RTVSPropertyOp9
 70
     1
102
RTVSPropertyOp10
 70
     1
102
RTVSPropertyOp11
 70
     1
102
RTVSPropertyOp12
 70
     1
102
RTVSPropertyOp13
 70
     1
102
RTVSPropertyOp14
 70
     1
102
RTVSPropertyOp15
 70
     1
102
RTVSPropertyOp16
 70
     1
102
RTVSPropertyOp17
 70
     1
102
RTVSPropertyOp18
 70
     1
102
RTVSPropertyOp19
 70
     1
102
RTVSPropertyOp20
 70
     1
102
RTVSPropertyOp21
 70
     1
102
RTVSPropertyOp22
 70
     1
102
RTVSPropertyOp23
 70
     1
102
RTVSPropertyOp24
 70
     1
102
RTVSPropertyOp25
 70
     1
102
RTVSPropertyOp26
 70
     1
102
RTVSPropertyOp27
 70
     1
102
RTVSPropertyOp28
 70
     1
102
RTVSPropertyOp29
 70
     1
102
RTVSPropertyOp30
 70
     1
102
RTVSPropertyOp31
 70
     1
102
RTVSPropertyOp32
 70
     1
102
RTVSPropertyOp33
 70
     1
102
RTVSPropertyOp34
 70
     1
102
RTVSPropertyOp35
 70
     1
102
RTVSPropertyOp36
 70
     1
102
RTVSPropertyOp37
 70
     1
102
RTVSPropertyOp38
 70
     1
102
RTVSPropertyOp39
 70
     1
102
RTVSPropertyOp40
 70
     1
102
RTVSPropertyOp41
 70
     1
102
RTVSPropertyOp42
 70
     1
102
RTVSPropertyOp43
 70
     1
102
RTVSPropertyOp44
 70
     1
102
RTVSPropertyOp45
 70
     1
102
RTVSPropertyOp46
 70
     1
102
RTVSPropertyOp47
 70
     1
102
RTVSPropertyOp48
 70
     1
102
RTVSPropertyOp49
 70
     1
102
RTVSPropertyOp50
 70
     1
102
RTVSPropertyOp51
 70
     0
102
RTVSPropertyOp52
 70
     0
102
RTVSPropertyOp53
 70
     1
102
RTVSPropertyOp54
 70
     1
102
RTVSPropertyOp55
 70
     1
102
RTVSPropertyOp56
 70
     1
102
RTVSPropertyOp57
 70
     1
102
RTVSPropertyOp58
 70
     1
102
RTVSPropertyOp59
 70
     1
102
RTVSPropertyOp60
 70
     1
102
RTVSPropertyOp61
 70
     1
102
RTVSPropertyOp62
 70
     1
  0
XRECORD
  5
4822
102
{ACAD_REACTORS
330
4821
102
}
330
4821
100
AcDbXrecord
280
     1
102
RTVSPost2010Prop28
280
     0
102
RTVSPost2010PropOp28
 70
     1
102
RTVSPost2010Prop29
280
     1
102
RTVSPost2010PropOp29
 70
     1
102
RTVSPost2010Prop30
280
     1
102
RTVSPost2010PropOp30
 70
     1
102
RTVSPost2010Prop31
280
     0
102
RTVSPost2010PropOp31
 70
     1
102
RTVSPost2010Prop32
280
     0
102
RTVSPost2010PropOp32
 70
     1
102
RTVSPost2010Prop33
280
     0
102
RTVSPost2010PropOp33
 70
     1
102
RTVSPost2010Prop34
280
     0
102
RTVSPost2010PropOp34
 70
     1
102
RTVSPost2010Prop35
280
     0
102
RTVSPost2010PropOp35
 70
     1
102
RTVSPost2010Prop36
280
     0
102
RTVSPost2010PropOp36
 70
     1
102
RTVSPost2010Prop37
 90
       50
102
RTVSPost2010PropOp37
 70
     1
102
RTVSPost2010Prop38
140
0.0
102
RTVSPost2010PropOp38
 70
     1
102
RTVSPost2010Prop39
140
1.0
102
RTVSPost2010PropOp39
 70
     1
102
RTVSPost2010Prop40
 90
        0
102
RTVSPost2010PropOp40
 70
     1
102
RTVSPost2010Prop41ColorIndex
 90
       18
102
RTVSPost2010Prop41ColorRGB
 90
        0
102
RTVSPost2010PropOp41
 70
     1
102
RTVSPost2010Prop42
 90
       50
102
RTVSPost2010PropOp42
 70
     1
102
RTVSPost2010Prop43
 90
        3
102
RTVSPost2010PropOp43
 70
     1
102
RTVSPost2010Prop44ColorIndex
 90
        5
102
RTVSPost2010Prop44ColorRGB
 90
      255
102
RTVSPost2010PropOp44
 70
     1
102
RTVSPost2010Prop45
280
     0
102
RTVSPost2010PropOp45
 70
     1
102
RTVSPost2010Prop46
 90
       50
102
RTVSPost2010PropOp46
 70
     1
102
RTVSPost2010Prop47
 90
       50
102
RTVSPost2010PropOp47
 70
     1
102
RTVSPost2010Prop48
 90
       50
102
RTVSPost2010PropOp48
 70
     1
102
RTVSPost2010Prop49
280
     0
102
RTVSPost2010PropOp49
 70
     1
102
RTVSPost2010Prop50
 90
       50
102
RTVSPost2010PropOp50
 70
     1
102
RTVSPost2010Prop51ColorIndex
 90
      256
102
RTVSPost2010Prop51ColorRGB
 90
-16777216
102
RTVSPost2010PropOp51
 70
     0
102
RTVSPost2010Prop52
140
1.0
102
RTVSPost2010PropOp52
 70
     0
102
RTVSPost2010Prop53
 90
        2
102
RTVSPost2010PropOp53
 70
     1
102
RTVSPost2010Prop54
  1
strokes_ogs.tif
102
RTVSPost2010PropOp54
 70
     1
102
RTVSPost2010Prop55
280
     0
102
RTVSPost2010PropOp55
 70
     1
102
RTVSPost2010Prop56
140
1.0
102
RTVSPost2010PropOp56
 70
     1
102
RTVSPost2010Prop57
140
1.0
102
RTVSPost2010PropOp57
 70
     1
102
RTVSPropertyOp0
 70
     1
102
RTVSPropertyOp1
 70
     1
102
RTVSPropertyOp2
 70
     1
102
RTVSPropertyOp3
 70
     1
102
RTVSPropertyOp4
 70
     1
102
RTVSPropertyOp5
 70
     1
102
RTVSPropertyOp6
 70
     1
102
RTVSPropertyOp7
 70
     1
102
RTVSPropertyOp8
 70
     1
102
RTVSPropertyOp9
 70
     1
102
RTVSPropertyOp10
 70
     1
102
RTVSPropertyOp11
 70
     1
102
RTVSPropertyOp12
 70
     1
102
RTVSPropertyOp13
 70
     1
102
RTVSPropertyOp14
 70
     1
102
RTVSPropertyOp15
 70
     1
102
RTVSPropertyOp16
 70
     1
102
RTVSPropertyOp17
 70
     1
102
RTVSPropertyOp18
 70
     1
102
RTVSPropertyOp19
 70
     1
102
RTVSPropertyOp20
 70
     1
102
RTVSPropertyOp21
 70
     1
102
RTVSPropertyOp22
 70
     1
102
RTVSPropertyOp23
 70
     1
102
RTVSPropertyOp24
 70
     1
102
RTVSPropertyOp25
 70
     1
102
RTVSPropertyOp26
 70
     1
102
RTVSPropertyOp27
 70
     1
102
RTVSPropertyOp28
 70
     1
102
RTVSPropertyOp29
 70
     1
102
RTVSPropertyOp30
 70
     1
102
RTVSPropertyOp31
 70
     1
102
RTVSPropertyOp32
 70
     1
102
RTVSPropertyOp33
 70
     1
102
RTVSPropertyOp34
 70
     1
102
RTVSPropertyOp35
 70
     1
102
RTVSPropertyOp36
 70
     1
102
RTVSPropertyOp37
 70
     1
102
RTVSPropertyOp38
 70
     1
102
RTVSPropertyOp39
 70
     1
102
RTVSPropertyOp40
 70
     1
102
RTVSPropertyOp41
 70
     1
102
RTVSPropertyOp42
 70
     1
102
RTVSPropertyOp43
 70
     1
102
RTVSPropertyOp44
 70
     1
102
RTVSPropertyOp45
 70
     1
102
RTVSPropertyOp46
 70
     1
102
RTVSPropertyOp47
 70
     1
102
RTVSPropertyOp48
 70
     1
102
RTVSPropertyOp49
 70
     1
102
RTVSPropertyOp50
 70
     1
102
RTVSPropertyOp51
 70
     0
102
RTVSPropertyOp52
 70
     0
102
RTVSPropertyOp53
 70
     1
102
RTVSPropertyOp54
 70
     1
102
RTVSPropertyOp55
 70
     1
102
RTVSPropertyOp56
 70
     1
102
RTVSPropertyOp57
 70
     1
102
RTVSPropertyOp58
 70
     1
102
RTVSPropertyOp59
 70
     1
102
RTVSPropertyOp60
 70
     1
102
RTVSPropertyOp61
 70
     1
102
RTVSPropertyOp62
 70
     1
  0
XRECORD
  5
4830
102
{ACAD_REACTORS
330
482F
102
}
330
482F
100
AcDbXrecord
280
     1
102
RTVSPost2010Prop28
280
     0
102
RTVSPost2010PropOp28
 70
     1
102
RTVSPost2010Prop29
280
     1
102
RTVSPost2010PropOp29
 70
     1
102
RTVSPost2010Prop30
280
     1
102
RTVSPost2010PropOp30
 70
     1
102
RTVSPost2010Prop31
280
     0
102
RTVSPost2010PropOp31
 70
     1
102
RTVSPost2010Prop32
280
     0
102
RTVSPost2010PropOp32
 70
     1
102
RTVSPost2010Prop33
280
     0
102
RTVSPost2010PropOp33
 70
     1
102
RTVSPost2010Prop34
280
     0
102
RTVSPost2010PropOp34
 70
     1
102
RTVSPost2010Prop35
280
     0
102
RTVSPost2010PropOp35
 70
     1
102
RTVSPost2010Prop36
280
     0
102
RTVSPost2010PropOp36
 70
     1
102
RTVSPost2010Prop37
 90
       50
102
RTVSPost2010PropOp37
 70
     1
102
RTVSPost2010Prop38
140
0.0
102
RTVSPost2010PropOp38
 70
     1
102
RTVSPost2010Prop39
140
1.0
102
RTVSPost2010PropOp39
 70
     1
102
RTVSPost2010Prop40
 90
        0
102
RTVSPost2010PropOp40
 70
     1
102
RTVSPost2010Prop41ColorIndex
 90
       18
102
RTVSPost2010Prop41ColorRGB
 90
        0
102
RTVSPost2010PropOp41
 70
     1
102
RTVSPost2010Prop42
 90
       50
102
RTVSPost2010PropOp42
 70
     1
102
RTVSPost2010Prop43
 90
        3
102
RTVSPost2010PropOp43
 70
     1
102
RTVSPost2010Prop44ColorIndex
 90
        5
102
RTVSPost2010Prop44ColorRGB
 90
      255
102
RTVSPost2010PropOp44
 70
     1
102
RTVSPost2010Prop45
280
     0
102
RTVSPost2010PropOp45
 70
     1
102
RTVSPost2010Prop46
 90
       50
102
RTVSPost2010PropOp46
 70
     1
102
RTVSPost2010Prop47
 90
       50
102
RTVSPost2010PropOp47
 70
     1
102
RTVSPost2010Prop48
 90
       50
102
RTVSPost2010PropOp48
 70
     1
102
RTVSPost2010Prop49
280
     0
102
RTVSPost2010PropOp49
 70
     1
102
RTVSPost2010Prop50
 90
       50
102
RTVSPost2010PropOp50
 70
     1
102
RTVSPost2010Prop51ColorIndex
 90
      256
102
RTVSPost2010Prop51ColorRGB
 90
-16777216
102
RTVSPost2010PropOp51
 70
     0
102
RTVSPost2010Prop52
140
1.0
102
RTVSPost2010PropOp52
 70
     0
102
RTVSPost2010Prop53
 90
        2
102
RTVSPost2010PropOp53
 70
     1
102
RTVSPost2010Prop54
  1
strokes_ogs.tif
102
RTVSPost2010PropOp54
 70
     1
102
RTVSPost2010Prop55
280
     0
102
RTVSPost2010PropOp55
 70
     1
102
RTVSPost2010Prop56
140
1.0
102
RTVSPost2010PropOp56
 70
     1
102
RTVSPost2010Prop57
140
1.0
102
RTVSPost2010PropOp57
 70
     1
102
RTVSPropertyOp0
 70
     1
102
RTVSPropertyOp1
 70
     1
102
RTVSPropertyOp2
 70
     1
102
RTVSPropertyOp3
 70
     1
102
RTVSPropertyOp4
 70
     1
102
RTVSPropertyOp5
 70
     1
102
RTVSPropertyOp6
 70
     1
102
RTVSPropertyOp7
 70
     1
102
RTVSPropertyOp8
 70
     1
102
RTVSPropertyOp9
 70
     1
102
RTVSPropertyOp10
 70
     1
102
RTVSPropertyOp11
 70
     1
102
RTVSPropertyOp12
 70
     1
102
RTVSPropertyOp13
 70
     1
102
RTVSPropertyOp14
 70
     1
102
RTVSPropertyOp15
 70
     1
102
RTVSPropertyOp16
 70
     1
102
RTVSPropertyOp17
 70
     1
102
RTVSPropertyOp18
 70
     1
102
RTVSPropertyOp19
 70
     1
102
RTVSPropertyOp20
 70
     1
102
RTVSPropertyOp21
 70
     1
102
RTVSPropertyOp22
 70
     1
102
RTVSPropertyOp23
 70
     1
102
RTVSPropertyOp24
 70
     1
102
RTVSPropertyOp25
 70
     1
102
RTVSPropertyOp26
 70
     1
102
RTVSPropertyOp27
 70
     1
102
RTVSPropertyOp28
 70
     1
102
RTVSPropertyOp29
 70
     1
102
RTVSPropertyOp30
 70
     1
102
RTVSPropertyOp31
 70
     1
102
RTVSPropertyOp32
 70
     1
102
RTVSPropertyOp33
 70
     1
102
RTVSPropertyOp34
 70
     1
102
RTVSPropertyOp35
 70
     1
102
RTVSPropertyOp36
 70
     1
102
RTVSPropertyOp37
 70
     1
102
RTVSPropertyOp38
 70
     1
102
RTVSPropertyOp39
 70
     1
102
RTVSPropertyOp40
 70
     1
102
RTVSPropertyOp41
 70
     1
102
RTVSPropertyOp42
 70
     1
102
RTVSPropertyOp43
 70
     1
102
RTVSPropertyOp44
 70
     1
102
RTVSPropertyOp45
 70
     1
102
RTVSPropertyOp46
 70
     1
102
RTVSPropertyOp47
 70
     1
102
RTVSPropertyOp48
 70
     1
102
RTVSPropertyOp49
 70
     1
102
RTVSPropertyOp50
 70
     1
102
RTVSPropertyOp51
 70
     0
102
RTVSPropertyOp52
 70
     0
102
RTVSPropertyOp53
 70
     1
102
RTVSPropertyOp54
 70
     1
102
RTVSPropertyOp55
 70
     1
102
RTVSPropertyOp56
 70
     1
102
RTVSPropertyOp57
 70
     1
102
RTVSPropertyOp58
 70
     1
102
RTVSPropertyOp59
 70
     1
102
RTVSPropertyOp60
 70
     1
102
RTVSPropertyOp61
 70
     1
102
RTVSPropertyOp62
 70
     1
  0
XRECORD
  5
4838
102
{ACAD_REACTORS
330
4837
102
}
330
4837
100
AcDbXrecord
280
     1
102
RTVSPost2010Prop28
280
     0
102
RTVSPost2010PropOp28
 70
     1
102
RTVSPost2010Prop29
280
     1
102
RTVSPost2010PropOp29
 70
     1
102
RTVSPost2010Prop30
280
     1
102
RTVSPost2010PropOp30
 70
     1
102
RTVSPost2010Prop31
280
     0
102
RTVSPost2010PropOp31
 70
     1
102
RTVSPost2010Prop32
280
     0
102
RTVSPost2010PropOp32
 70
     1
102
RTVSPost2010Prop33
280
     0
102
RTVSPost2010PropOp33
 70
     1
102
RTVSPost2010Prop34
280
     0
102
RTVSPost2010PropOp34
 70
     1
102
RTVSPost2010Prop35
280
     0
102
RTVSPost2010PropOp35
 70
     1
102
RTVSPost2010Prop36
280
     0
102
RTVSPost2010PropOp36
 70
     1
102
RTVSPost2010Prop37
 90
       50
102
RTVSPost2010PropOp37
 70
     1
102
RTVSPost2010Prop38
140
0.0
102
RTVSPost2010PropOp38
 70
     1
102
RTVSPost2010Prop39
140
1.0
102
RTVSPost2010PropOp39
 70
     1
102
RTVSPost2010Prop40
 90
        0
102
RTVSPost2010PropOp40
 70
     1
102
RTVSPost2010Prop41ColorIndex
 90
       18
102
RTVSPost2010Prop41ColorRGB
 90
        0
102
RTVSPost2010PropOp41
 70
     1
102
RTVSPost2010Prop42
 90
       50
102
RTVSPost2010PropOp42
 70
     1
102
RTVSPost2010Prop43
 90
        3
102
RTVSPost2010PropOp43
 70
     1
102
RTVSPost2010Prop44ColorIndex
 90
        5
102
RTVSPost2010Prop44ColorRGB
 90
      255
102
RTVSPost2010PropOp44
 70
     1
102
RTVSPost2010Prop45
280
     0
102
RTVSPost2010PropOp45
 70
     1
102
RTVSPost2010Prop46
 90
       50
102
RTVSPost2010PropOp46
 70
     1
102
RTVSPost2010Prop47
 90
       50
102
RTVSPost2010PropOp47
 70
     1
102
RTVSPost2010Prop48
 90
       50
102
RTVSPost2010PropOp48
 70
     1
102
RTVSPost2010Prop49
280
     0
102
RTVSPost2010PropOp49
 70
     1
102
RTVSPost2010Prop50
 90
       50
102
RTVSPost2010PropOp50
 70
     1
102
RTVSPost2010Prop51ColorIndex
 90
      256
102
RTVSPost2010Prop51ColorRGB
 90
-16777216
102
RTVSPost2010PropOp51
 70
     0
102
RTVSPost2010Prop52
140
1.0
102
RTVSPost2010PropOp52
 70
     0
102
RTVSPost2010Prop53
 90
        2
102
RTVSPost2010PropOp53
 70
     1
102
RTVSPost2010Prop54
  1
strokes_ogs.tif
102
RTVSPost2010PropOp54
 70
     1
102
RTVSPost2010Prop55
280
     0
102
RTVSPost2010PropOp55
 70
     1
102
RTVSPost2010Prop56
140
1.0
102
RTVSPost2010PropOp56
 70
     1
102
RTVSPost2010Prop57
140
1.0
102
RTVSPost2010PropOp57
 70
     1
102
RTVSPropertyOp0
 70
     1
102
RTVSPropertyOp1
 70
     1
102
RTVSPropertyOp2
 70
     1
102
RTVSPropertyOp3
 70
     1
102
RTVSPropertyOp4
 70
     1
102
RTVSPropertyOp5
 70
     1
102
RTVSPropertyOp6
 70
     1
102
RTVSPropertyOp7
 70
     1
102
RTVSPropertyOp8
 70
     1
102
RTVSPropertyOp9
 70
     1
102
RTVSPropertyOp10
 70
     1
102
RTVSPropertyOp11
 70
     1
102
RTVSPropertyOp12
 70
     1
102
RTVSPropertyOp13
 70
     1
102
RTVSPropertyOp14
 70
     1
102
RTVSPropertyOp15
 70
     1
102
RTVSPropertyOp16
 70
     1
102
RTVSPropertyOp17
 70
     1
102
RTVSPropertyOp18
 70
     1
102
RTVSPropertyOp19
 70
     1
102
RTVSPropertyOp20
 70
     1
102
RTVSPropertyOp21
 70
     1
102
RTVSPropertyOp22
 70
     1
102
RTVSPropertyOp23
 70
     1
102
RTVSPropertyOp24
 70
     1
102
RTVSPropertyOp25
 70
     1
102
RTVSPropertyOp26
 70
     1
102
RTVSPropertyOp27
 70
     1
102
RTVSPropertyOp28
 70
     1
102
RTVSPropertyOp29
 70
     1
102
RTVSPropertyOp30
 70
     1
102
RTVSPropertyOp31
 70
     1
102
RTVSPropertyOp32
 70
     1
102
RTVSPropertyOp33
 70
     1
102
RTVSPropertyOp34
 70
     1
102
RTVSPropertyOp35
 70
     1
102
RTVSPropertyOp36
 70
     1
102
RTVSPropertyOp37
 70
     1
102
RTVSPropertyOp38
 70
     1
102
RTVSPropertyOp39
 70
     1
102
RTVSPropertyOp40
 70
     1
102
RTVSPropertyOp41
 70
     1
102
RTVSPropertyOp42
 70
     1
102
RTVSPropertyOp43
 70
     1
102
RTVSPropertyOp44
 70
     1
102
RTVSPropertyOp45
 70
     1
102
RTVSPropertyOp46
 70
     1
102
RTVSPropertyOp47
 70
     1
102
RTVSPropertyOp48
 70
     1
102
RTVSPropertyOp49
 70
     1
102
RTVSPropertyOp50
 70
     1
102
RTVSPropertyOp51
 70
     0
102
RTVSPropertyOp52
 70
     0
102
RTVSPropertyOp53
 70
     1
102
RTVSPropertyOp54
 70
     1
102
RTVSPropertyOp55
 70
     1
102
RTVSPropertyOp56
 70
     1
102
RTVSPropertyOp57
 70
     1
102
RTVSPropertyOp58
 70
     1
102
RTVSPropertyOp59
 70
     1
102
RTVSPropertyOp60
 70
     1
102
RTVSPropertyOp61
 70
     1
102
RTVSPropertyOp62
 70
     1
  0
XRECORD
  5
482A
102
{ACAD_REACTORS
330
4829
102
}
330
4829
100
AcDbXrecord
280
     1
102
RTVSPost2010Prop28
280
     0
102
RTVSPost2010PropOp28
 70
     1
102
RTVSPost2010Prop29
280
     1
102
RTVSPost2010PropOp29
 70
     1
102
RTVSPost2010Prop30
280
     1
102
RTVSPost2010PropOp30
 70
     1
102
RTVSPost2010Prop31
280
     0
102
RTVSPost2010PropOp31
 70
     1
102
RTVSPost2010Prop32
280
     0
102
RTVSPost2010PropOp32
 70
     1
102
RTVSPost2010Prop33
280
     0
102
RTVSPost2010PropOp33
 70
     1
102
RTVSPost2010Prop34
280
     0
102
RTVSPost2010PropOp34
 70
     1
102
RTVSPost2010Prop35
280
     0
102
RTVSPost2010PropOp35
 70
     1
102
RTVSPost2010Prop36
280
     0
102
RTVSPost2010PropOp36
 70
     1
102
RTVSPost2010Prop37
 90
       50
102
RTVSPost2010PropOp37
 70
     1
102
RTVSPost2010Prop38
140
0.0
102
RTVSPost2010PropOp38
 70
     1
102
RTVSPost2010Prop39
140
1.0
102
RTVSPost2010PropOp39
 70
     1
102
RTVSPost2010Prop40
 90
        0
102
RTVSPost2010PropOp40
 70
     1
102
RTVSPost2010Prop41ColorIndex
 90
       18
102
RTVSPost2010Prop41ColorRGB
 90
        0
102
RTVSPost2010PropOp41
 70
     1
102
RTVSPost2010Prop42
 90
       50
102
RTVSPost2010PropOp42
 70
     1
102
RTVSPost2010Prop43
 90
        3
102
RTVSPost2010PropOp43
 70
     1
102
RTVSPost2010Prop44ColorIndex
 90
        5
102
RTVSPost2010Prop44ColorRGB
 90
      255
102
RTVSPost2010PropOp44
 70
     1
102
RTVSPost2010Prop45
280
     0
102
RTVSPost2010PropOp45
 70
     1
102
RTVSPost2010Prop46
 90
       50
102
RTVSPost2010PropOp46
 70
     1
102
RTVSPost2010Prop47
 90
       50
102
RTVSPost2010PropOp47
 70
     1
102
RTVSPost2010Prop48
 90
       50
102
RTVSPost2010PropOp48
 70
     1
102
RTVSPost2010Prop49
280
     0
102
RTVSPost2010PropOp49
 70
     1
102
RTVSPost2010Prop50
 90
       50
102
RTVSPost2010PropOp50
 70
     1
102
RTVSPost2010Prop51ColorIndex
 90
      256
102
RTVSPost2010Prop51ColorRGB
 90
-16777216
102
RTVSPost2010PropOp51
 70
     0
102
RTVSPost2010Prop52
140
1.0
102
RTVSPost2010PropOp52
 70
     0
102
RTVSPost2010Prop53
 90
        2
102
RTVSPost2010PropOp53
 70
     1
102
RTVSPost2010Prop54
  1
strokes_ogs.tif
102
RTVSPost2010PropOp54
 70
     1
102
RTVSPost2010Prop55
280
     0
102
RTVSPost2010PropOp55
 70
     1
102
RTVSPost2010Prop56
140
1.0
102
RTVSPost2010PropOp56
 70
     1
102
RTVSPost2010Prop57
140
1.0
102
RTVSPost2010PropOp57
 70
     1
102
RTVSPropertyOp0
 70
     1
102
RTVSPropertyOp1
 70
     1
102
RTVSPropertyOp2
 70
     1
102
RTVSPropertyOp3
 70
     1
102
RTVSPropertyOp4
 70
     1
102
RTVSPropertyOp5
 70
     1
102
RTVSPropertyOp6
 70
     1
102
RTVSPropertyOp7
 70
     1
102
RTVSPropertyOp8
 70
     1
102
RTVSPropertyOp9
 70
     1
102
RTVSPropertyOp10
 70
     1
102
RTVSPropertyOp11
 70
     1
102
RTVSPropertyOp12
 70
     1
102
RTVSPropertyOp13
 70
     1
102
RTVSPropertyOp14
 70
     1
102
RTVSPropertyOp15
 70
     1
102
RTVSPropertyOp16
 70
     1
102
RTVSPropertyOp17
 70
     1
102
RTVSPropertyOp18
 70
     1
102
RTVSPropertyOp19
 70
     1
102
RTVSPropertyOp20
 70
     1
102
RTVSPropertyOp21
 70
     1
102
RTVSPropertyOp22
 70
     1
102
RTVSPropertyOp23
 70
     1
102
RTVSPropertyOp24
 70
     1
102
RTVSPropertyOp25
 70
     1
102
RTVSPropertyOp26
 70
     1
102
RTVSPropertyOp27
 70
     1
102
RTVSPropertyOp28
 70
     1
102
RTVSPropertyOp29
 70
     1
102
RTVSPropertyOp30
 70
     1
102
RTVSPropertyOp31
 70
     1
102
RTVSPropertyOp32
 70
     1
102
RTVSPropertyOp33
 70
     1
102
RTVSPropertyOp34
 70
     1
102
RTVSPropertyOp35
 70
     1
102
RTVSPropertyOp36
 70
     1
102
RTVSPropertyOp37
 70
     1
102
RTVSPropertyOp38
 70
     1
102
RTVSPropertyOp39
 70
     1
102
RTVSPropertyOp40
 70
     1
102
RTVSPropertyOp41
 70
     1
102
RTVSPropertyOp42
 70
     1
102
RTVSPropertyOp43
 70
     1
102
RTVSPropertyOp44
 70
     1
102
RTVSPropertyOp45
 70
     1
102
RTVSPropertyOp46
 70
     1
102
RTVSPropertyOp47
 70
     1
102
RTVSPropertyOp48
 70
     1
102
RTVSPropertyOp49
 70
     1
102
RTVSPropertyOp50
 70
     1
102
RTVSPropertyOp51
 70
     0
102
RTVSPropertyOp52
 70
     0
102
RTVSPropertyOp53
 70
     1
102
RTVSPropertyOp54
 70
     1
102
RTVSPropertyOp55
 70
     1
102
RTVSPropertyOp56
 70
     1
102
RTVSPropertyOp57
 70
     1
102
RTVSPropertyOp58
 70
     1
102
RTVSPropertyOp59
 70
     1
102
RTVSPropertyOp60
 70
     1
102
RTVSPropertyOp61
 70
     1
102
RTVSPropertyOp62
 70
     1
  0
XRECORD
  5
482E
102
{ACAD_REACTORS
330
482D
102
}
330
482D
100
AcDbXrecord
280
     1
102
RTVSPost2010Prop28
280
     0
102
RTVSPost2010PropOp28
 70
     1
102
RTVSPost2010Prop29
280
     1
102
RTVSPost2010PropOp29
 70
     1
102
RTVSPost2010Prop30
280
     1
102
RTVSPost2010PropOp30
 70
     1
102
RTVSPost2010Prop31
280
     0
102
RTVSPost2010PropOp31
 70
     1
102
RTVSPost2010Prop32
280
     0
102
RTVSPost2010PropOp32
 70
     1
102
RTVSPost2010Prop33
280
     0
102
RTVSPost2010PropOp33
 70
     1
102
RTVSPost2010Prop34
280
     0
102
RTVSPost2010PropOp34
 70
     1
102
RTVSPost2010Prop35
280
     0
102
RTVSPost2010PropOp35
 70
     1
102
RTVSPost2010Prop36
280
     0
102
RTVSPost2010PropOp36
 70
     1
102
RTVSPost2010Prop37
 90
       50
102
RTVSPost2010PropOp37
 70
     1
102
RTVSPost2010Prop38
140
0.0
102
RTVSPost2010PropOp38
 70
     1
102
RTVSPost2010Prop39
140
1.0
102
RTVSPost2010PropOp39
 70
     1
102
RTVSPost2010Prop40
 90
        0
102
RTVSPost2010PropOp40
 70
     1
102
RTVSPost2010Prop41ColorIndex
 90
       18
102
RTVSPost2010Prop41ColorRGB
 90
        0
102
RTVSPost2010PropOp41
 70
     1
102
RTVSPost2010Prop42
 90
       50
102
RTVSPost2010PropOp42
 70
     1
102
RTVSPost2010Prop43
 90
        3
102
RTVSPost2010PropOp43
 70
     1
102
RTVSPost2010Prop44ColorIndex
 90
        5
102
RTVSPost2010Prop44ColorRGB
 90
      255
102
RTVSPost2010PropOp44
 70
     1
102
RTVSPost2010Prop45
280
     0
102
RTVSPost2010PropOp45
 70
     1
102
RTVSPost2010Prop46
 90
       50
102
RTVSPost2010PropOp46
 70
     1
102
RTVSPost2010Prop47
 90
       50
102
RTVSPost2010PropOp47
 70
     1
102
RTVSPost2010Prop48
 90
       50
102
RTVSPost2010PropOp48
 70
     1
102
RTVSPost2010Prop49
280
     0
102
RTVSPost2010PropOp49
 70
     1
102
RTVSPost2010Prop50
 90
       50
102
RTVSPost2010PropOp50
 70
     1
102
RTVSPost2010Prop51ColorIndex
 90
      256
102
RTVSPost2010Prop51ColorRGB
 90
-16777216
102
RTVSPost2010PropOp51
 70
     0
102
RTVSPost2010Prop52
140
1.0
102
RTVSPost2010PropOp52
 70
     0
102
RTVSPost2010Prop53
 90
        2
102
RTVSPost2010PropOp53
 70
     1
102
RTVSPost2010Prop54
  1
strokes_ogs.tif
102
RTVSPost2010PropOp54
 70
     1
102
RTVSPost2010Prop55
280
     0
102
RTVSPost2010PropOp55
 70
     1
102
RTVSPost2010Prop56
140
1.0
102
RTVSPost2010PropOp56
 70
     1
102
RTVSPost2010Prop57
140
1.0
102
RTVSPost2010PropOp57
 70
     1
102
RTVSPropertyOp0
 70
     1
102
RTVSPropertyOp1
 70
     1
102
RTVSPropertyOp2
 70
     1
102
RTVSPropertyOp3
 70
     1
102
RTVSPropertyOp4
 70
     1
102
RTVSPropertyOp5
 70
     1
102
RTVSPropertyOp6
 70
     1
102
RTVSPropertyOp7
 70
     1
102
RTVSPropertyOp8
 70
     1
102
RTVSPropertyOp9
 70
     1
102
RTVSPropertyOp10
 70
     1
102
RTVSPropertyOp11
 70
     1
102
RTVSPropertyOp12
 70
     1
102
RTVSPropertyOp13
 70
     1
102
RTVSPropertyOp14
 70
     1
102
RTVSPropertyOp15
 70
     1
102
RTVSPropertyOp16
 70
     1
102
RTVSPropertyOp17
 70
     1
102
RTVSPropertyOp18
 70
     1
102
RTVSPropertyOp19
 70
     1
102
RTVSPropertyOp20
 70
     1
102
RTVSPropertyOp21
 70
     1
102
RTVSPropertyOp22
 70
     1
102
RTVSPropertyOp23
 70
     1
102
RTVSPropertyOp24
 70
     1
102
RTVSPropertyOp25
 70
     1
102
RTVSPropertyOp26
 70
     1
102
RTVSPropertyOp27
 70
     1
102
RTVSPropertyOp28
 70
     1
102
RTVSPropertyOp29
 70
     1
102
RTVSPropertyOp30
 70
     1
102
RTVSPropertyOp31
 70
     1
102
RTVSPropertyOp32
 70
     1
102
RTVSPropertyOp33
 70
     1
102
RTVSPropertyOp34
 70
     1
102
RTVSPropertyOp35
 70
     1
102
RTVSPropertyOp36
 70
     1
102
RTVSPropertyOp37
 70
     1
102
RTVSPropertyOp38
 70
     1
102
RTVSPropertyOp39
 70
     1
102
RTVSPropertyOp40
 70
     1
102
RTVSPropertyOp41
 70
     1
102
RTVSPropertyOp42
 70
     1
102
RTVSPropertyOp43
 70
     1
102
RTVSPropertyOp44
 70
     1
102
RTVSPropertyOp45
 70
     1
102
RTVSPropertyOp46
 70
     1
102
RTVSPropertyOp47
 70
     1
102
RTVSPropertyOp48
 70
     1
102
RTVSPropertyOp49
 70
     1
102
RTVSPropertyOp50
 70
     1
102
RTVSPropertyOp51
 70
     0
102
RTVSPropertyOp52
 70
     0
102
RTVSPropertyOp53
 70
     1
102
RTVSPropertyOp54
 70
     1
102
RTVSPropertyOp55
 70
     1
102
RTVSPropertyOp56
 70
     1
102
RTVSPropertyOp57
 70
     1
102
RTVSPropertyOp58
 70
     1
102
RTVSPropertyOp59
 70
     1
102
RTVSPropertyOp60
 70
     1
102
RTVSPropertyOp61
 70
     1
102
RTVSPropertyOp62
 70
     1
  0
XRECORD
  5
4848
102
{ACAD_REACTORS
330
4847
102
}
330
4847
100
AcDbXrecord
280
     1
102
RTVSPost2010Prop28
280
     0
102
RTVSPost2010PropOp28
 70
     0
102
RTVSPost2010Prop29
280
     1
102
RTVSPost2010PropOp29
 70
     0
102
RTVSPost2010Prop30
280
     1
102
RTVSPost2010PropOp30
 70
     0
102
RTVSPost2010Prop31
280
     0
102
RTVSPost2010PropOp31
 70
     0
102
RTVSPost2010Prop32
280
     0
102
RTVSPost2010PropOp32
 70
     0
102
RTVSPost2010Prop33
280
     0
102
RTVSPost2010PropOp33
 70
     0
102
RTVSPost2010Prop34
280
     0
102
RTVSPost2010PropOp34
 70
     0
102
RTVSPost2010Prop35
280
     0
102
RTVSPost2010PropOp35
 70
     0
102
RTVSPost2010Prop36
280
     0
102
RTVSPost2010PropOp36
 70
     0
102
RTVSPost2010Prop37
 90
       50
102
RTVSPost2010PropOp37
 70
     0
102
RTVSPost2010Prop38
140
0.0
102
RTVSPost2010PropOp38
 70
     0
102
RTVSPost2010Prop39
140
1.0
102
RTVSPost2010PropOp39
 70
     0
102
RTVSPost2010Prop40
 90
        0
102
RTVSPost2010PropOp40
 70
     0
102
RTVSPost2010Prop41ColorIndex
 90
       18
102
RTVSPost2010Prop41ColorRGB
 90
        0
102
RTVSPost2010PropOp41
 70
     0
102
RTVSPost2010Prop42
 90
       50
102
RTVSPost2010PropOp42
 70
     0
102
RTVSPost2010Prop43
 90
        3
102
RTVSPost2010PropOp43
 70
     0
102
RTVSPost2010Prop44ColorIndex
 90
        5
102
RTVSPost2010Prop44ColorRGB
 90
      255
102
RTVSPost2010PropOp44
 70
     0
102
RTVSPost2010Prop45
280
     0
102
RTVSPost2010PropOp45
 70
     0
102
RTVSPost2010Prop46
 90
       50
102
RTVSPost2010PropOp46
 70
     0
102
RTVSPost2010Prop47
 90
       50
102
RTVSPost2010PropOp47
 70
     0
102
RTVSPost2010Prop48
 90
       50
102
RTVSPost2010PropOp48
 70
     0
102
RTVSPost2010Prop49
280
     0
102
RTVSPost2010PropOp49
 70
     0
102
RTVSPost2010Prop50
 90
       50
102
RTVSPost2010PropOp50
 70
     0
102
RTVSPost2010Prop51ColorIndex
 90
      256
102
RTVSPost2010Prop51ColorRGB
 90
-16777216
102
RTVSPost2010PropOp51
 70
     0
102
RTVSPost2010Prop52
140
1.0
102
RTVSPost2010PropOp52
 70
     0
102
RTVSPost2010Prop53
 90
        2
102
RTVSPost2010PropOp53
 70
     0
102
RTVSPost2010Prop54
  1
strokes_ogs.tif
102
RTVSPost2010PropOp54
 70
     0
102
RTVSPost2010Prop55
280
     0
102
RTVSPost2010PropOp55
 70
     0
102
RTVSPost2010Prop56
140
1.0
102
RTVSPost2010PropOp56
 70
     0
102
RTVSPost2010Prop57
140
1.0
102
RTVSPost2010PropOp57
 70
     0
102
RTVSPropertyOp0
 70
     0
102
RTVSPropertyOp1
 70
     0
102
RTVSPropertyOp2
 70
     0
102
RTVSPropertyOp3
 70
     0
102
RTVSPropertyOp4
 70
     0
102
RTVSPropertyOp5
 70
     0
102
RTVSPropertyOp6
 70
     0
102
RTVSPropertyOp7
 70
     0
102
RTVSPropertyOp8
 70
     0
102
RTVSPropertyOp9
 70
     0
102
RTVSPropertyOp10
 70
     0
102
RTVSPropertyOp11
 70
     0
102
RTVSPropertyOp12
 70
     0
102
RTVSPropertyOp13
 70
     0
102
RTVSPropertyOp14
 70
     2
102
RTVSPropertyOp15
 70
     0
102
RTVSPropertyOp16
 70
     0
102
RTVSPropertyOp17
 70
     0
102
RTVSPropertyOp18
 70
     0
102
RTVSPropertyOp19
 70
     0
102
RTVSPropertyOp20
 70
     0
102
RTVSPropertyOp21
 70
     0
102
RTVSPropertyOp22
 70
     0
102
RTVSPropertyOp23
 70
     0
102
RTVSPropertyOp24
 70
     0
102
RTVSPropertyOp25
 70
     0
102
RTVSPropertyOp26
 70
     0
102
RTVSPropertyOp27
 70
     0
102
RTVSPropertyOp28
 70
     0
102
RTVSPropertyOp29
 70
     0
102
RTVSPropertyOp30
 70
     0
102
RTVSPropertyOp31
 70
     0
102
RTVSPropertyOp32
 70
     0
102
RTVSPropertyOp33
 70
     0
102
RTVSPropertyOp34
 70
     0
102
RTVSPropertyOp35
 70
     0
102
RTVSPropertyOp36
 70
     0
102
RTVSPropertyOp37
 70
     0
102
RTVSPropertyOp38
 70
     0
102
RTVSPropertyOp39
 70
     0
102
RTVSPropertyOp40
 70
     0
102
RTVSPropertyOp41
 70
     0
102
RTVSPropertyOp42
 70
     0
102
RTVSPropertyOp43
 70
     0
102
RTVSPropertyOp44
 70
     0
102
RTVSPropertyOp45
 70
     0
102
RTVSPropertyOp46
 70
     0
102
RTVSPropertyOp47
 70
     0
102
RTVSPropertyOp48
 70
     0
102
RTVSPropertyOp49
 70
     0
102
RTVSPropertyOp50
 70
     0
102
RTVSPropertyOp51
 70
     0
102
RTVSPropertyOp52
 70
     0
102
RTVSPropertyOp53
 70
     0
102
RTVSPropertyOp54
 70
     0
102
RTVSPropertyOp55
 70
     0
102
RTVSPropertyOp56
 70
     0
102
RTVSPropertyOp57
 70
     0
102
RTVSPropertyOp58
 70
     0
102
RTVSPropertyOp59
 70
     0
102
RTVSPropertyOp60
 70
     0
102
RTVSPropertyOp61
 70
     0
102
RTVSPropertyOp62
 70
     0
  0
XRECORD
  5
4836
102
{ACAD_REACTORS
330
4835
102
}
330
4835
100
AcDbXrecord
280
     1
102
RTVSPost2010Prop28
280
     0
102
RTVSPost2010PropOp28
 70
     1
102
RTVSPost2010Prop29
280
     1
102
RTVSPost2010PropOp29
 70
     1
102
RTVSPost2010Prop30
280
     1
102
RTVSPost2010PropOp30
 70
     1
102
RTVSPost2010Prop31
280
     0
102
RTVSPost2010PropOp31
 70
     1
102
RTVSPost2010Prop32
280
     0
102
RTVSPost2010PropOp32
 70
     1
102
RTVSPost2010Prop33
280
     0
102
RTVSPost2010PropOp33
 70
     1
102
RTVSPost2010Prop34
280
     0
102
RTVSPost2010PropOp34
 70
     1
102
RTVSPost2010Prop35
280
     0
102
RTVSPost2010PropOp35
 70
     1
102
RTVSPost2010Prop36
280
     0
102
RTVSPost2010PropOp36
 70
     1
102
RTVSPost2010Prop37
 90
       50
102
RTVSPost2010PropOp37
 70
     1
102
RTVSPost2010Prop38
140
0.0
102
RTVSPost2010PropOp38
 70
     1
102
RTVSPost2010Prop39
140
1.0
102
RTVSPost2010PropOp39
 70
     1
102
RTVSPost2010Prop40
 90
        0
102
RTVSPost2010PropOp40
 70
     1
102
RTVSPost2010Prop41ColorIndex
 90
       18
102
RTVSPost2010Prop41ColorRGB
 90
        0
102
RTVSPost2010PropOp41
 70
     1
102
RTVSPost2010Prop42
 90
       50
102
RTVSPost2010PropOp42
 70
     1
102
RTVSPost2010Prop43
 90
        3
102
RTVSPost2010PropOp43
 70
     1
102
RTVSPost2010Prop44ColorIndex
 90
        5
102
RTVSPost2010Prop44ColorRGB
 90
      255
102
RTVSPost2010PropOp44
 70
     1
102
RTVSPost2010Prop45
280
     0
102
RTVSPost2010PropOp45
 70
     1
102
RTVSPost2010Prop46
 90
       50
102
RTVSPost2010PropOp46
 70
     1
102
RTVSPost2010Prop47
 90
       50
102
RTVSPost2010PropOp47
 70
     1
102
RTVSPost2010Prop48
 90
       50
102
RTVSPost2010PropOp48
 70
     1
102
RTVSPost2010Prop49
280
     0
102
RTVSPost2010PropOp49
 70
     1
102
RTVSPost2010Prop50
 90
       50
102
RTVSPost2010PropOp50
 70
     1
102
RTVSPost2010Prop51ColorIndex
 90
      256
102
RTVSPost2010Prop51ColorRGB
 90
-16777216
102
RTVSPost2010PropOp51
 70
     0
102
RTVSPost2010Prop52
140
1.0
102
RTVSPost2010PropOp52
 70
     0
102
RTVSPost2010Prop53
 90
        2
102
RTVSPost2010PropOp53
 70
     1
102
RTVSPost2010Prop54
  1
strokes_ogs.tif
102
RTVSPost2010PropOp54
 70
     1
102
RTVSPost2010Prop55
280
     0
102
RTVSPost2010PropOp55
 70
     1
102
RTVSPost2010Prop56
140
1.0
102
RTVSPost2010PropOp56
 70
     1
102
RTVSPost2010Prop57
140
1.0
102
RTVSPost2010PropOp57
 70
     1
102
RTVSPropertyOp0
 70
     1
102
RTVSPropertyOp1
 70
     1
102
RTVSPropertyOp2
 70
     1
102
RTVSPropertyOp3
 70
     1
102
RTVSPropertyOp4
 70
     1
102
RTVSPropertyOp5
 70
     1
102
RTVSPropertyOp6
 70
     1
102
RTVSPropertyOp7
 70
     1
102
RTVSPropertyOp8
 70
     1
102
RTVSPropertyOp9
 70
     1
102
RTVSPropertyOp10
 70
     1
102
RTVSPropertyOp11
 70
     1
102
RTVSPropertyOp12
 70
     1
102
RTVSPropertyOp13
 70
     1
102
RTVSPropertyOp14
 70
     1
102
RTVSPropertyOp15
 70
     1
102
RTVSPropertyOp16
 70
     1
102
RTVSPropertyOp17
 70
     1
102
RTVSPropertyOp18
 70
     1
102
RTVSPropertyOp19
 70
     1
102
RTVSPropertyOp20
 70
     1
102
RTVSPropertyOp21
 70
     1
102
RTVSPropertyOp22
 70
     1
102
RTVSPropertyOp23
 70
     1
102
RTVSPropertyOp24
 70
     1
102
RTVSPropertyOp25
 70
     1
102
RTVSPropertyOp26
 70
     1
102
RTVSPropertyOp27
 70
     1
102
RTVSPropertyOp28
 70
     1
102
RTVSPropertyOp29
 70
     1
102
RTVSPropertyOp30
 70
     1
102
RTVSPropertyOp31
 70
     1
102
RTVSPropertyOp32
 70
     1
102
RTVSPropertyOp33
 70
     1
102
RTVSPropertyOp34
 70
     1
102
RTVSPropertyOp35
 70
     1
102
RTVSPropertyOp36
 70
     1
102
RTVSPropertyOp37
 70
     1
102
RTVSPropertyOp38
 70
     1
102
RTVSPropertyOp39
 70
     1
102
RTVSPropertyOp40
 70
     1
102
RTVSPropertyOp41
 70
     1
102
RTVSPropertyOp42
 70
     1
102
RTVSPropertyOp43
 70
     1
102
RTVSPropertyOp44
 70
     1
102
RTVSPropertyOp45
 70
     1
102
RTVSPropertyOp46
 70
     1
102
RTVSPropertyOp47
 70
     1
102
RTVSPropertyOp48
 70
     1
102
RTVSPropertyOp49
 70
     1
102
RTVSPropertyOp50
 70
     1
102
RTVSPropertyOp51
 70
     0
102
RTVSPropertyOp52
 70
     0
102
RTVSPropertyOp53
 70
     1
102
RTVSPropertyOp54
 70
     1
102
RTVSPropertyOp55
 70
     1
102
RTVSPropertyOp56
 70
     1
102
RTVSPropertyOp57
 70
     1
102
RTVSPropertyOp58
 70
     1
102
RTVSPropertyOp59
 70
     1
102
RTVSPropertyOp60
 70
     1
102
RTVSPropertyOp61
 70
     1
102
RTVSPropertyOp62
 70
     1
  0
XRECORD
  5
481A
102
{ACAD_REACTORS
330
4819
102
}
330
4819
100
AcDbXrecord
280
     1
102
RTVSPost2010Prop28
280
     0
102
RTVSPost2010PropOp28
 70
     1
102
RTVSPost2010Prop29
280
     1
102
RTVSPost2010PropOp29
 70
     1
102
RTVSPost2010Prop30
280
     1
102
RTVSPost2010PropOp30
 70
     1
102
RTVSPost2010Prop31
280
     0
102
RTVSPost2010PropOp31
 70
     1
102
RTVSPost2010Prop32
280
     0
102
RTVSPost2010PropOp32
 70
     1
102
RTVSPost2010Prop33
280
     0
102
RTVSPost2010PropOp33
 70
     1
102
RTVSPost2010Prop34
280
     0
102
RTVSPost2010PropOp34
 70
     1
102
RTVSPost2010Prop35
280
     0
102
RTVSPost2010PropOp35
 70
     1
102
RTVSPost2010Prop36
280
     0
102
RTVSPost2010PropOp36
 70
     1
102
RTVSPost2010Prop37
 90
       50
102
RTVSPost2010PropOp37
 70
     1
102
RTVSPost2010Prop38
140
0.0
102
RTVSPost2010PropOp38
 70
     1
102
RTVSPost2010Prop39
140
1.0
102
RTVSPost2010PropOp39
 70
     1
102
RTVSPost2010Prop40
 90
        0
102
RTVSPost2010PropOp40
 70
     1
102
RTVSPost2010Prop41ColorIndex
 90
       18
102
RTVSPost2010Prop41ColorRGB
 90
        0
102
RTVSPost2010PropOp41
 70
     1
102
RTVSPost2010Prop42
 90
       50
102
RTVSPost2010PropOp42
 70
     1
102
RTVSPost2010Prop43
 90
        3
102
RTVSPost2010PropOp43
 70
     1
102
RTVSPost2010Prop44ColorIndex
 90
        5
102
RTVSPost2010Prop44ColorRGB
 90
      255
102
RTVSPost2010PropOp44
 70
     1
102
RTVSPost2010Prop45
280
     0
102
RTVSPost2010PropOp45
 70
     1
102
RTVSPost2010Prop46
 90
       50
102
RTVSPost2010PropOp46
 70
     1
102
RTVSPost2010Prop47
 90
       50
102
RTVSPost2010PropOp47
 70
     1
102
RTVSPost2010Prop48
 90
       50
102
RTVSPost2010PropOp48
 70
     1
102
RTVSPost2010Prop49
280
     0
102
RTVSPost2010PropOp49
 70
     1
102
RTVSPost2010Prop50
 90
       50
102
RTVSPost2010PropOp50
 70
     1
102
RTVSPost2010Prop51ColorIndex
 90
      256
102
RTVSPost2010Prop51ColorRGB
 90
-16777216
102
RTVSPost2010PropOp51
 70
     0
102
RTVSPost2010Prop52
140
1.0
102
RTVSPost2010PropOp52
 70
     0
102
RTVSPost2010Prop53
 90
        2
102
RTVSPost2010PropOp53
 70
     1
102
RTVSPost2010Prop54
  1
strokes_ogs.tif
102
RTVSPost2010PropOp54
 70
     1
102
RTVSPost2010Prop55
280
     0
102
RTVSPost2010PropOp55
 70
     1
102
RTVSPost2010Prop56
140
1.0
102
RTVSPost2010PropOp56
 70
     1
102
RTVSPost2010Prop57
140
1.0
102
RTVSPost2010PropOp57
 70
     1
102
RTVSPropertyOp0
 70
     1
102
RTVSPropertyOp1
 70
     1
102
RTVSPropertyOp2
 70
     1
102
RTVSPropertyOp3
 70
     1
102
RTVSPropertyOp4
 70
     1
102
RTVSPropertyOp5
 70
     1
102
RTVSPropertyOp6
 70
     1
102
RTVSPropertyOp7
 70
     1
102
RTVSPropertyOp8
 70
     1
102
RTVSPropertyOp9
 70
     1
102
RTVSPropertyOp10
 70
     1
102
RTVSPropertyOp11
 70
     1
102
RTVSPropertyOp12
 70
     1
102
RTVSPropertyOp13
 70
     1
102
RTVSPropertyOp14
 70
     1
102
RTVSPropertyOp15
 70
     1
102
RTVSPropertyOp16
 70
     1
102
RTVSPropertyOp17
 70
     1
102
RTVSPropertyOp18
 70
     1
102
RTVSPropertyOp19
 70
     1
102
RTVSPropertyOp20
 70
     1
102
RTVSPropertyOp21
 70
     1
102
RTVSPropertyOp22
 70
     1
102
RTVSPropertyOp23
 70
     1
102
RTVSPropertyOp24
 70
     1
102
RTVSPropertyOp25
 70
     1
102
RTVSPropertyOp26
 70
     1
102
RTVSPropertyOp27
 70
     1
102
RTVSPropertyOp28
 70
     1
102
RTVSPropertyOp29
 70
     1
102
RTVSPropertyOp30
 70
     1
102
RTVSPropertyOp31
 70
     1
102
RTVSPropertyOp32
 70
     1
102
RTVSPropertyOp33
 70
     1
102
RTVSPropertyOp34
 70
     1
102
RTVSPropertyOp35
 70
     1
102
RTVSPropertyOp36
 70
     1
102
RTVSPropertyOp37
 70
     1
102
RTVSPropertyOp38
 70
     1
102
RTVSPropertyOp39
 70
     1
102
RTVSPropertyOp40
 70
     1
102
RTVSPropertyOp41
 70
     1
102
RTVSPropertyOp42
 70
     1
102
RTVSPropertyOp43
 70
     1
102
RTVSPropertyOp44
 70
     1
102
RTVSPropertyOp45
 70
     1
102
RTVSPropertyOp46
 70
     1
102
RTVSPropertyOp47
 70
     1
102
RTVSPropertyOp48
 70
     1
102
RTVSPropertyOp49
 70
     1
102
RTVSPropertyOp50
 70
     1
102
RTVSPropertyOp51
 70
     0
102
RTVSPropertyOp52
 70
     0
102
RTVSPropertyOp53
 70
     1
102
RTVSPropertyOp54
 70
     1
102
RTVSPropertyOp55
 70
     1
102
RTVSPropertyOp56
 70
     1
102
RTVSPropertyOp57
 70
     1
102
RTVSPropertyOp58
 70
     1
102
RTVSPropertyOp59
 70
     1
102
RTVSPropertyOp60
 70
     1
102
RTVSPropertyOp61
 70
     1
102
RTVSPropertyOp62
 70
     1
  0
XRECORD
  5
481C
102
{ACAD_REACTORS
330
481B
102
}
330
481B
100
AcDbXrecord
280
     1
102
RTVSPost2010Prop28
280
     0
102
RTVSPost2010PropOp28
 70
     1
102
RTVSPost2010Prop29
280
     1
102
RTVSPost2010PropOp29
 70
     1
102
RTVSPost2010Prop30
280
     1
102
RTVSPost2010PropOp30
 70
     1
102
RTVSPost2010Prop31
280
     0
102
RTVSPost2010PropOp31
 70
     1
102
RTVSPost2010Prop32
280
     0
102
RTVSPost2010PropOp32
 70
     1
102
RTVSPost2010Prop33
280
     0
102
RTVSPost2010PropOp33
 70
     1
102
RTVSPost2010Prop34
280
     0
102
RTVSPost2010PropOp34
 70
     1
102
RTVSPost2010Prop35
280
     0
102
RTVSPost2010PropOp35
 70
     1
102
RTVSPost2010Prop36
280
     0
102
RTVSPost2010PropOp36
 70
     1
102
RTVSPost2010Prop37
 90
       50
102
RTVSPost2010PropOp37
 70
     1
102
RTVSPost2010Prop38
140
0.0
102
RTVSPost2010PropOp38
 70
     1
102
RTVSPost2010Prop39
140
1.0
102
RTVSPost2010PropOp39
 70
     1
102
RTVSPost2010Prop40
 90
        0
102
RTVSPost2010PropOp40
 70
     1
102
RTVSPost2010Prop41ColorIndex
 90
       18
102
RTVSPost2010Prop41ColorRGB
 90
        0
102
RTVSPost2010PropOp41
 70
     1
102
RTVSPost2010Prop42
 90
       50
102
RTVSPost2010PropOp42
 70
     1
102
RTVSPost2010Prop43
 90
        3
102
RTVSPost2010PropOp43
 70
     1
102
RTVSPost2010Prop44ColorIndex
 90
        5
102
RTVSPost2010Prop44ColorRGB
 90
      255
102
RTVSPost2010PropOp44
 70
     1
102
RTVSPost2010Prop45
280
     0
102
RTVSPost2010PropOp45
 70
     1
102
RTVSPost2010Prop46
 90
       50
102
RTVSPost2010PropOp46
 70
     1
102
RTVSPost2010Prop47
 90
       50
102
RTVSPost2010PropOp47
 70
     1
102
RTVSPost2010Prop48
 90
       50
102
RTVSPost2010PropOp48
 70
     1
102
RTVSPost2010Prop49
280
     0
102
RTVSPost2010PropOp49
 70
     1
102
RTVSPost2010Prop50
 90
       50
102
RTVSPost2010PropOp50
 70
     1
102
RTVSPost2010Prop51ColorIndex
 90
      256
102
RTVSPost2010Prop51ColorRGB
 90
-16777216
102
RTVSPost2010PropOp51
 70
     0
102
RTVSPost2010Prop52
140
1.0
102
RTVSPost2010PropOp52
 70
     0
102
RTVSPost2010Prop53
 90
        2
102
RTVSPost2010PropOp53
 70
     1
102
RTVSPost2010Prop54
  1
strokes_ogs.tif
102
RTVSPost2010PropOp54
 70
     1
102
RTVSPost2010Prop55
280
     0
102
RTVSPost2010PropOp55
 70
     1
102
RTVSPost2010Prop56
140
1.0
102
RTVSPost2010PropOp56
 70
     1
102
RTVSPost2010Prop57
140
1.0
102
RTVSPost2010PropOp57
 70
     1
102
RTVSPropertyOp0
 70
     1
102
RTVSPropertyOp1
 70
     1
102
RTVSPropertyOp2
 70
     1
102
RTVSPropertyOp3
 70
     1
102
RTVSPropertyOp4
 70
     1
102
RTVSPropertyOp5
 70
     1
102
RTVSPropertyOp6
 70
     1
102
RTVSPropertyOp7
 70
     1
102
RTVSPropertyOp8
 70
     1
102
RTVSPropertyOp9
 70
     1
102
RTVSPropertyOp10
 70
     1
102
RTVSPropertyOp11
 70
     1
102
RTVSPropertyOp12
 70
     1
102
RTVSPropertyOp13
 70
     1
102
RTVSPropertyOp14
 70
     1
102
RTVSPropertyOp15
 70
     1
102
RTVSPropertyOp16
 70
     1
102
RTVSPropertyOp17
 70
     1
102
RTVSPropertyOp18
 70
     1
102
RTVSPropertyOp19
 70
     1
102
RTVSPropertyOp20
 70
     1
102
RTVSPropertyOp21
 70
     1
102
RTVSPropertyOp22
 70
     1
102
RTVSPropertyOp23
 70
     1
102
RTVSPropertyOp24
 70
     1
102
RTVSPropertyOp25
 70
     1
102
RTVSPropertyOp26
 70
     1
102
RTVSPropertyOp27
 70
     1
102
RTVSPropertyOp28
 70
     1
102
RTVSPropertyOp29
 70
     1
102
RTVSPropertyOp30
 70
     1
102
RTVSPropertyOp31
 70
     1
102
RTVSPropertyOp32
 70
     1
102
RTVSPropertyOp33
 70
     1
102
RTVSPropertyOp34
 70
     1
102
RTVSPropertyOp35
 70
     1
102
RTVSPropertyOp36
 70
     1
102
RTVSPropertyOp37
 70
     1
102
RTVSPropertyOp38
 70
     1
102
RTVSPropertyOp39
 70
     1
102
RTVSPropertyOp40
 70
     1
102
RTVSPropertyOp41
 70
     1
102
RTVSPropertyOp42
 70
     1
102
RTVSPropertyOp43
 70
     1
102
RTVSPropertyOp44
 70
     1
102
RTVSPropertyOp45
 70
     1
102
RTVSPropertyOp46
 70
     1
102
RTVSPropertyOp47
 70
     1
102
RTVSPropertyOp48
 70
     1
102
RTVSPropertyOp49
 70
     1
102
RTVSPropertyOp50
 70
     1
102
RTVSPropertyOp51
 70
     0
102
RTVSPropertyOp52
 70
     0
102
RTVSPropertyOp53
 70
     1
102
RTVSPropertyOp54
 70
     1
102
RTVSPropertyOp55
 70
     1
102
RTVSPropertyOp56
 70
     1
102
RTVSPropertyOp57
 70
     1
102
RTVSPropertyOp58
 70
     1
102
RTVSPropertyOp59
 70
     1
102
RTVSPropertyOp60
 70
     1
102
RTVSPropertyOp61
 70
     1
102
RTVSPropertyOp62
 70
     1
  0
XRECORD
  5
481E
102
{ACAD_REACTORS
330
481D
102
}
330
481D
100
AcDbXrecord
280
     1
102
RTVSPost2010Prop28
280
     0
102
RTVSPost2010PropOp28
 70
     1
102
RTVSPost2010Prop29
280
     1
102
RTVSPost2010PropOp29
 70
     1
102
RTVSPost2010Prop30
280
     1
102
RTVSPost2010PropOp30
 70
     1
102
RTVSPost2010Prop31
280
     0
102
RTVSPost2010PropOp31
 70
     1
102
RTVSPost2010Prop32
280
     0
102
RTVSPost2010PropOp32
 70
     1
102
RTVSPost2010Prop33
280
     0
102
RTVSPost2010PropOp33
 70
     1
102
RTVSPost2010Prop34
280
     0
102
RTVSPost2010PropOp34
 70
     1
102
RTVSPost2010Prop35
280
     0
102
RTVSPost2010PropOp35
 70
     1
102
RTVSPost2010Prop36
280
     0
102
RTVSPost2010PropOp36
 70
     1
102
RTVSPost2010Prop37
 90
       50
102
RTVSPost2010PropOp37
 70
     1
102
RTVSPost2010Prop38
140
0.0
102
RTVSPost2010PropOp38
 70
     1
102
RTVSPost2010Prop39
140
1.0
102
RTVSPost2010PropOp39
 70
     1
102
RTVSPost2010Prop40
 90
        0
102
RTVSPost2010PropOp40
 70
     1
102
RTVSPost2010Prop41ColorIndex
 90
       18
102
RTVSPost2010Prop41ColorRGB
 90
        0
102
RTVSPost2010PropOp41
 70
     1
102
RTVSPost2010Prop42
 90
       50
102
RTVSPost2010PropOp42
 70
     1
102
RTVSPost2010Prop43
 90
        3
102
RTVSPost2010PropOp43
 70
     1
102
RTVSPost2010Prop44ColorIndex
 90
        5
102
RTVSPost2010Prop44ColorRGB
 90
      255
102
RTVSPost2010PropOp44
 70
     1
102
RTVSPost2010Prop45
280
     0
102
RTVSPost2010PropOp45
 70
     1
102
RTVSPost2010Prop46
 90
       50
102
RTVSPost2010PropOp46
 70
     1
102
RTVSPost2010Prop47
 90
       50
102
RTVSPost2010PropOp47
 70
     1
102
RTVSPost2010Prop48
 90
       50
102
RTVSPost2010PropOp48
 70
     1
102
RTVSPost2010Prop49
280
     0
102
RTVSPost2010PropOp49
 70
     1
102
RTVSPost2010Prop50
 90
       50
102
RTVSPost2010PropOp50
 70
     1
102
RTVSPost2010Prop51ColorIndex
 90
      256
102
RTVSPost2010Prop51ColorRGB
 90
-16777216
102
RTVSPost2010PropOp51
 70
     0
102
RTVSPost2010Prop52
140
1.0
102
RTVSPost2010PropOp52
 70
     0
102
RTVSPost2010Prop53
 90
        2
102
RTVSPost2010PropOp53
 70
     1
102
RTVSPost2010Prop54
  1
strokes_ogs.tif
102
RTVSPost2010PropOp54
 70
     1
102
RTVSPost2010Prop55
280
     0
102
RTVSPost2010PropOp55
 70
     1
102
RTVSPost2010Prop56
140
1.0
102
RTVSPost2010PropOp56
 70
     1
102
RTVSPost2010Prop57
140
1.0
102
RTVSPost2010PropOp57
 70
     1
102
RTVSPropertyOp0
 70
     1
102
RTVSPropertyOp1
 70
     1
102
RTVSPropertyOp2
 70
     1
102
RTVSPropertyOp3
 70
     1
102
RTVSPropertyOp4
 70
     1
102
RTVSPropertyOp5
 70
     1
102
RTVSPropertyOp6
 70
     1
102
RTVSPropertyOp7
 70
     1
102
RTVSPropertyOp8
 70
     1
102
RTVSPropertyOp9
 70
     1
102
RTVSPropertyOp10
 70
     1
102
RTVSPropertyOp11
 70
     1
102
RTVSPropertyOp12
 70
     1
102
RTVSPropertyOp13
 70
     1
102
RTVSPropertyOp14
 70
     1
102
RTVSPropertyOp15
 70
     1
102
RTVSPropertyOp16
 70
     1
102
RTVSPropertyOp17
 70
     1
102
RTVSPropertyOp18
 70
     1
102
RTVSPropertyOp19
 70
     1
102
RTVSPropertyOp20
 70
     1
102
RTVSPropertyOp21
 70
     1
102
RTVSPropertyOp22
 70
     1
102
RTVSPropertyOp23
 70
     1
102
RTVSPropertyOp24
 70
     1
102
RTVSPropertyOp25
 70
     1
102
RTVSPropertyOp26
 70
     1
102
RTVSPropertyOp27
 70
     1
102
RTVSPropertyOp28
 70
     1
102
RTVSPropertyOp29
 70
     1
102
RTVSPropertyOp30
 70
     1
102
RTVSPropertyOp31
 70
     1
102
RTVSPropertyOp32
 70
     1
102
RTVSPropertyOp33
 70
     1
102
RTVSPropertyOp34
 70
     1
102
RTVSPropertyOp35
 70
     1
102
RTVSPropertyOp36
 70
     1
102
RTVSPropertyOp37
 70
     1
102
RTVSPropertyOp38
 70
     1
102
RTVSPropertyOp39
 70
     1
102
RTVSPropertyOp40
 70
     1
102
RTVSPropertyOp41
 70
     1
102
RTVSPropertyOp42
 70
     1
102
RTVSPropertyOp43
 70
     1
102
RTVSPropertyOp44
 70
     1
102
RTVSPropertyOp45
 70
     1
102
RTVSPropertyOp46
 70
     1
102
RTVSPropertyOp47
 70
     1
102
RTVSPropertyOp48
 70
     1
102
RTVSPropertyOp49
 70
     1
102
RTVSPropertyOp50
 70
     1
102
RTVSPropertyOp51
 70
     0
102
RTVSPropertyOp52
 70
     0
102
RTVSPropertyOp53
 70
     1
102
RTVSPropertyOp54
 70
     1
102
RTVSPropertyOp55
 70
     1
102
RTVSPropertyOp56
 70
     1
102
RTVSPropertyOp57
 70
     1
102
RTVSPropertyOp58
 70
     1
102
RTVSPropertyOp59
 70
     1
102
RTVSPropertyOp60
 70
     1
102
RTVSPropertyOp61
 70
     1
102
RTVSPropertyOp62
 70
     1
  0
XRECORD
  5
4820
102
{ACAD_REACTORS
330
481F
102
}
330
481F
100
AcDbXrecord
280
     1
102
RTVSPost2010Prop28
280
     0
102
RTVSPost2010PropOp28
 70
     1
102
RTVSPost2010Prop29
280
     1
102
RTVSPost2010PropOp29
 70
     1
102
RTVSPost2010Prop30
280
     1
102
RTVSPost2010PropOp30
 70
     1
102
RTVSPost2010Prop31
280
     0
102
RTVSPost2010PropOp31
 70
     1
102
RTVSPost2010Prop32
280
     0
102
RTVSPost2010PropOp32
 70
     1
102
RTVSPost2010Prop33
280
     0
102
RTVSPost2010PropOp33
 70
     1
102
RTVSPost2010Prop34
280
     0
102
RTVSPost2010PropOp34
 70
     1
102
RTVSPost2010Prop35
280
     0
102
RTVSPost2010PropOp35
 70
     1
102
RTVSPost2010Prop36
280
     0
102
RTVSPost2010PropOp36
 70
     1
102
RTVSPost2010Prop37
 90
       50
102
RTVSPost2010PropOp37
 70
     1
102
RTVSPost2010Prop38
140
0.0
102
RTVSPost2010PropOp38
 70
     1
102
RTVSPost2010Prop39
140
1.0
102
RTVSPost2010PropOp39
 70
     1
102
RTVSPost2010Prop40
 90
        0
102
RTVSPost2010PropOp40
 70
     1
102
RTVSPost2010Prop41ColorIndex
 90
       18
102
RTVSPost2010Prop41ColorRGB
 90
        0
102
RTVSPost2010PropOp41
 70
     1
102
RTVSPost2010Prop42
 90
       50
102
RTVSPost2010PropOp42
 70
     1
102
RTVSPost2010Prop43
 90
        3
102
RTVSPost2010PropOp43
 70
     1
102
RTVSPost2010Prop44ColorIndex
 90
        5
102
RTVSPost2010Prop44ColorRGB
 90
      255
102
RTVSPost2010PropOp44
 70
     1
102
RTVSPost2010Prop45
280
     0
102
RTVSPost2010PropOp45
 70
     1
102
RTVSPost2010Prop46
 90
       50
102
RTVSPost2010PropOp46
 70
     1
102
RTVSPost2010Prop47
 90
       50
102
RTVSPost2010PropOp47
 70
     1
102
RTVSPost2010Prop48
 90
       50
102
RTVSPost2010PropOp48
 70
     1
102
RTVSPost2010Prop49
280
     0
102
RTVSPost2010PropOp49
 70
     1
102
RTVSPost2010Prop50
 90
       50
102
RTVSPost2010PropOp50
 70
     1
102
RTVSPost2010Prop51ColorIndex
 90
      256
102
RTVSPost2010Prop51ColorRGB
 90
-16777216
102
RTVSPost2010PropOp51
 70
     0
102
RTVSPost2010Prop52
140
1.0
102
RTVSPost2010PropOp52
 70
     0
102
RTVSPost2010Prop53
 90
        2
102
RTVSPost2010PropOp53
 70
     1
102
RTVSPost2010Prop54
  1
strokes_ogs.tif
102
RTVSPost2010PropOp54
 70
     1
102
RTVSPost2010Prop55
280
     0
102
RTVSPost2010PropOp55
 70
     1
102
RTVSPost2010Prop56
140
1.0
102
RTVSPost2010PropOp56
 70
     1
102
RTVSPost2010Prop57
140
1.0
102
RTVSPost2010PropOp57
 70
     1
102
RTVSPropertyOp0
 70
     1
102
RTVSPropertyOp1
 70
     1
102
RTVSPropertyOp2
 70
     1
102
RTVSPropertyOp3
 70
     1
102
RTVSPropertyOp4
 70
     1
102
RTVSPropertyOp5
 70
     1
102
RTVSPropertyOp6
 70
     1
102
RTVSPropertyOp7
 70
     1
102
RTVSPropertyOp8
 70
     1
102
RTVSPropertyOp9
 70
     1
102
RTVSPropertyOp10
 70
     1
102
RTVSPropertyOp11
 70
     1
102
RTVSPropertyOp12
 70
     1
102
RTVSPropertyOp13
 70
     1
102
RTVSPropertyOp14
 70
     1
102
RTVSPropertyOp15
 70
     1
102
RTVSPropertyOp16
 70
     1
102
RTVSPropertyOp17
 70
     1
102
RTVSPropertyOp18
 70
     1
102
RTVSPropertyOp19
 70
     1
102
RTVSPropertyOp20
 70
     1
102
RTVSPropertyOp21
 70
     1
102
RTVSPropertyOp22
 70
     1
102
RTVSPropertyOp23
 70
     1
102
RTVSPropertyOp24
 70
     1
102
RTVSPropertyOp25
 70
     1
102
RTVSPropertyOp26
 70
     1
102
RTVSPropertyOp27
 70
     1
102
RTVSPropertyOp28
 70
     1
102
RTVSPropertyOp29
 70
     1
102
RTVSPropertyOp30
 70
     1
102
RTVSPropertyOp31
 70
     1
102
RTVSPropertyOp32
 70
     1
102
RTVSPropertyOp33
 70
     1
102
RTVSPropertyOp34
 70
     1
102
RTVSPropertyOp35
 70
     1
102
RTVSPropertyOp36
 70
     1
102
RTVSPropertyOp37
 70
     1
102
RTVSPropertyOp38
 70
     1
102
RTVSPropertyOp39
 70
     1
102
RTVSPropertyOp40
 70
     1
102
RTVSPropertyOp41
 70
     1
102
RTVSPropertyOp42
 70
     1
102
RTVSPropertyOp43
 70
     1
102
RTVSPropertyOp44
 70
     1
102
RTVSPropertyOp45
 70
     1
102
RTVSPropertyOp46
 70
     1
102
RTVSPropertyOp47
 70
     1
102
RTVSPropertyOp48
 70
     1
102
RTVSPropertyOp49
 70
     1
102
RTVSPropertyOp50
 70
     1
102
RTVSPropertyOp51
 70
     0
102
RTVSPropertyOp52
 70
     0
102
RTVSPropertyOp53
 70
     1
102
RTVSPropertyOp54
 70
     1
102
RTVSPropertyOp55
 70
     1
102
RTVSPropertyOp56
 70
     1
102
RTVSPropertyOp57
 70
     1
102
RTVSPropertyOp58
 70
     1
102
RTVSPropertyOp59
 70
     1
102
RTVSPropertyOp60
 70
     1
102
RTVSPropertyOp61
 70
     1
102
RTVSPropertyOp62
 70
     1
  0
XRECORD
  5
4828
102
{ACAD_REACTORS
330
4827
102
}
330
4827
100
AcDbXrecord
280
     1
102
RTVSPost2010Prop28
280
     0
102
RTVSPost2010PropOp28
 70
     1
102
RTVSPost2010Prop29
280
     1
102
RTVSPost2010PropOp29
 70
     1
102
RTVSPost2010Prop30
280
     1
102
RTVSPost2010PropOp30
 70
     1
102
RTVSPost2010Prop31
280
     0
102
RTVSPost2010PropOp31
 70
     1
102
RTVSPost2010Prop32
280
     0
102
RTVSPost2010PropOp32
 70
     1
102
RTVSPost2010Prop33
280
     0
102
RTVSPost2010PropOp33
 70
     1
102
RTVSPost2010Prop34
280
     0
102
RTVSPost2010PropOp34
 70
     1
102
RTVSPost2010Prop35
280
     0
102
RTVSPost2010PropOp35
 70
     1
102
RTVSPost2010Prop36
280
     0
102
RTVSPost2010PropOp36
 70
     1
102
RTVSPost2010Prop37
 90
       50
102
RTVSPost2010PropOp37
 70
     1
102
RTVSPost2010Prop38
140
0.0
102
RTVSPost2010PropOp38
 70
     1
102
RTVSPost2010Prop39
140
1.0
102
RTVSPost2010PropOp39
 70
     1
102
RTVSPost2010Prop40
 90
        0
102
RTVSPost2010PropOp40
 70
     1
102
RTVSPost2010Prop41ColorIndex
 90
       18
102
RTVSPost2010Prop41ColorRGB
 90
        0
102
RTVSPost2010PropOp41
 70
     1
102
RTVSPost2010Prop42
 90
       50
102
RTVSPost2010PropOp42
 70
     1
102
RTVSPost2010Prop43
 90
        3
102
RTVSPost2010PropOp43
 70
     1
102
RTVSPost2010Prop44ColorIndex
 90
        5
102
RTVSPost2010Prop44ColorRGB
 90
      255
102
RTVSPost2010PropOp44
 70
     1
102
RTVSPost2010Prop45
280
     0
102
RTVSPost2010PropOp45
 70
     1
102
RTVSPost2010Prop46
 90
       50
102
RTVSPost2010PropOp46
 70
     1
102
RTVSPost2010Prop47
 90
       50
102
RTVSPost2010PropOp47
 70
     1
102
RTVSPost2010Prop48
 90
       50
102
RTVSPost2010PropOp48
 70
     1
102
RTVSPost2010Prop49
280
     0
102
RTVSPost2010PropOp49
 70
     1
102
RTVSPost2010Prop50
 90
       50
102
RTVSPost2010PropOp50
 70
     1
102
RTVSPost2010Prop51ColorIndex
 90
      256
102
RTVSPost2010Prop51ColorRGB
 90
-16777216
102
RTVSPost2010PropOp51
 70
     0
102
RTVSPost2010Prop52
140
1.0
102
RTVSPost2010PropOp52
 70
     0
102
RTVSPost2010Prop53
 90
        2
102
RTVSPost2010PropOp53
 70
     1
102
RTVSPost2010Prop54
  1
strokes_ogs.tif
102
RTVSPost2010PropOp54
 70
     1
102
RTVSPost2010Prop55
280
     0
102
RTVSPost2010PropOp55
 70
     1
102
RTVSPost2010Prop56
140
1.0
102
RTVSPost2010PropOp56
 70
     1
102
RTVSPost2010Prop57
140
1.0
102
RTVSPost2010PropOp57
 70
     1
102
RTVSPropertyOp0
 70
     1
102
RTVSPropertyOp1
 70
     1
102
RTVSPropertyOp2
 70
     1
102
RTVSPropertyOp3
 70
     1
102
RTVSPropertyOp4
 70
     1
102
RTVSPropertyOp5
 70
     1
102
RTVSPropertyOp6
 70
     1
102
RTVSPropertyOp7
 70
     1
102
RTVSPropertyOp8
 70
     1
102
RTVSPropertyOp9
 70
     1
102
RTVSPropertyOp10
 70
     1
102
RTVSPropertyOp11
 70
     1
102
RTVSPropertyOp12
 70
     1
102
RTVSPropertyOp13
 70
     1
102
RTVSPropertyOp14
 70
     1
102
RTVSPropertyOp15
 70
     1
102
RTVSPropertyOp16
 70
     1
102
RTVSPropertyOp17
 70
     1
102
RTVSPropertyOp18
 70
     1
102
RTVSPropertyOp19
 70
     1
102
RTVSPropertyOp20
 70
     1
102
RTVSPropertyOp21
 70
     1
102
RTVSPropertyOp22
 70
     1
102
RTVSPropertyOp23
 70
     1
102
RTVSPropertyOp24
 70
     1
102
RTVSPropertyOp25
 70
     1
102
RTVSPropertyOp26
 70
     1
102
RTVSPropertyOp27
 70
     1
102
RTVSPropertyOp28
 70
     1
102
RTVSPropertyOp29
 70
     1
102
RTVSPropertyOp30
 70
     1
102
RTVSPropertyOp31
 70
     1
102
RTVSPropertyOp32
 70
     1
102
RTVSPropertyOp33
 70
     1
102
RTVSPropertyOp34
 70
     1
102
RTVSPropertyOp35
 70
     1
102
RTVSPropertyOp36
 70
     1
102
RTVSPropertyOp37
 70
     1
102
RTVSPropertyOp38
 70
     1
102
RTVSPropertyOp39
 70
     1
102
RTVSPropertyOp40
 70
     1
102
RTVSPropertyOp41
 70
     1
102
RTVSPropertyOp42
 70
     1
102
RTVSPropertyOp43
 70
     1
102
RTVSPropertyOp44
 70
     1
102
RTVSPropertyOp45
 70
     1
102
RTVSPropertyOp46
 70
     1
102
RTVSPropertyOp47
 70
     1
102
RTVSPropertyOp48
 70
     1
102
RTVSPropertyOp49
 70
     1
102
RTVSPropertyOp50
 70
     1
102
RTVSPropertyOp51
 70
     0
102
RTVSPropertyOp52
 70
     0
102
RTVSPropertyOp53
 70
     1
102
RTVSPropertyOp54
 70
     1
102
RTVSPropertyOp55
 70
     1
102
RTVSPropertyOp56
 70
     1
102
RTVSPropertyOp57
 70
     1
102
RTVSPropertyOp58
 70
     1
102
RTVSPropertyOp59
 70
     1
102
RTVSPropertyOp60
 70
     1
102
RTVSPropertyOp61
 70
     1
102
RTVSPropertyOp62
 70
     1
  0
XRECORD
  5
4844
102
{ACAD_REACTORS
330
4843
102
}
330
4843
100
AcDbXrecord
280
     1
102
RTVSPost2010Prop28
280
     0
102
RTVSPost2010PropOp28
 70
     0
102
RTVSPost2010Prop29
280
     1
102
RTVSPost2010PropOp29
 70
     0
102
RTVSPost2010Prop30
280
     1
102
RTVSPost2010PropOp30
 70
     0
102
RTVSPost2010Prop31
280
     0
102
RTVSPost2010PropOp31
 70
     0
102
RTVSPost2010Prop32
280
     0
102
RTVSPost2010PropOp32
 70
     0
102
RTVSPost2010Prop33
280
     0
102
RTVSPost2010PropOp33
 70
     0
102
RTVSPost2010Prop34
280
     0
102
RTVSPost2010PropOp34
 70
     0
102
RTVSPost2010Prop35
280
     0
102
RTVSPost2010PropOp35
 70
     0
102
RTVSPost2010Prop36
280
     0
102
RTVSPost2010PropOp36
 70
     0
102
RTVSPost2010Prop37
 90
       50
102
RTVSPost2010PropOp37
 70
     0
102
RTVSPost2010Prop38
140
0.0
102
RTVSPost2010PropOp38
 70
     0
102
RTVSPost2010Prop39
140
1.0
102
RTVSPost2010PropOp39
 70
     0
102
RTVSPost2010Prop40
 90
        0
102
RTVSPost2010PropOp40
 70
     0
102
RTVSPost2010Prop41ColorIndex
 90
       18
102
RTVSPost2010Prop41ColorRGB
 90
        0
102
RTVSPost2010PropOp41
 70
     0
102
RTVSPost2010Prop42
 90
       50
102
RTVSPost2010PropOp42
 70
     0
102
RTVSPost2010Prop43
 90
        3
102
RTVSPost2010PropOp43
 70
     0
102
RTVSPost2010Prop44ColorIndex
 90
        5
102
RTVSPost2010Prop44ColorRGB
 90
      255
102
RTVSPost2010PropOp44
 70
     0
102
RTVSPost2010Prop45
280
     0
102
RTVSPost2010PropOp45
 70
     0
102
RTVSPost2010Prop46
 90
       50
102
RTVSPost2010PropOp46
 70
     0
102
RTVSPost2010Prop47
 90
       50
102
RTVSPost2010PropOp47
 70
     0
102
RTVSPost2010Prop48
 90
       50
102
RTVSPost2010PropOp48
 70
     0
102
RTVSPost2010Prop49
280
     0
102
RTVSPost2010PropOp49
 70
     0
102
RTVSPost2010Prop50
 90
       50
102
RTVSPost2010PropOp50
 70
     0
102
RTVSPost2010Prop51ColorIndex
 90
      256
102
RTVSPost2010Prop51ColorRGB
 90
-16777216
102
RTVSPost2010PropOp51
 70
     0
102
RTVSPost2010Prop52
140
1.0
102
RTVSPost2010PropOp52
 70
     0
102
RTVSPost2010Prop53
 90
        2
102
RTVSPost2010PropOp53
 70
     0
102
RTVSPost2010Prop54
  1
strokes_ogs.tif
102
RTVSPost2010PropOp54
 70
     0
102
RTVSPost2010Prop55
280
     0
102
RTVSPost2010PropOp55
 70
     0
102
RTVSPost2010Prop56
140
1.0
102
RTVSPost2010PropOp56
 70
     0
102
RTVSPost2010Prop57
140
1.0
102
RTVSPost2010PropOp57
 70
     0
102
RTVSPropertyOp0
 70
     0
102
RTVSPropertyOp1
 70
     0
102
RTVSPropertyOp2
 70
     0
102
RTVSPropertyOp3
 70
     0
102
RTVSPropertyOp4
 70
     0
102
RTVSPropertyOp5
 70
     0
102
RTVSPropertyOp6
 70
     0
102
RTVSPropertyOp7
 70
     0
102
RTVSPropertyOp8
 70
     0
102
RTVSPropertyOp9
 70
     0
102
RTVSPropertyOp10
 70
     0
102
RTVSPropertyOp11
 70
     0
102
RTVSPropertyOp12
 70
     0
102
RTVSPropertyOp13
 70
     0
102
RTVSPropertyOp14
 70
     2
102
RTVSPropertyOp15
 70
     0
102
RTVSPropertyOp16
 70
     0
102
RTVSPropertyOp17
 70
     0
102
RTVSPropertyOp18
 70
     0
102
RTVSPropertyOp19
 70
     0
102
RTVSPropertyOp20
 70
     0
102
RTVSPropertyOp21
 70
     0
102
RTVSPropertyOp22
 70
     0
102
RTVSPropertyOp23
 70
     0
102
RTVSPropertyOp24
 70
     0
102
RTVSPropertyOp25
 70
     0
102
RTVSPropertyOp26
 70
     0
102
RTVSPropertyOp27
 70
     0
102
RTVSPropertyOp28
 70
     0
102
RTVSPropertyOp29
 70
     0
102
RTVSPropertyOp30
 70
     0
102
RTVSPropertyOp31
 70
     0
102
RTVSPropertyOp32
 70
     0
102
RTVSPropertyOp33
 70
     0
102
RTVSPropertyOp34
 70
     0
102
RTVSPropertyOp35
 70
     0
102
RTVSPropertyOp36
 70
     0
102
RTVSPropertyOp37
 70
     0
102
RTVSPropertyOp38
 70
     0
102
RTVSPropertyOp39
 70
     0
102
RTVSPropertyOp40
 70
     0
102
RTVSPropertyOp41
 70
     0
102
RTVSPropertyOp42
 70
     0
102
RTVSPropertyOp43
 70
     0
102
RTVSPropertyOp44
 70
     0
102
RTVSPropertyOp45
 70
     0
102
RTVSPropertyOp46
 70
     0
102
RTVSPropertyOp47
 70
     0
102
RTVSPropertyOp48
 70
     0
102
RTVSPropertyOp49
 70
     0
102
RTVSPropertyOp50
 70
     0
102
RTVSPropertyOp51
 70
     0
102
RTVSPropertyOp52
 70
     0
102
RTVSPropertyOp53
 70
     0
102
RTVSPropertyOp54
 70
     0
102
RTVSPropertyOp55
 70
     0
102
RTVSPropertyOp56
 70
     0
102
RTVSPropertyOp57
 70
     0
102
RTVSPropertyOp58
 70
     0
102
RTVSPropertyOp59
 70
     0
102
RTVSPropertyOp60
 70
     0
102
RTVSPropertyOp61
 70
     0
102
RTVSPropertyOp62
 70
     0
  0
XRECORD
  5
4834
102
{ACAD_REACTORS
330
4833
102
}
330
4833
100
AcDbXrecord
280
     1
102
RTVSPost2010Prop28
280
     0
102
RTVSPost2010PropOp28
 70
     1
102
RTVSPost2010Prop29
280
     1
102
RTVSPost2010PropOp29
 70
     1
102
RTVSPost2010Prop30
280
     1
102
RTVSPost2010PropOp30
 70
     1
102
RTVSPost2010Prop31
280
     0
102
RTVSPost2010PropOp31
 70
     1
102
RTVSPost2010Prop32
280
     0
102
RTVSPost2010PropOp32
 70
     1
102
RTVSPost2010Prop33
280
     0
102
RTVSPost2010PropOp33
 70
     1
102
RTVSPost2010Prop34
280
     0
102
RTVSPost2010PropOp34
 70
     1
102
RTVSPost2010Prop35
280
     0
102
RTVSPost2010PropOp35
 70
     1
102
RTVSPost2010Prop36
280
     0
102
RTVSPost2010PropOp36
 70
     1
102
RTVSPost2010Prop37
 90
       50
102
RTVSPost2010PropOp37
 70
     1
102
RTVSPost2010Prop38
140
0.0
102
RTVSPost2010PropOp38
 70
     1
102
RTVSPost2010Prop39
140
1.0
102
RTVSPost2010PropOp39
 70
     1
102
RTVSPost2010Prop40
 90
        0
102
RTVSPost2010PropOp40
 70
     1
102
RTVSPost2010Prop41ColorIndex
 90
       18
102
RTVSPost2010Prop41ColorRGB
 90
        0
102
RTVSPost2010PropOp41
 70
     1
102
RTVSPost2010Prop42
 90
       50
102
RTVSPost2010PropOp42
 70
     1
102
RTVSPost2010Prop43
 90
        3
102
RTVSPost2010PropOp43
 70
     1
102
RTVSPost2010Prop44ColorIndex
 90
        5
102
RTVSPost2010Prop44ColorRGB
 90
      255
102
RTVSPost2010PropOp44
 70
     1
102
RTVSPost2010Prop45
280
     0
102
RTVSPost2010PropOp45
 70
     1
102
RTVSPost2010Prop46
 90
       50
102
RTVSPost2010PropOp46
 70
     1
102
RTVSPost2010Prop47
 90
       50
102
RTVSPost2010PropOp47
 70
     1
102
RTVSPost2010Prop48
 90
       50
102
RTVSPost2010PropOp48
 70
     1
102
RTVSPost2010Prop49
280
     0
102
RTVSPost2010PropOp49
 70
     1
102
RTVSPost2010Prop50
 90
       50
102
RTVSPost2010PropOp50
 70
     1
102
RTVSPost2010Prop51ColorIndex
 90
      256
102
RTVSPost2010Prop51ColorRGB
 90
-16777216
102
RTVSPost2010PropOp51
 70
     0
102
RTVSPost2010Prop52
140
1.0
102
RTVSPost2010PropOp52
 70
     0
102
RTVSPost2010Prop53
 90
        2
102
RTVSPost2010PropOp53
 70
     1
102
RTVSPost2010Prop54
  1
strokes_ogs.tif
102
RTVSPost2010PropOp54
 70
     1
102
RTVSPost2010Prop55
280
     0
102
RTVSPost2010PropOp55
 70
     1
102
RTVSPost2010Prop56
140
1.0
102
RTVSPost2010PropOp56
 70
     1
102
RTVSPost2010Prop57
140
1.0
102
RTVSPost2010PropOp57
 70
     1
102
RTVSPropertyOp0
 70
     1
102
RTVSPropertyOp1
 70
     1
102
RTVSPropertyOp2
 70
     1
102
RTVSPropertyOp3
 70
     1
102
RTVSPropertyOp4
 70
     1
102
RTVSPropertyOp5
 70
     1
102
RTVSPropertyOp6
 70
     1
102
RTVSPropertyOp7
 70
     1
102
RTVSPropertyOp8
 70
     1
102
RTVSPropertyOp9
 70
     1
102
RTVSPropertyOp10
 70
     1
102
RTVSPropertyOp11
 70
     1
102
RTVSPropertyOp12
 70
     1
102
RTVSPropertyOp13
 70
     1
102
RTVSPropertyOp14
 70
     1
102
RTVSPropertyOp15
 70
     1
102
RTVSPropertyOp16
 70
     1
102
RTVSPropertyOp17
 70
     1
102
RTVSPropertyOp18
 70
     1
102
RTVSPropertyOp19
 70
     1
102
RTVSPropertyOp20
 70
     1
102
RTVSPropertyOp21
 70
     1
102
RTVSPropertyOp22
 70
     1
102
RTVSPropertyOp23
 70
     1
102
RTVSPropertyOp24
 70
     1
102
RTVSPropertyOp25
 70
     1
102
RTVSPropertyOp26
 70
     1
102
RTVSPropertyOp27
 70
     1
102
RTVSPropertyOp28
 70
     1
102
RTVSPropertyOp29
 70
     1
102
RTVSPropertyOp30
 70
     1
102
RTVSPropertyOp31
 70
     1
102
RTVSPropertyOp32
 70
     1
102
RTVSPropertyOp33
 70
     1
102
RTVSPropertyOp34
 70
     1
102
RTVSPropertyOp35
 70
     1
102
RTVSPropertyOp36
 70
     1
102
RTVSPropertyOp37
 70
     1
102
RTVSPropertyOp38
 70
     1
102
RTVSPropertyOp39
 70
     1
102
RTVSPropertyOp40
 70
     1
102
RTVSPropertyOp41
 70
     1
102
RTVSPropertyOp42
 70
     1
102
RTVSPropertyOp43
 70
     1
102
RTVSPropertyOp44
 70
     1
102
RTVSPropertyOp45
 70
     1
102
RTVSPropertyOp46
 70
     1
102
RTVSPropertyOp47
 70
     1
102
RTVSPropertyOp48
 70
     1
102
RTVSPropertyOp49
 70
     1
102
RTVSPropertyOp50
 70
     1
102
RTVSPropertyOp51
 70
     0
102
RTVSPropertyOp52
 70
     0
102
RTVSPropertyOp53
 70
     1
102
RTVSPropertyOp54
 70
     1
102
RTVSPropertyOp55
 70
     1
102
RTVSPropertyOp56
 70
     1
102
RTVSPropertyOp57
 70
     1
102
RTVSPropertyOp58
 70
     1
102
RTVSPropertyOp59
 70
     1
102
RTVSPropertyOp60
 70
     1
102
RTVSPropertyOp61
 70
     1
102
RTVSPropertyOp62
 70
     1
  0
XRECORD
  5
4846
102
{ACAD_REACTORS
330
4845
102
}
330
4845
100
AcDbXrecord
280
     1
102
RTVSPost2010Prop28
280
     0
102
RTVSPost2010PropOp28
 70
     0
102
RTVSPost2010Prop29
280
     1
102
RTVSPost2010PropOp29
 70
     0
102
RTVSPost2010Prop30
280
     1
102
RTVSPost2010PropOp30
 70
     0
102
RTVSPost2010Prop31
280
     0
102
RTVSPost2010PropOp31
 70
     0
102
RTVSPost2010Prop32
280
     0
102
RTVSPost2010PropOp32
 70
     0
102
RTVSPost2010Prop33
280
     0
102
RTVSPost2010PropOp33
 70
     0
102
RTVSPost2010Prop34
280
     0
102
RTVSPost2010PropOp34
 70
     0
102
RTVSPost2010Prop35
280
     0
102
RTVSPost2010PropOp35
 70
     0
102
RTVSPost2010Prop36
280
     0
102
RTVSPost2010PropOp36
 70
     0
102
RTVSPost2010Prop37
 90
       50
102
RTVSPost2010PropOp37
 70
     0
102
RTVSPost2010Prop38
140
0.0
102
RTVSPost2010PropOp38
 70
     0
102
RTVSPost2010Prop39
140
1.0
102
RTVSPost2010PropOp39
 70
     0
102
RTVSPost2010Prop40
 90
        0
102
RTVSPost2010PropOp40
 70
     0
102
RTVSPost2010Prop41ColorIndex
 90
       18
102
RTVSPost2010Prop41ColorRGB
 90
        0
102
RTVSPost2010PropOp41
 70
     0
102
RTVSPost2010Prop42
 90
       50
102
RTVSPost2010PropOp42
 70
     0
102
RTVSPost2010Prop43
 90
        3
102
RTVSPost2010PropOp43
 70
     0
102
RTVSPost2010Prop44ColorIndex
 90
        5
102
RTVSPost2010Prop44ColorRGB
 90
      255
102
RTVSPost2010PropOp44
 70
     0
102
RTVSPost2010Prop45
280
     0
102
RTVSPost2010PropOp45
 70
     0
102
RTVSPost2010Prop46
 90
       50
102
RTVSPost2010PropOp46
 70
     0
102
RTVSPost2010Prop47
 90
       50
102
RTVSPost2010PropOp47
 70
     0
102
RTVSPost2010Prop48
 90
       50
102
RTVSPost2010PropOp48
 70
     0
102
RTVSPost2010Prop49
280
     0
102
RTVSPost2010PropOp49
 70
     0
102
RTVSPost2010Prop50
 90
       50
102
RTVSPost2010PropOp50
 70
     0
102
RTVSPost2010Prop51ColorIndex
 90
      256
102
RTVSPost2010Prop51ColorRGB
 90
-16777216
102
RTVSPost2010PropOp51
 70
     0
102
RTVSPost2010Prop52
140
1.0
102
RTVSPost2010PropOp52
 70
     0
102
RTVSPost2010Prop53
 90
        2
102
RTVSPost2010PropOp53
 70
     0
102
RTVSPost2010Prop54
  1
strokes_ogs.tif
102
RTVSPost2010PropOp54
 70
     0
102
RTVSPost2010Prop55
280
     0
102
RTVSPost2010PropOp55
 70
     0
102
RTVSPost2010Prop56
140
1.0
102
RTVSPost2010PropOp56
 70
     0
102
RTVSPost2010Prop57
140
1.0
102
RTVSPost2010PropOp57
 70
     0
102
RTVSPropertyOp0
 70
     0
102
RTVSPropertyOp1
 70
     0
102
RTVSPropertyOp2
 70
     0
102
RTVSPropertyOp3
 70
     0
102
RTVSPropertyOp4
 70
     0
102
RTVSPropertyOp5
 70
     0
102
RTVSPropertyOp6
 70
     0
102
RTVSPropertyOp7
 70
     0
102
RTVSPropertyOp8
 70
     0
102
RTVSPropertyOp9
 70
     0
102
RTVSPropertyOp10
 70
     0
102
RTVSPropertyOp11
 70
     0
102
RTVSPropertyOp12
 70
     0
102
RTVSPropertyOp13
 70
     0
102
RTVSPropertyOp14
 70
     2
102
RTVSPropertyOp15
 70
     0
102
RTVSPropertyOp16
 70
     0
102
RTVSPropertyOp17
 70
     0
102
RTVSPropertyOp18
 70
     0
102
RTVSPropertyOp19
 70
     0
102
RTVSPropertyOp20
 70
     0
102
RTVSPropertyOp21
 70
     0
102
RTVSPropertyOp22
 70
     0
102
RTVSPropertyOp23
 70
     0
102
RTVSPropertyOp24
 70
     0
102
RTVSPropertyOp25
 70
     0
102
RTVSPropertyOp26
 70
     0
102
RTVSPropertyOp27
 70
     0
102
RTVSPropertyOp28
 70
     0
102
RTVSPropertyOp29
 70
     0
102
RTVSPropertyOp30
 70
     0
102
RTVSPropertyOp31
 70
     0
102
RTVSPropertyOp32
 70
     0
102
RTVSPropertyOp33
 70
     0
102
RTVSPropertyOp34
 70
     0
102
RTVSPropertyOp35
 70
     0
102
RTVSPropertyOp36
 70
     0
102
RTVSPropertyOp37
 70
     0
102
RTVSPropertyOp38
 70
     0
102
RTVSPropertyOp39
 70
     0
102
RTVSPropertyOp40
 70
     0
102
RTVSPropertyOp41
 70
     0
102
RTVSPropertyOp42
 70
     0
102
RTVSPropertyOp43
 70
     0
102
RTVSPropertyOp44
 70
     0
102
RTVSPropertyOp45
 70
     0
102
RTVSPropertyOp46
 70
     0
102
RTVSPropertyOp47
 70
     0
102
RTVSPropertyOp48
 70
     0
102
RTVSPropertyOp49
 70
     0
102
RTVSPropertyOp50
 70
     0
102
RTVSPropertyOp51
 70
     0
102
RTVSPropertyOp52
 70
     0
102
RTVSPropertyOp53
 70
     0
102
RTVSPropertyOp54
 70
     0
102
RTVSPropertyOp55
 70
     0
102
RTVSPropertyOp56
 70
     0
102
RTVSPropertyOp57
 70
     0
102
RTVSPropertyOp58
 70
     0
102
RTVSPropertyOp59
 70
     0
102
RTVSPropertyOp60
 70
     0
102
RTVSPropertyOp61
 70
     0
102
RTVSPropertyOp62
 70
     0
  0
XRECORD
  5
482C
102
{ACAD_REACTORS
330
482B
102
}
330
482B
100
AcDbXrecord
280
     1
102
RTVSPost2010Prop28
280
     0
102
RTVSPost2010PropOp28
 70
     1
102
RTVSPost2010Prop29
280
     1
102
RTVSPost2010PropOp29
 70
     1
102
RTVSPost2010Prop30
280
     1
102
RTVSPost2010PropOp30
 70
     1
102
RTVSPost2010Prop31
280
     0
102
RTVSPost2010PropOp31
 70
     1
102
RTVSPost2010Prop32
280
     0
102
RTVSPost2010PropOp32
 70
     1
102
RTVSPost2010Prop33
280
     0
102
RTVSPost2010PropOp33
 70
     1
102
RTVSPost2010Prop34
280
     0
102
RTVSPost2010PropOp34
 70
     1
102
RTVSPost2010Prop35
280
     0
102
RTVSPost2010PropOp35
 70
     1
102
RTVSPost2010Prop36
280
     0
102
RTVSPost2010PropOp36
 70
     1
102
RTVSPost2010Prop37
 90
       50
102
RTVSPost2010PropOp37
 70
     1
102
RTVSPost2010Prop38
140
0.0
102
RTVSPost2010PropOp38
 70
     1
102
RTVSPost2010Prop39
140
1.0
102
RTVSPost2010PropOp39
 70
     1
102
RTVSPost2010Prop40
 90
        0
102
RTVSPost2010PropOp40
 70
     1
102
RTVSPost2010Prop41ColorIndex
 90
       18
102
RTVSPost2010Prop41ColorRGB
 90
        0
102
RTVSPost2010PropOp41
 70
     1
102
RTVSPost2010Prop42
 90
       50
102
RTVSPost2010PropOp42
 70
     1
102
RTVSPost2010Prop43
 90
        3
102
RTVSPost2010PropOp43
 70
     1
102
RTVSPost2010Prop44ColorIndex
 90
        5
102
RTVSPost2010Prop44ColorRGB
 90
      255
102
RTVSPost2010PropOp44
 70
     1
102
RTVSPost2010Prop45
280
     0
102
RTVSPost2010PropOp45
 70
     1
102
RTVSPost2010Prop46
 90
       50
102
RTVSPost2010PropOp46
 70
     1
102
RTVSPost2010Prop47
 90
       50
102
RTVSPost2010PropOp47
 70
     1
102
RTVSPost2010Prop48
 90
       50
102
RTVSPost2010PropOp48
 70
     1
102
RTVSPost2010Prop49
280
     0
102
RTVSPost2010PropOp49
 70
     1
102
RTVSPost2010Prop50
 90
       50
102
RTVSPost2010PropOp50
 70
     1
102
RTVSPost2010Prop51ColorIndex
 90
      256
102
RTVSPost2010Prop51ColorRGB
 90
-16777216
102
RTVSPost2010PropOp51
 70
     0
102
RTVSPost2010Prop52
140
1.0
102
RTVSPost2010PropOp52
 70
     0
102
RTVSPost2010Prop53
 90
        2
102
RTVSPost2010PropOp53
 70
     1
102
RTVSPost2010Prop54
  1
strokes_ogs.tif
102
RTVSPost2010PropOp54
 70
     1
102
RTVSPost2010Prop55
280
     0
102
RTVSPost2010PropOp55
 70
     1
102
RTVSPost2010Prop56
140
1.0
102
RTVSPost2010PropOp56
 70
     1
102
RTVSPost2010Prop57
140
1.0
102
RTVSPost2010PropOp57
 70
     1
102
RTVSPropertyOp0
 70
     1
102
RTVSPropertyOp1
 70
     1
102
RTVSPropertyOp2
 70
     1
102
RTVSPropertyOp3
 70
     1
102
RTVSPropertyOp4
 70
     1
102
RTVSPropertyOp5
 70
     1
102
RTVSPropertyOp6
 70
     1
102
RTVSPropertyOp7
 70
     1
102
RTVSPropertyOp8
 70
     1
102
RTVSPropertyOp9
 70
     1
102
RTVSPropertyOp10
 70
     1
102
RTVSPropertyOp11
 70
     1
102
RTVSPropertyOp12
 70
     1
102
RTVSPropertyOp13
 70
     1
102
RTVSPropertyOp14
 70
     1
102
RTVSPropertyOp15
 70
     1
102
RTVSPropertyOp16
 70
     1
102
RTVSPropertyOp17
 70
     1
102
RTVSPropertyOp18
 70
     1
102
RTVSPropertyOp19
 70
     1
102
RTVSPropertyOp20
 70
     1
102
RTVSPropertyOp21
 70
     1
102
RTVSPropertyOp22
 70
     1
102
RTVSPropertyOp23
 70
     1
102
RTVSPropertyOp24
 70
     1
102
RTVSPropertyOp25
 70
     1
102
RTVSPropertyOp26
 70
     1
102
RTVSPropertyOp27
 70
     1
102
RTVSPropertyOp28
 70
     1
102
RTVSPropertyOp29
 70
     1
102
RTVSPropertyOp30
 70
     1
102
RTVSPropertyOp31
 70
     1
102
RTVSPropertyOp32
 70
     1
102
RTVSPropertyOp33
 70
     1
102
RTVSPropertyOp34
 70
     1
102
RTVSPropertyOp35
 70
     1
102
RTVSPropertyOp36
 70
     1
102
RTVSPropertyOp37
 70
     1
102
RTVSPropertyOp38
 70
     1
102
RTVSPropertyOp39
 70
     1
102
RTVSPropertyOp40
 70
     1
102
RTVSPropertyOp41
 70
     1
102
RTVSPropertyOp42
 70
     1
102
RTVSPropertyOp43
 70
     1
102
RTVSPropertyOp44
 70
     1
102
RTVSPropertyOp45
 70
     1
102
RTVSPropertyOp46
 70
     1
102
RTVSPropertyOp47
 70
     1
102
RTVSPropertyOp48
 70
     1
102
RTVSPropertyOp49
 70
     1
102
RTVSPropertyOp50
 70
     1
102
RTVSPropertyOp51
 70
     0
102
RTVSPropertyOp52
 70
     0
102
RTVSPropertyOp53
 70
     1
102
RTVSPropertyOp54
 70
     1
102
RTVSPropertyOp55
 70
     1
102
RTVSPropertyOp56
 70
     1
102
RTVSPropertyOp57
 70
     1
102
RTVSPropertyOp58
 70
     1
102
RTVSPropertyOp59
 70
     1
102
RTVSPropertyOp60
 70
     1
102
RTVSPropertyOp61
 70
     1
102
RTVSPropertyOp62
 70
     1
  0
XRECORD
  5
4842
102
{ACAD_REACTORS
330
4841
102
}
330
4841
100
AcDbXrecord
280
     1
102
RTVSPost2010Prop28
280
     0
102
RTVSPost2010PropOp28
 70
     1
102
RTVSPost2010Prop29
280
     1
102
RTVSPost2010PropOp29
 70
     1
102
RTVSPost2010Prop30
280
     1
102
RTVSPost2010PropOp30
 70
     1
102
RTVSPost2010Prop31
280
     0
102
RTVSPost2010PropOp31
 70
     1
102
RTVSPost2010Prop32
280
     0
102
RTVSPost2010PropOp32
 70
     1
102
RTVSPost2010Prop33
280
     0
102
RTVSPost2010PropOp33
 70
     1
102
RTVSPost2010Prop34
280
     0
102
RTVSPost2010PropOp34
 70
     1
102
RTVSPost2010Prop35
280
     0
102
RTVSPost2010PropOp35
 70
     1
102
RTVSPost2010Prop36
280
     0
102
RTVSPost2010PropOp36
 70
     1
102
RTVSPost2010Prop37
 90
       50
102
RTVSPost2010PropOp37
 70
     1
102
RTVSPost2010Prop38
140
0.0
102
RTVSPost2010PropOp38
 70
     1
102
RTVSPost2010Prop39
140
1.0
102
RTVSPost2010PropOp39
 70
     1
102
RTVSPost2010Prop40
 90
        0
102
RTVSPost2010PropOp40
 70
     1
102
RTVSPost2010Prop41ColorIndex
 90
       18
102
RTVSPost2010Prop41ColorRGB
 90
        0
102
RTVSPost2010PropOp41
 70
     1
102
RTVSPost2010Prop42
 90
       50
102
RTVSPost2010PropOp42
 70
     1
102
RTVSPost2010Prop43
 90
        3
102
RTVSPost2010PropOp43
 70
     1
102
RTVSPost2010Prop44ColorIndex
 90
        5
102
RTVSPost2010Prop44ColorRGB
 90
      255
102
RTVSPost2010PropOp44
 70
     1
102
RTVSPost2010Prop45
280
     0
102
RTVSPost2010PropOp45
 70
     1
102
RTVSPost2010Prop46
 90
       50
102
RTVSPost2010PropOp46
 70
     1
102
RTVSPost2010Prop47
 90
       50
102
RTVSPost2010PropOp47
 70
     1
102
RTVSPost2010Prop48
 90
       50
102
RTVSPost2010PropOp48
 70
     1
102
RTVSPost2010Prop49
280
     0
102
RTVSPost2010PropOp49
 70
     1
102
RTVSPost2010Prop50
 90
       50
102
RTVSPost2010PropOp50
 70
     1
102
RTVSPost2010Prop51ColorIndex
 90
      256
102
RTVSPost2010Prop51ColorRGB
 90
-16777216
102
RTVSPost2010PropOp51
 70
     0
102
RTVSPost2010Prop52
140
1.0
102
RTVSPost2010PropOp52
 70
     0
102
RTVSPost2010Prop53
 90
        2
102
RTVSPost2010PropOp53
 70
     1
102
RTVSPost2010Prop54
  1
strokes_ogs.tif
102
RTVSPost2010PropOp54
 70
     1
102
RTVSPost2010Prop55
280
     0
102
RTVSPost2010PropOp55
 70
     1
102
RTVSPost2010Prop56
140
1.0
102
RTVSPost2010PropOp56
 70
     1
102
RTVSPost2010Prop57
140
1.0
102
RTVSPost2010PropOp57
 70
     1
102
RTVSPropertyOp0
 70
     1
102
RTVSPropertyOp1
 70
     1
102
RTVSPropertyOp2
 70
     1
102
RTVSPropertyOp3
 70
     1
102
RTVSPropertyOp4
 70
     1
102
RTVSPropertyOp5
 70
     1
102
RTVSPropertyOp6
 70
     1
102
RTVSPropertyOp7
 70
     1
102
RTVSPropertyOp8
 70
     1
102
RTVSPropertyOp9
 70
     1
102
RTVSPropertyOp10
 70
     1
102
RTVSPropertyOp11
 70
     1
102
RTVSPropertyOp12
 70
     1
102
RTVSPropertyOp13
 70
     1
102
RTVSPropertyOp14
 70
     1
102
RTVSPropertyOp15
 70
     1
102
RTVSPropertyOp16
 70
     1
102
RTVSPropertyOp17
 70
     1
102
RTVSPropertyOp18
 70
     1
102
RTVSPropertyOp19
 70
     1
102
RTVSPropertyOp20
 70
     1
102
RTVSPropertyOp21
 70
     1
102
RTVSPropertyOp22
 70
     1
102
RTVSPropertyOp23
 70
     1
102
RTVSPropertyOp24
 70
     1
102
RTVSPropertyOp25
 70
     1
102
RTVSPropertyOp26
 70
     1
102
RTVSPropertyOp27
 70
     1
102
RTVSPropertyOp28
 70
     1
102
RTVSPropertyOp29
 70
     1
102
RTVSPropertyOp30
 70
     1
102
RTVSPropertyOp31
 70
     1
102
RTVSPropertyOp32
 70
     1
102
RTVSPropertyOp33
 70
     1
102
RTVSPropertyOp34
 70
     1
102
RTVSPropertyOp35
 70
     1
102
RTVSPropertyOp36
 70
     1
102
RTVSPropertyOp37
 70
     1
102
RTVSPropertyOp38
 70
     1
102
RTVSPropertyOp39
 70
     1
102
RTVSPropertyOp40
 70
     1
102
RTVSPropertyOp41
 70
     1
102
RTVSPropertyOp42
 70
     1
102
RTVSPropertyOp43
 70
     1
102
RTVSPropertyOp44
 70
     1
102
RTVSPropertyOp45
 70
     1
102
RTVSPropertyOp46
 70
     1
102
RTVSPropertyOp47
 70
     1
102
RTVSPropertyOp48
 70
     1
102
RTVSPropertyOp49
 70
     1
102
RTVSPropertyOp50
 70
     1
102
RTVSPropertyOp51
 70
     0
102
RTVSPropertyOp52
 70
     0
102
RTVSPropertyOp53
 70
     1
102
RTVSPropertyOp54
 70
     1
102
RTVSPropertyOp55
 70
     1
102
RTVSPropertyOp56
 70
     1
102
RTVSPropertyOp57
 70
     1
102
RTVSPropertyOp58
 70
     1
102
RTVSPropertyOp59
 70
     1
102
RTVSPropertyOp60
 70
     1
102
RTVSPropertyOp61
 70
     1
102
RTVSPropertyOp62
 70
     1
  0
XRECORD
  5
4840
102
{ACAD_REACTORS
330
483F
102
}
330
483F
100
AcDbXrecord
280
     1
102
RTVSPost2010Prop28
280
     0
102
RTVSPost2010PropOp28
 70
     1
102
RTVSPost2010Prop29
280
     1
102
RTVSPost2010PropOp29
 70
     1
102
RTVSPost2010Prop30
280
     1
102
RTVSPost2010PropOp30
 70
     1
102
RTVSPost2010Prop31
280
     0
102
RTVSPost2010PropOp31
 70
     1
102
RTVSPost2010Prop32
280
     0
102
RTVSPost2010PropOp32
 70
     1
102
RTVSPost2010Prop33
280
     0
102
RTVSPost2010PropOp33
 70
     1
102
RTVSPost2010Prop34
280
     0
102
RTVSPost2010PropOp34
 70
     1
102
RTVSPost2010Prop35
280
     0
102
RTVSPost2010PropOp35
 70
     1
102
RTVSPost2010Prop36
280
     0
102
RTVSPost2010PropOp36
 70
     1
102
RTVSPost2010Prop37
 90
       50
102
RTVSPost2010PropOp37
 70
     1
102
RTVSPost2010Prop38
140
0.0
102
RTVSPost2010PropOp38
 70
     1
102
RTVSPost2010Prop39
140
1.0
102
RTVSPost2010PropOp39
 70
     1
102
RTVSPost2010Prop40
 90
        0
102
RTVSPost2010PropOp40
 70
     1
102
RTVSPost2010Prop41ColorIndex
 90
       18
102
RTVSPost2010Prop41ColorRGB
 90
        0
102
RTVSPost2010PropOp41
 70
     1
102
RTVSPost2010Prop42
 90
       50
102
RTVSPost2010PropOp42
 70
     1
102
RTVSPost2010Prop43
 90
        3
102
RTVSPost2010PropOp43
 70
     1
102
RTVSPost2010Prop44ColorIndex
 90
        5
102
RTVSPost2010Prop44ColorRGB
 90
      255
102
RTVSPost2010PropOp44
 70
     1
102
RTVSPost2010Prop45
280
     0
102
RTVSPost2010PropOp45
 70
     1
102
RTVSPost2010Prop46
 90
       50
102
RTVSPost2010PropOp46
 70
     1
102
RTVSPost2010Prop47
 90
       50
102
RTVSPost2010PropOp47
 70
     1
102
RTVSPost2010Prop48
 90
       50
102
RTVSPost2010PropOp48
 70
     1
102
RTVSPost2010Prop49
280
     0
102
RTVSPost2010PropOp49
 70
     1
102
RTVSPost2010Prop50
 90
       50
102
RTVSPost2010PropOp50
 70
     1
102
RTVSPost2010Prop51ColorIndex
 90
      256
102
RTVSPost2010Prop51ColorRGB
 90
-16777216
102
RTVSPost2010PropOp51
 70
     0
102
RTVSPost2010Prop52
140
1.0
102
RTVSPost2010PropOp52
 70
     0
102
RTVSPost2010Prop53
 90
        2
102
RTVSPost2010PropOp53
 70
     1
102
RTVSPost2010Prop54
  1
strokes_ogs.tif
102
RTVSPost2010PropOp54
 70
     1
102
RTVSPost2010Prop55
280
     0
102
RTVSPost2010PropOp55
 70
     1
102
RTVSPost2010Prop56
140
1.0
102
RTVSPost2010PropOp56
 70
     1
102
RTVSPost2010Prop57
140
1.0
102
RTVSPost2010PropOp57
 70
     1
102
RTVSPropertyOp0
 70
     1
102
RTVSPropertyOp1
 70
     1
102
RTVSPropertyOp2
 70
     1
102
RTVSPropertyOp3
 70
     1
102
RTVSPropertyOp4
 70
     1
102
RTVSPropertyOp5
 70
     1
102
RTVSPropertyOp6
 70
     1
102
RTVSPropertyOp7
 70
     1
102
RTVSPropertyOp8
 70
     1
102
RTVSPropertyOp9
 70
     1
102
RTVSPropertyOp10
 70
     1
102
RTVSPropertyOp11
 70
     1
102
RTVSPropertyOp12
 70
     1
102
RTVSPropertyOp13
 70
     1
102
RTVSPropertyOp14
 70
     1
102
RTVSPropertyOp15
 70
     1
102
RTVSPropertyOp16
 70
     1
102
RTVSPropertyOp17
 70
     1
102
RTVSPropertyOp18
 70
     1
102
RTVSPropertyOp19
 70
     1
102
RTVSPropertyOp20
 70
     1
102
RTVSPropertyOp21
 70
     1
102
RTVSPropertyOp22
 70
     1
102
RTVSPropertyOp23
 70
     1
102
RTVSPropertyOp24
 70
     1
102
RTVSPropertyOp25
 70
     1
102
RTVSPropertyOp26
 70
     1
102
RTVSPropertyOp27
 70
     1
102
RTVSPropertyOp28
 70
     1
102
RTVSPropertyOp29
 70
     1
102
RTVSPropertyOp30
 70
     1
102
RTVSPropertyOp31
 70
     1
102
RTVSPropertyOp32
 70
     1
102
RTVSPropertyOp33
 70
     1
102
RTVSPropertyOp34
 70
     1
102
RTVSPropertyOp35
 70
     1
102
RTVSPropertyOp36
 70
     1
102
RTVSPropertyOp37
 70
     1
102
RTVSPropertyOp38
 70
     1
102
RTVSPropertyOp39
 70
     1
102
RTVSPropertyOp40
 70
     1
102
RTVSPropertyOp41
 70
     1
102
RTVSPropertyOp42
 70
     1
102
RTVSPropertyOp43
 70
     1
102
RTVSPropertyOp44
 70
     1
102
RTVSPropertyOp45
 70
     1
102
RTVSPropertyOp46
 70
     1
102
RTVSPropertyOp47
 70
     1
102
RTVSPropertyOp48
 70
     1
102
RTVSPropertyOp49
 70
     1
102
RTVSPropertyOp50
 70
     1
102
RTVSPropertyOp51
 70
     0
102
RTVSPropertyOp52
 70
     0
102
RTVSPropertyOp53
 70
     1
102
RTVSPropertyOp54
 70
     1
102
RTVSPropertyOp55
 70
     1
102
RTVSPropertyOp56
 70
     1
102
RTVSPropertyOp57
 70
     1
102
RTVSPropertyOp58
 70
     1
102
RTVSPropertyOp59
 70
     1
102
RTVSPropertyOp60
 70
     1
102
RTVSPropertyOp61
 70
     1
102
RTVSPropertyOp62
 70
     1
  0
XRECORD
  5
483A
102
{ACAD_REACTORS
330
4839
102
}
330
4839
100
AcDbXrecord
280
     1
102
RTVSPost2010Prop28
280
     0
102
RTVSPost2010PropOp28
 70
     1
102
RTVSPost2010Prop29
280
     1
102
RTVSPost2010PropOp29
 70
     1
102
RTVSPost2010Prop30
280
     1
102
RTVSPost2010PropOp30
 70
     1
102
RTVSPost2010Prop31
280
     0
102
RTVSPost2010PropOp31
 70
     1
102
RTVSPost2010Prop32
280
     0
102
RTVSPost2010PropOp32
 70
     1
102
RTVSPost2010Prop33
280
     0
102
RTVSPost2010PropOp33
 70
     1
102
RTVSPost2010Prop34
280
     0
102
RTVSPost2010PropOp34
 70
     1
102
RTVSPost2010Prop35
280
     0
102
RTVSPost2010PropOp35
 70
     1
102
RTVSPost2010Prop36
280
     0
102
RTVSPost2010PropOp36
 70
     1
102
RTVSPost2010Prop37
 90
       50
102
RTVSPost2010PropOp37
 70
     1
102
RTVSPost2010Prop38
140
0.0
102
RTVSPost2010PropOp38
 70
     1
102
RTVSPost2010Prop39
140
1.0
102
RTVSPost2010PropOp39
 70
     1
102
RTVSPost2010Prop40
 90
        0
102
RTVSPost2010PropOp40
 70
     1
102
RTVSPost2010Prop41ColorIndex
 90
       18
102
RTVSPost2010Prop41ColorRGB
 90
        0
102
RTVSPost2010PropOp41
 70
     1
102
RTVSPost2010Prop42
 90
       50
102
RTVSPost2010PropOp42
 70
     1
102
RTVSPost2010Prop43
 90
        3
102
RTVSPost2010PropOp43
 70
     1
102
RTVSPost2010Prop44ColorIndex
 90
        5
102
RTVSPost2010Prop44ColorRGB
 90
      255
102
RTVSPost2010PropOp44
 70
     1
102
RTVSPost2010Prop45
280
     0
102
RTVSPost2010PropOp45
 70
     1
102
RTVSPost2010Prop46
 90
       50
102
RTVSPost2010PropOp46
 70
     1
102
RTVSPost2010Prop47
 90
       50
102
RTVSPost2010PropOp47
 70
     1
102
RTVSPost2010Prop48
 90
       50
102
RTVSPost2010PropOp48
 70
     1
102
RTVSPost2010Prop49
280
     0
102
RTVSPost2010PropOp49
 70
     1
102
RTVSPost2010Prop50
 90
       50
102
RTVSPost2010PropOp50
 70
     1
102
RTVSPost2010Prop51ColorIndex
 90
      256
102
RTVSPost2010Prop51ColorRGB
 90
-16777216
102
RTVSPost2010PropOp51
 70
     0
102
RTVSPost2010Prop52
140
1.0
102
RTVSPost2010PropOp52
 70
     0
102
RTVSPost2010Prop53
 90
        2
102
RTVSPost2010PropOp53
 70
     1
102
RTVSPost2010Prop54
  1
strokes_ogs.tif
102
RTVSPost2010PropOp54
 70
     1
102
RTVSPost2010Prop55
280
     0
102
RTVSPost2010PropOp55
 70
     1
102
RTVSPost2010Prop56
140
1.0
102
RTVSPost2010PropOp56
 70
     1
102
RTVSPost2010Prop57
140
1.0
102
RTVSPost2010PropOp57
 70
     1
102
RTVSPropertyOp0
 70
     1
102
RTVSPropertyOp1
 70
     1
102
RTVSPropertyOp2
 70
     1
102
RTVSPropertyOp3
 70
     1
102
RTVSPropertyOp4
 70
     1
102
RTVSPropertyOp5
 70
     1
102
RTVSPropertyOp6
 70
     1
102
RTVSPropertyOp7
 70
     1
102
RTVSPropertyOp8
 70
     1
102
RTVSPropertyOp9
 70
     1
102
RTVSPropertyOp10
 70
     1
102
RTVSPropertyOp11
 70
     1
102
RTVSPropertyOp12
 70
     1
102
RTVSPropertyOp13
 70
     1
102
RTVSPropertyOp14
 70
     1
102
RTVSPropertyOp15
 70
     1
102
RTVSPropertyOp16
 70
     1
102
RTVSPropertyOp17
 70
     1
102
RTVSPropertyOp18
 70
     1
102
RTVSPropertyOp19
 70
     1
102
RTVSPropertyOp20
 70
     1
102
RTVSPropertyOp21
 70
     1
102
RTVSPropertyOp22
 70
     1
102
RTVSPropertyOp23
 70
     1
102
RTVSPropertyOp24
 70
     1
102
RTVSPropertyOp25
 70
     1
102
RTVSPropertyOp26
 70
     1
102
RTVSPropertyOp27
 70
     1
102
RTVSPropertyOp28
 70
     1
102
RTVSPropertyOp29
 70
     1
102
RTVSPropertyOp30
 70
     1
102
RTVSPropertyOp31
 70
     1
102
RTVSPropertyOp32
 70
     1
102
RTVSPropertyOp33
 70
     1
102
RTVSPropertyOp34
 70
     1
102
RTVSPropertyOp35
 70
     1
102
RTVSPropertyOp36
 70
     1
102
RTVSPropertyOp37
 70
     1
102
RTVSPropertyOp38
 70
     1
102
RTVSPropertyOp39
 70
     1
102
RTVSPropertyOp40
 70
     1
102
RTVSPropertyOp41
 70
     1
102
RTVSPropertyOp42
 70
     1
102
RTVSPropertyOp43
 70
     1
102
RTVSPropertyOp44
 70
     1
102
RTVSPropertyOp45
 70
     1
102
RTVSPropertyOp46
 70
     1
102
RTVSPropertyOp47
 70
     1
102
RTVSPropertyOp48
 70
     1
102
RTVSPropertyOp49
 70
     1
102
RTVSPropertyOp50
 70
     1
102
RTVSPropertyOp51
 70
     0
102
RTVSPropertyOp52
 70
     0
102
RTVSPropertyOp53
 70
     1
102
RTVSPropertyOp54
 70
     1
102
RTVSPropertyOp55
 70
     1
102
RTVSPropertyOp56
 70
     1
102
RTVSPropertyOp57
 70
     1
102
RTVSPropertyOp58
 70
     1
102
RTVSPropertyOp59
 70
     1
102
RTVSPropertyOp60
 70
     1
102
RTVSPropertyOp61
 70
     1
102
RTVSPropertyOp62
 70
     1
  0
XRECORD
  5
483C
102
{ACAD_REACTORS
330
483B
102
}
330
483B
100
AcDbXrecord
280
     1
102
RTVSPost2010Prop28
280
     0
102
RTVSPost2010PropOp28
 70
     1
102
RTVSPost2010Prop29
280
     1
102
RTVSPost2010PropOp29
 70
     1
102
RTVSPost2010Prop30
280
     1
102
RTVSPost2010PropOp30
 70
     1
102
RTVSPost2010Prop31
280
     0
102
RTVSPost2010PropOp31
 70
     1
102
RTVSPost2010Prop32
280
     0
102
RTVSPost2010PropOp32
 70
     1
102
RTVSPost2010Prop33
280
     0
102
RTVSPost2010PropOp33
 70
     1
102
RTVSPost2010Prop34
280
     0
102
RTVSPost2010PropOp34
 70
     1
102
RTVSPost2010Prop35
280
     0
102
RTVSPost2010PropOp35
 70
     1
102
RTVSPost2010Prop36
280
     0
102
RTVSPost2010PropOp36
 70
     1
102
RTVSPost2010Prop37
 90
       50
102
RTVSPost2010PropOp37
 70
     1
102
RTVSPost2010Prop38
140
0.0
102
RTVSPost2010PropOp38
 70
     1
102
RTVSPost2010Prop39
140
1.0
102
RTVSPost2010PropOp39
 70
     1
102
RTVSPost2010Prop40
 90
        0
102
RTVSPost2010PropOp40
 70
     1
102
RTVSPost2010Prop41ColorIndex
 90
       18
102
RTVSPost2010Prop41ColorRGB
 90
        0
102
RTVSPost2010PropOp41
 70
     1
102
RTVSPost2010Prop42
 90
       50
102
RTVSPost2010PropOp42
 70
     1
102
RTVSPost2010Prop43
 90
        3
102
RTVSPost2010PropOp43
 70
     1
102
RTVSPost2010Prop44ColorIndex
 90
        5
102
RTVSPost2010Prop44ColorRGB
 90
      255
102
RTVSPost2010PropOp44
 70
     1
102
RTVSPost2010Prop45
280
     0
102
RTVSPost2010PropOp45
 70
     1
102
RTVSPost2010Prop46
 90
       50
102
RTVSPost2010PropOp46
 70
     1
102
RTVSPost2010Prop47
 90
       50
102
RTVSPost2010PropOp47
 70
     1
102
RTVSPost2010Prop48
 90
       50
102
RTVSPost2010PropOp48
 70
     1
102
RTVSPost2010Prop49
280
     0
102
RTVSPost2010PropOp49
 70
     1
102
RTVSPost2010Prop50
 90
       50
102
RTVSPost2010PropOp50
 70
     1
102
RTVSPost2010Prop51ColorIndex
 90
      256
102
RTVSPost2010Prop51ColorRGB
 90
-16777216
102
RTVSPost2010PropOp51
 70
     0
102
RTVSPost2010Prop52
140
1.0
102
RTVSPost2010PropOp52
 70
     0
102
RTVSPost2010Prop53
 90
        2
102
RTVSPost2010PropOp53
 70
     1
102
RTVSPost2010Prop54
  1
strokes_ogs.tif
102
RTVSPost2010PropOp54
 70
     1
102
RTVSPost2010Prop55
280
     0
102
RTVSPost2010PropOp55
 70
     1
102
RTVSPost2010Prop56
140
1.0
102
RTVSPost2010PropOp56
 70
     1
102
RTVSPost2010Prop57
140
1.0
102
RTVSPost2010PropOp57
 70
     1
102
RTVSPropertyOp0
 70
     1
102
RTVSPropertyOp1
 70
     1
102
RTVSPropertyOp2
 70
     1
102
RTVSPropertyOp3
 70
     1
102
RTVSPropertyOp4
 70
     1
102
RTVSPropertyOp5
 70
     1
102
RTVSPropertyOp6
 70
     1
102
RTVSPropertyOp7
 70
     1
102
RTVSPropertyOp8
 70
     1
102
RTVSPropertyOp9
 70
     1
102
RTVSPropertyOp10
 70
     1
102
RTVSPropertyOp11
 70
     1
102
RTVSPropertyOp12
 70
     1
102
RTVSPropertyOp13
 70
     1
102
RTVSPropertyOp14
 70
     1
102
RTVSPropertyOp15
 70
     1
102
RTVSPropertyOp16
 70
     1
102
RTVSPropertyOp17
 70
     1
102
RTVSPropertyOp18
 70
     1
102
RTVSPropertyOp19
 70
     1
102
RTVSPropertyOp20
 70
     1
102
RTVSPropertyOp21
 70
     1
102
RTVSPropertyOp22
 70
     1
102
RTVSPropertyOp23
 70
     1
102
RTVSPropertyOp24
 70
     1
102
RTVSPropertyOp25
 70
     1
102
RTVSPropertyOp26
 70
     1
102
RTVSPropertyOp27
 70
     1
102
RTVSPropertyOp28
 70
     1
102
RTVSPropertyOp29
 70
     1
102
RTVSPropertyOp30
 70
     1
102
RTVSPropertyOp31
 70
     1
102
RTVSPropertyOp32
 70
     1
102
RTVSPropertyOp33
 70
     1
102
RTVSPropertyOp34
 70
     1
102
RTVSPropertyOp35
 70
     1
102
RTVSPropertyOp36
 70
     1
102
RTVSPropertyOp37
 70
     1
102
RTVSPropertyOp38
 70
     1
102
RTVSPropertyOp39
 70
     1
102
RTVSPropertyOp40
 70
     1
102
RTVSPropertyOp41
 70
     1
102
RTVSPropertyOp42
 70
     1
102
RTVSPropertyOp43
 70
     1
102
RTVSPropertyOp44
 70
     1
102
RTVSPropertyOp45
 70
     1
102
RTVSPropertyOp46
 70
     1
102
RTVSPropertyOp47
 70
     1
102
RTVSPropertyOp48
 70
     1
102
RTVSPropertyOp49
 70
     1
102
RTVSPropertyOp50
 70
     1
102
RTVSPropertyOp51
 70
     0
102
RTVSPropertyOp52
 70
     0
102
RTVSPropertyOp53
 70
     1
102
RTVSPropertyOp54
 70
     1
102
RTVSPropertyOp55
 70
     1
102
RTVSPropertyOp56
 70
     1
102
RTVSPropertyOp57
 70
     1
102
RTVSPropertyOp58
 70
     1
102
RTVSPropertyOp59
 70
     1
102
RTVSPropertyOp60
 70
     1
102
RTVSPropertyOp61
 70
     1
102
RTVSPropertyOp62
 70
     1
  0
XRECORD
  5
4832
102
{ACAD_REACTORS
330
4831
102
}
330
4831
100
AcDbXrecord
280
     1
102
RTVSPost2010Prop28
280
     0
102
RTVSPost2010PropOp28
 70
     1
102
RTVSPost2010Prop29
280
     1
102
RTVSPost2010PropOp29
 70
     1
102
RTVSPost2010Prop30
280
     1
102
RTVSPost2010PropOp30
 70
     1
102
RTVSPost2010Prop31
280
     0
102
RTVSPost2010PropOp31
 70
     1
102
RTVSPost2010Prop32
280
     0
102
RTVSPost2010PropOp32
 70
     1
102
RTVSPost2010Prop33
280
     0
102
RTVSPost2010PropOp33
 70
     1
102
RTVSPost2010Prop34
280
     0
102
RTVSPost2010PropOp34
 70
     1
102
RTVSPost2010Prop35
280
     0
102
RTVSPost2010PropOp35
 70
     1
102
RTVSPost2010Prop36
280
     0
102
RTVSPost2010PropOp36
 70
     1
102
RTVSPost2010Prop37
 90
       50
102
RTVSPost2010PropOp37
 70
     1
102
RTVSPost2010Prop38
140
0.0
102
RTVSPost2010PropOp38
 70
     1
102
RTVSPost2010Prop39
140
1.0
102
RTVSPost2010PropOp39
 70
     1
102
RTVSPost2010Prop40
 90
        0
102
RTVSPost2010PropOp40
 70
     1
102
RTVSPost2010Prop41ColorIndex
 90
       18
102
RTVSPost2010Prop41ColorRGB
 90
        0
102
RTVSPost2010PropOp41
 70
     1
102
RTVSPost2010Prop42
 90
       50
102
RTVSPost2010PropOp42
 70
     1
102
RTVSPost2010Prop43
 90
        3
102
RTVSPost2010PropOp43
 70
     1
102
RTVSPost2010Prop44ColorIndex
 90
        5
102
RTVSPost2010Prop44ColorRGB
 90
      255
102
RTVSPost2010PropOp44
 70
     1
102
RTVSPost2010Prop45
280
     0
102
RTVSPost2010PropOp45
 70
     1
102
RTVSPost2010Prop46
 90
       50
102
RTVSPost2010PropOp46
 70
     1
102
RTVSPost2010Prop47
 90
       50
102
RTVSPost2010PropOp47
 70
     1
102
RTVSPost2010Prop48
 90
       50
102
RTVSPost2010PropOp48
 70
     1
102
RTVSPost2010Prop49
280
     0
102
RTVSPost2010PropOp49
 70
     1
102
RTVSPost2010Prop50
 90
       50
102
RTVSPost2010PropOp50
 70
     1
102
RTVSPost2010Prop51ColorIndex
 90
      256
102
RTVSPost2010Prop51ColorRGB
 90
-16777216
102
RTVSPost2010PropOp51
 70
     0
102
RTVSPost2010Prop52
140
1.0
102
RTVSPost2010PropOp52
 70
     0
102
RTVSPost2010Prop53
 90
        2
102
RTVSPost2010PropOp53
 70
     1
102
RTVSPost2010Prop54
  1
strokes_ogs.tif
102
RTVSPost2010PropOp54
 70
     1
102
RTVSPost2010Prop55
280
     0
102
RTVSPost2010PropOp55
 70
     1
102
RTVSPost2010Prop56
140
1.0
102
RTVSPost2010PropOp56
 70
     1
102
RTVSPost2010Prop57
140
1.0
102
RTVSPost2010PropOp57
 70
     1
102
RTVSPropertyOp0
 70
     1
102
RTVSPropertyOp1
 70
     1
102
RTVSPropertyOp2
 70
     1
102
RTVSPropertyOp3
 70
     1
102
RTVSPropertyOp4
 70
     1
102
RTVSPropertyOp5
 70
     1
102
RTVSPropertyOp6
 70
     1
102
RTVSPropertyOp7
 70
     1
102
RTVSPropertyOp8
 70
     1
102
RTVSPropertyOp9
 70
     1
102
RTVSPropertyOp10
 70
     1
102
RTVSPropertyOp11
 70
     1
102
RTVSPropertyOp12
 70
     1
102
RTVSPropertyOp13
 70
     1
102
RTVSPropertyOp14
 70
     1
102
RTVSPropertyOp15
 70
     1
102
RTVSPropertyOp16
 70
     1
102
RTVSPropertyOp17
 70
     1
102
RTVSPropertyOp18
 70
     1
102
RTVSPropertyOp19
 70
     1
102
RTVSPropertyOp20
 70
     1
102
RTVSPropertyOp21
 70
     1
102
RTVSPropertyOp22
 70
     1
102
RTVSPropertyOp23
 70
     1
102
RTVSPropertyOp24
 70
     1
102
RTVSPropertyOp25
 70
     1
102
RTVSPropertyOp26
 70
     1
102
RTVSPropertyOp27
 70
     1
102
RTVSPropertyOp28
 70
     1
102
RTVSPropertyOp29
 70
     1
102
RTVSPropertyOp30
 70
     1
102
RTVSPropertyOp31
 70
     1
102
RTVSPropertyOp32
 70
     1
102
RTVSPropertyOp33
 70
     1
102
RTVSPropertyOp34
 70
     1
102
RTVSPropertyOp35
 70
     1
102
RTVSPropertyOp36
 70
     1
102
RTVSPropertyOp37
 70
     1
102
RTVSPropertyOp38
 70
     1
102
RTVSPropertyOp39
 70
     1
102
RTVSPropertyOp40
 70
     1
102
RTVSPropertyOp41
 70
     1
102
RTVSPropertyOp42
 70
     1
102
RTVSPropertyOp43
 70
     1
102
RTVSPropertyOp44
 70
     1
102
RTVSPropertyOp45
 70
     1
102
RTVSPropertyOp46
 70
     1
102
RTVSPropertyOp47
 70
     1
102
RTVSPropertyOp48
 70
     1
102
RTVSPropertyOp49
 70
     1
102
RTVSPropertyOp50
 70
     1
102
RTVSPropertyOp51
 70
     0
102
RTVSPropertyOp52
 70
     0
102
RTVSPropertyOp53
 70
     1
102
RTVSPropertyOp54
 70
     1
102
RTVSPropertyOp55
 70
     1
102
RTVSPropertyOp56
 70
     1
102
RTVSPropertyOp57
 70
     1
102
RTVSPropertyOp58
 70
     1
102
RTVSPropertyOp59
 70
     1
102
RTVSPropertyOp60
 70
     1
102
RTVSPropertyOp61
 70
     1
102
RTVSPropertyOp62
 70
     1
  0
XRECORD
  5
4826
102
{ACAD_REACTORS
330
4825
102
}
330
4825
100
AcDbXrecord
280
     1
102
RTVSPost2010Prop28
280
     0
102
RTVSPost2010PropOp28
 70
     1
102
RTVSPost2010Prop29
280
     1
102
RTVSPost2010PropOp29
 70
     1
102
RTVSPost2010Prop30
280
     1
102
RTVSPost2010PropOp30
 70
     1
102
RTVSPost2010Prop31
280
     0
102
RTVSPost2010PropOp31
 70
     1
102
RTVSPost2010Prop32
280
     0
102
RTVSPost2010PropOp32
 70
     1
102
RTVSPost2010Prop33
280
     0
102
RTVSPost2010PropOp33
 70
     1
102
RTVSPost2010Prop34
280
     0
102
RTVSPost2010PropOp34
 70
     1
102
RTVSPost2010Prop35
280
     0
102
RTVSPost2010PropOp35
 70
     1
102
RTVSPost2010Prop36
280
     0
102
RTVSPost2010PropOp36
 70
     1
102
RTVSPost2010Prop37
 90
       50
102
RTVSPost2010PropOp37
 70
     1
102
RTVSPost2010Prop38
140
0.0
102
RTVSPost2010PropOp38
 70
     1
102
RTVSPost2010Prop39
140
1.0
102
RTVSPost2010PropOp39
 70
     1
102
RTVSPost2010Prop40
 90
        0
102
RTVSPost2010PropOp40
 70
     1
102
RTVSPost2010Prop41ColorIndex
 90
       18
102
RTVSPost2010Prop41ColorRGB
 90
        0
102
RTVSPost2010PropOp41
 70
     1
102
RTVSPost2010Prop42
 90
       50
102
RTVSPost2010PropOp42
 70
     1
102
RTVSPost2010Prop43
 90
        3
102
RTVSPost2010PropOp43
 70
     1
102
RTVSPost2010Prop44ColorIndex
 90
        5
102
RTVSPost2010Prop44ColorRGB
 90
      255
102
RTVSPost2010PropOp44
 70
     1
102
RTVSPost2010Prop45
280
     0
102
RTVSPost2010PropOp45
 70
     1
102
RTVSPost2010Prop46
 90
       50
102
RTVSPost2010PropOp46
 70
     1
102
RTVSPost2010Prop47
 90
       50
102
RTVSPost2010PropOp47
 70
     1
102
RTVSPost2010Prop48
 90
       50
102
RTVSPost2010PropOp48
 70
     1
102
RTVSPost2010Prop49
280
     0
102
RTVSPost2010PropOp49
 70
     1
102
RTVSPost2010Prop50
 90
       50
102
RTVSPost2010PropOp50
 70
     1
102
RTVSPost2010Prop51ColorIndex
 90
      256
102
RTVSPost2010Prop51ColorRGB
 90
-16777216
102
RTVSPost2010PropOp51
 70
     0
102
RTVSPost2010Prop52
140
1.0
102
RTVSPost2010PropOp52
 70
     0
102
RTVSPost2010Prop53
 90
        2
102
RTVSPost2010PropOp53
 70
     1
102
RTVSPost2010Prop54
  1
strokes_ogs.tif
102
RTVSPost2010PropOp54
 70
     1
102
RTVSPost2010Prop55
280
     0
102
RTVSPost2010PropOp55
 70
     1
102
RTVSPost2010Prop56
140
1.0
102
RTVSPost2010PropOp56
 70
     1
102
RTVSPost2010Prop57
140
1.0
102
RTVSPost2010PropOp57
 70
     1
102
RTVSPropertyOp0
 70
     1
102
RTVSPropertyOp1
 70
     1
102
RTVSPropertyOp2
 70
     1
102
RTVSPropertyOp3
 70
     1
102
RTVSPropertyOp4
 70
     1
102
RTVSPropertyOp5
 70
     1
102
RTVSPropertyOp6
 70
     1
102
RTVSPropertyOp7
 70
     1
102
RTVSPropertyOp8
 70
     1
102
RTVSPropertyOp9
 70
     1
102
RTVSPropertyOp10
 70
     1
102
RTVSPropertyOp11
 70
     1
102
RTVSPropertyOp12
 70
     1
102
RTVSPropertyOp13
 70
     1
102
RTVSPropertyOp14
 70
     1
102
RTVSPropertyOp15
 70
     1
102
RTVSPropertyOp16
 70
     1
102
RTVSPropertyOp17
 70
     1
102
RTVSPropertyOp18
 70
     1
102
RTVSPropertyOp19
 70
     1
102
RTVSPropertyOp20
 70
     1
102
RTVSPropertyOp21
 70
     1
102
RTVSPropertyOp22
 70
     1
102
RTVSPropertyOp23
 70
     1
102
RTVSPropertyOp24
 70
     1
102
RTVSPropertyOp25
 70
     1
102
RTVSPropertyOp26
 70
     1
102
RTVSPropertyOp27
 70
     1
102
RTVSPropertyOp28
 70
     1
102
RTVSPropertyOp29
 70
     1
102
RTVSPropertyOp30
 70
     1
102
RTVSPropertyOp31
 70
     1
102
RTVSPropertyOp32
 70
     1
102
RTVSPropertyOp33
 70
     1
102
RTVSPropertyOp34
 70
     1
102
RTVSPropertyOp35
 70
     1
102
RTVSPropertyOp36
 70
     1
102
RTVSPropertyOp37
 70
     1
102
RTVSPropertyOp38
 70
     1
102
RTVSPropertyOp39
 70
     1
102
RTVSPropertyOp40
 70
     1
102
RTVSPropertyOp41
 70
     1
102
RTVSPropertyOp42
 70
     1
102
RTVSPropertyOp43
 70
     1
102
RTVSPropertyOp44
 70
     1
102
RTVSPropertyOp45
 70
     1
102
RTVSPropertyOp46
 70
     1
102
RTVSPropertyOp47
 70
     1
102
RTVSPropertyOp48
 70
     1
102
RTVSPropertyOp49
 70
     1
102
RTVSPropertyOp50
 70
     1
102
RTVSPropertyOp51
 70
     0
102
RTVSPropertyOp52
 70
     0
102
RTVSPropertyOp53
 70
     1
102
RTVSPropertyOp54
 70
     1
102
RTVSPropertyOp55
 70
     1
102
RTVSPropertyOp56
 70
     1
102
RTVSPropertyOp57
 70
     1
102
RTVSPropertyOp58
 70
     1
102
RTVSPropertyOp59
 70
     1
102
RTVSPropertyOp60
 70
     1
102
RTVSPropertyOp61
 70
     1
102
RTVSPropertyOp62
 70
     1
  0
XRECORD
  5
483E
102
{ACAD_REACTORS
330
483D
102
}
330
483D
100
AcDbXrecord
280
     1
102
RTVSPost2010Prop28
280
     0
102
RTVSPost2010PropOp28
 70
     1
102
RTVSPost2010Prop29
280
     1
102
RTVSPost2010PropOp29
 70
     1
102
RTVSPost2010Prop30
280
     1
102
RTVSPost2010PropOp30
 70
     1
102
RTVSPost2010Prop31
280
     0
102
RTVSPost2010PropOp31
 70
     1
102
RTVSPost2010Prop32
280
     0
102
RTVSPost2010PropOp32
 70
     1
102
RTVSPost2010Prop33
280
     0
102
RTVSPost2010PropOp33
 70
     1
102
RTVSPost2010Prop34
280
     0
102
RTVSPost2010PropOp34
 70
     1
102
RTVSPost2010Prop35
280
     0
102
RTVSPost2010PropOp35
 70
     1
102
RTVSPost2010Prop36
280
     0
102
RTVSPost2010PropOp36
 70
     1
102
RTVSPost2010Prop37
 90
       50
102
RTVSPost2010PropOp37
 70
     1
102
RTVSPost2010Prop38
140
0.0
102
RTVSPost2010PropOp38
 70
     1
102
RTVSPost2010Prop39
140
1.0
102
RTVSPost2010PropOp39
 70
     1
102
RTVSPost2010Prop40
 90
        0
102
RTVSPost2010PropOp40
 70
     1
102
RTVSPost2010Prop41ColorIndex
 90
       18
102
RTVSPost2010Prop41ColorRGB
 90
        0
102
RTVSPost2010PropOp41
 70
     1
102
RTVSPost2010Prop42
 90
       50
102
RTVSPost2010PropOp42
 70
     1
102
RTVSPost2010Prop43
 90
        3
102
RTVSPost2010PropOp43
 70
     1
102
RTVSPost2010Prop44ColorIndex
 90
        5
102
RTVSPost2010Prop44ColorRGB
 90
      255
102
RTVSPost2010PropOp44
 70
     1
102
RTVSPost2010Prop45
280
     0
102
RTVSPost2010PropOp45
 70
     1
102
RTVSPost2010Prop46
 90
       50
102
RTVSPost2010PropOp46
 70
     1
102
RTVSPost2010Prop47
 90
       50
102
RTVSPost2010PropOp47
 70
     1
102
RTVSPost2010Prop48
 90
       50
102
RTVSPost2010PropOp48
 70
     1
102
RTVSPost2010Prop49
280
     0
102
RTVSPost2010PropOp49
 70
     1
102
RTVSPost2010Prop50
 90
       50
102
RTVSPost2010PropOp50
 70
     1
102
RTVSPost2010Prop51ColorIndex
 90
      256
102
RTVSPost2010Prop51ColorRGB
 90
-16777216
102
RTVSPost2010PropOp51
 70
     0
102
RTVSPost2010Prop52
140
1.0
102
RTVSPost2010PropOp52
 70
     0
102
RTVSPost2010Prop53
 90
        2
102
RTVSPost2010PropOp53
 70
     1
102
RTVSPost2010Prop54
  1
strokes_ogs.tif
102
RTVSPost2010PropOp54
 70
     1
102
RTVSPost2010Prop55
280
     0
102
RTVSPost2010PropOp55
 70
     1
102
RTVSPost2010Prop56
140
1.0
102
RTVSPost2010PropOp56
 70
     1
102
RTVSPost2010Prop57
140
1.0
102
RTVSPost2010PropOp57
 70
     1
102
RTVSPropertyOp0
 70
     1
102
RTVSPropertyOp1
 70
     1
102
RTVSPropertyOp2
 70
     1
102
RTVSPropertyOp3
 70
     1
102
RTVSPropertyOp4
 70
     1
102
RTVSPropertyOp5
 70
     1
102
RTVSPropertyOp6
 70
     1
102
RTVSPropertyOp7
 70
     1
102
RTVSPropertyOp8
 70
     1
102
RTVSPropertyOp9
 70
     1
102
RTVSPropertyOp10
 70
     1
102
RTVSPropertyOp11
 70
     1
102
RTVSPropertyOp12
 70
     1
102
RTVSPropertyOp13
 70
     1
102
RTVSPropertyOp14
 70
     1
102
RTVSPropertyOp15
 70
     1
102
RTVSPropertyOp16
 70
     1
102
RTVSPropertyOp17
 70
     1
102
RTVSPropertyOp18
 70
     1
102
RTVSPropertyOp19
 70
     1
102
RTVSPropertyOp20
 70
     1
102
RTVSPropertyOp21
 70
     1
102
RTVSPropertyOp22
 70
     1
102
RTVSPropertyOp23
 70
     1
102
RTVSPropertyOp24
 70
     1
102
RTVSPropertyOp25
 70
     1
102
RTVSPropertyOp26
 70
     1
102
RTVSPropertyOp27
 70
     1
102
RTVSPropertyOp28
 70
     1
102
RTVSPropertyOp29
 70
     1
102
RTVSPropertyOp30
 70
     1
102
RTVSPropertyOp31
 70
     1
102
RTVSPropertyOp32
 70
     1
102
RTVSPropertyOp33
 70
     1
102
RTVSPropertyOp34
 70
     1
102
RTVSPropertyOp35
 70
     1
102
RTVSPropertyOp36
 70
     1
102
RTVSPropertyOp37
 70
     1
102
RTVSPropertyOp38
 70
     1
102
RTVSPropertyOp39
 70
     1
102
RTVSPropertyOp40
 70
     1
102
RTVSPropertyOp41
 70
     1
102
RTVSPropertyOp42
 70
     1
102
RTVSPropertyOp43
 70
     1
102
RTVSPropertyOp44
 70
     1
102
RTVSPropertyOp45
 70
     1
102
RTVSPropertyOp46
 70
     1
102
RTVSPropertyOp47
 70
     1
102
RTVSPropertyOp48
 70
     1
102
RTVSPropertyOp49
 70
     1
102
RTVSPropertyOp50
 70
     1
102
RTVSPropertyOp51
 70
     0
102
RTVSPropertyOp52
 70
     0
102
RTVSPropertyOp53
 70
     1
102
RTVSPropertyOp54
 70
     1
102
RTVSPropertyOp55
 70
     1
102
RTVSPropertyOp56
 70
     1
102
RTVSPropertyOp57
 70
     1
102
RTVSPropertyOp58
 70
     1
102
RTVSPropertyOp59
 70
     1
102
RTVSPropertyOp60
 70
     1
102
RTVSPropertyOp61
 70
     1
102
RTVSPropertyOp62
 70
     1
  0
ENDSEC
  0
EOF
